#TITLE:Uhuru;
#SUBTITLE:;
#ARTIST:Hardstroke;
#TITLETRANSLIT:;
#SUBTITLETRANSLIT:;
#ARTISTTRANSLIT:;
#GENRE:;
#CREDIT:;
#MENUCOLOR:;
#METERTYPE:DDR;
#BANNER:Uhuru-bn.png;
#BACKGROUND:Uhuru-bg.png;
#LYRICSPATH:;
#CDTITLE:ddrencorecdtitle.png;
#MUSIC:Uhuru.mp3;
#OFFSET:0.006;
#SAMPLESTART:36.900;
#SAMPLELENGTH:14.760;
#SELECTABLE:YES;
#LISTSORT:;
#BPMS:0.000=130.000;
#STOPS:;
#BGCHANGES:;
#ATTACKS:;

//---------------dance-single - ----------------
#NOTES:
     dance-single:
     :
     Beginner:
     1:
     0.121,0.183,0.075,0.000,0.000:
0000
0000
0000
0000
,
0000
0000
0000
0000
,
0000
0000
0000
0000
,
0000
0000
0000
0000
,
1000
0000
0100
0000
,
0010
0000
0001
0000
,
0100
0000
0010
0000
,
0100
0000
0010
0000
,
1000
0000
0001
0000
,
1000
0000
0001
0000
,
0010
0000
0000
0000
,
0000
0000
0000
0000
,
0010
0000
0000
0000
,
0100
0000
0000
0000
,
0010
0000
0000
0000
,
0010
0000
0000
0000
,
0001
0000
0000
0000
,
1000
0000
0000
0000
,
0001
0000
0000
0000
,
0001
0000
0000
0000
,
1001
0000
0000
0000
,
1001
0000
0000
0000
,
1001
0000
0000
0000
,
0010
0000
1000
0000
,
0110
0000
0000
0000
,
0110
0000
0000
0000
,
0110
0000
0000
0000
,
1000
0000
0100
0000
,
0010
0000
0000
0000
,
0010
0000
0000
0000
,
0001
0000
0000
0000
,
1000
0000
0000
0000
,
0001
0001
0000
1000
,
1000
0000
0010
0000
,
0100
0100
0000
0010
,
0010
0000
1001
0000
,
1000
0000
1000
0000
,
0100
0000
0000
0000
,
0001
0000
0001
0000
,
0100
0000
0010
0000
,
0001
0000
0001
0000
,
0010
0000
0000
0000
,
1000
0000
1000
0000
,
0010
0000
0100
0000
,
1000
0000
1000
0000
,
0010
0000
0000
0000
,
0001
0000
0001
0000
,
0100
0000
0010
0000
,
0001
0000
0001
0000
,
1000
0000
1000
0000
,
0010
0000
0010
0000
,
0100
0000
0100
0000
,
0001
0000
0010
0000
,
0100
0000
1000
0000
,
1000
0000
0010
0000
,
0100
0000
0001
0000
,
1001
0000
0000
0000
;

//---------------dance-single - ----------------
#NOTES:
     dance-single:
     :
     Easy:
     3:
     0.207,0.266,0.196,0.121,0.000:
0000
0000
0000
0000
,
0000
0000
0000
0000
,
0000
0000
0000
0000
,
0000
0000
0000
0000
,
0001
0000
0100
0000
,
0010
0000
1000
0000
,
1001
0000
0101
0000
,
0110
0000
1010
0000
,
1001
0000
1100
0000
,
0110
0000
0011
0000
,
2002
0000
0000
0000
,
0000
0000
3003
0000
,
0001
0000
0000
0000
,
1000
0000
0000
0000
,
0010
0010
0010
1000
,
0100
0100
0100
0010
,
0001
0000
0000
0000
,
1000
0000
0000
0000
,
0100
0100
0100
1000
,
0010
0010
0010
0100
,
0001
0010
0001
0000
,
0001
0100
0010
0000
,
0010
1000
0100
0000
,
0110
0000
1001
0000
,
1000
0100
1000
0000
,
1000
0010
0100
0000
,
0100
0001
0010
0000
,
1001
0000
0110
0000
,
1001
0000
0000
0000
,
0100
0000
0000
0000
,
0010
0010
0010
0001
,
0100
0100
0100
0010
,
1000
1000
0000
0001
,
0001
0100
0010
0000
,
1000
1000
0000
0001
,
0001
1000
0010
0000
,
0010
0000
1001
0000
,
0200
0000
0300
0000
,
0100
0000
1001
0000
,
0020
0000
1030
0100
,
0010
0001
0100
0000
,
0200
0000
0300
0000
,
0100
1000
0010
0000
,
0020
0000
0030
0000
,
1000
0001
0010
0000
,
0020
0000
0030
0000
,
0010
1000
0100
0000
,
0200
0000
1300
0001
,
0100
0000
0100
0000
,
0010
0000
0010
0000
,
1000
0000
1000
0000
,
0001
0000
0001
0000
,
1001
0000
1100
0000
,
0110
0000
0011
0000
,
0002
0000
0203
0000
,
0320
0000
1030
0001
,
2002
0000
0000
0000
,
3003
0000
0000
0000
;

//---------------dance-single - ----------------
#NOTES:
     dance-single:
     :
     Medium:
     7:
     0.411,0.452,0.289,0.383,0.229:
0000
0000
0000
0000
,
0000
0000
0000
0000
,
0000
0000
0000
0000
,
0000
0000
0000
0000
,
1100
0000
0110
0000
,
0011
0000
0101
0000
,
1000
0000
0000
0100
0000
0000
1000
0000
0010
0000
0000
1000
0000
0000
0001
0000
,
1000
0000
0000
0010
0000
0000
1000
0000
0100
0000
0000
0100
0000
0000
0010
0000
,
0001
0000
0000
0100
0000
0000
0001
0000
0010
0000
0000
0001
0000
0000
1000
0000
,
0001
0000
0000
0010
0000
0000
0001
0000
0100
0000
0000
0100
0000
0000
0010
0000
,
2000
0001
3001
0001
,
0002
0000
0000
0000
1000
0000
0000
0000
1003
0000
0000
0000
1000
0001
0000
0000
,
1000
0000
0000
0100
0000
0000
1000
0000
0100
0000
0000
0000
0011
0000
0000
0000
,
0001
0000
0000
0100
0000
0000
0001
0000
0100
0000
0000
0000
1010
0000
0000
0000
,
1000
1000
0001
0001
,
1000
0100
0010
1001
,
0001
0000
0000
0010
0000
0000
0001
0000
0010
0000
0000
0010
0100
0000
0000
0000
,
1000
0000
0000
0010
0000
0000
1000
0000
0010
0000
0000
0010
0100
0000
0000
0000
,
0001
0001
1000
1000
,
0001
0010
0100
1001
,
2000
0000
0000
0200
0000
3000
0020
0000
0300
0000
0000
0030
0001
0000
0000
0000
,
0002
0000
0000
0200
0000
0003
0020
0000
0300
0000
0000
0030
1000
0000
0000
0000
,
2000
0000
0000
0002
0000
3000
0200
0000
0003
0000
0000
0300
0010
0000
0000
0000
,
2010
0000
0000
3000
0102
0000
0000
0003
,
2000
0000
0000
0200
0000
3000
0002
0000
0300
0000
0000
0003
0100
0000
0000
0000
,
0002
0000
0000
0200
0000
0003
2000
0000
0300
0000
0000
3000
0010
0000
0000
0000
,
2000
0000
0000
0020
0000
3000
0002
0000
0030
0000
0000
0003
0010
0000
0000
0000
,
1020
0000
0000
0030
0201
0000
0000
0300
,
1001
0000
0000
1000
0010
0000
1000
0000
0010
0000
0000
0010
0100
0000
0000
0000
,
1001
0000
0000
0001
0010
0000
0001
0000
0010
0000
0000
0010
0100
0000
0000
0000
,
1000
1000
0001
0001
,
1000
0010
0100
1001
,
0010
0000
0110
0000
0000
0010
1000
0000
,
1001
0000
0101
0000
0020
0000
0000
0030
,
1010
0000
0011
0000
0000
0010
0001
0000
,
1001
0000
0000
0000
1010
0000
0000
0000
0001
0000
0000
1000
0000
0000
0010
0000
,
0100
0000
0000
0100
0000
0000
0200
0000
0000
0000
0000
0000
0300
0000
0010
0000
,
0100
0000
1001
0000
0020
0000
0000
0030
,
0100
0000
0000
0100
0000
0000
0200
0000
0000
0000
0000
0000
0300
0000
0001
0000
,
1000
0000
0000
0000
0000
0000
0000
0000
0000
0000
0000
0000
0000
0000
0000
0000
0100
0000
0000
0000
0000
0000
0000
0000
0000
0000
0000
0000
0000
0000
0000
0000
0000
1000
0000
0000
0000
0000
0000
0000
0000
0000
0000
0000
0000
0000
0000
0000
0000
0000
0000
0000
0000
0000
0000
0000
0000
0000
0000
0000
0000
0000
0000
0000
0000
0000
0000
0000
0000
0000
0000
0000
0000
0000
0000
0000
0000
0000
0000
0000
0000
0000
0000
0000
0000
0000
0000
0000
0000
0000
0000
0000
0000
0000
0000
0000
0110
0000
0000
0000
0000
0000
0000
0000
0000
0000
0000
0000
0000
0000
0000
0000
0000
0000
0000
0000
0000
0000
0000
0000
0000
0000
0000
0000
0000
0000
0000
0000
0000
0000
0000
0000
1001
0000
0000
0000
0000
0000
0000
0000
0000
0000
0000
0000
0000
0000
0000
0000
0000
0000
0000
0000
0000
0000
0000
0000
0000
0000
0000
0000
0000
0000
0000
0000
0000
0000
0000
0000
0110
0000
0000
0000
0000
0000
0000
0000
0000
0000
0000
0000
0000
0000
0000
0000
0000
0000
0000
0000
0000
0000
0000
0000
,
0010
0000
0000
0010
0000
0000
0020
0000
0000
0000
0000
0000
0030
0000
0100
0000
,
0001
1001
0100
0000
,
0010
0000
0000
0010
0000
0000
0020
0000
0000
0000
0000
0000
0030
0000
0100
0000
,
2000
0000
0000
0002
0000
0000
0000
0000
3003
0000
0000
0000
0000
0000
0010
0000
,
0001
0000
0000
0001
0000
0000
0002
0000
0000
0000
0000
0000
0003
0000
0100
0000
,
0010
0000
1001
0000
0200
0000
0000
0310
,
1000
0000
0000
1000
0000
0000
2000
0000
0000
0000
0000
0000
3000
0000
0100
0000
,
1000
0000
0000
0000
0001
0000
0000
0000
1001
0000
0000
0110
0000
0000
0001
0000
,
1000
0000
0000
1000
0100
0000
1000
0000
0010
0000
0000
0010
0100
0000
0001
0000
,
0010
0000
0000
0010
0001
0000
1000
0000
0001
0000
0000
0001
0100
0000
0000
0000
,
0001
0000
0000
0001
0010
0000
0001
0000
0100
0000
0000
0100
0010
0000
1000
0000
,
0100
0000
0000
0100
1000
0000
0001
0000
1000
0000
0000
1000
0010
0000
0000
0000
,
2000
0000
3020
0000
,
0230
0000
0302
0000
,
1003
0000
0000
0100
0000
0000
1000
0000
0010
0000
0000
0100
0000
0000
0001
0000
,
0010
0000
0000
0001
0000
0000
0100
0000
0010
0000
0000
1000
0000
0000
0010
0000
,
2002
0000
0000
0000
,
3003
0000
0000
0000
;

//---------------dance-single - ----------------
#NOTES:
     dance-single:
     :
     Hard:
     9:
     0.549,0.612,0.411,0.383,0.485:
0000
0000
0000
0000
,
0000
0000
0000
0000
,
0000
0000
0000
0000
,
0000
0000
0000
0000
,
1020
0000
0000
0030
0201
0000
0000
0300
,
0012
0000
0000
0003
2100
0000
0000
3000
,
0110
0000
0000
0001
0000
0000
1000
0000
0010
0000
0000
0100
0000
0000
1000
0000
,
0001
0000
0000
0010
0000
0000
0100
0000
1001
0000
0000
0010
0000
0000
0010
1000
,
0001
0000
0000
1000
0000
0000
0001
0000
0010
0001
0000
0100
0000
0000
0001
0000
,
1000
0000
0000
0010
0000
0000
0100
0000
1001
0000
0000
0010
0001
0010
0001
0000
,
2000
0001
0001
3001
,
0002
0000
0000
0000
1000
0000
0000
0000
1000
0000
0000
0000
1003
0001
0000
0000
,
0001
0000
0000
0010
0001
0000
1000
0000
0010
0000
0000
0100
0010
0000
0000
0000
,
1000
0000
0000
0100
1000
0000
0001
0000
0100
0000
0000
0100
0010
0100
0010
0000
,
1000
0010
0001
0110
,
0001
0000
0000
0100
0001
0000
1000
0000
0010
0100
0000
0000
1010
0000
0000
0000
,
1001
0000
0000
0100
0000
0000
1000
0000
0001
0000
0000
0001
0010
0000
0000
0000
,
1001
0000
0000
0010
0000
0000
0001
0000
0100
0000
0000
0010
0100
0010
0100
0000
,
0001
0010
1000
0100
,
0011
0000
0000
0000
0100
0000
0000
0000
0110
0000
0000
0000
1001
0000
0100
1000
,
0002
0000
0000
0100
0000
0000
0020
0000
0003
0000
0000
0000
1000
0000
0030
0000
,
2000
0000
0000
0020
0000
3000
0002
0000
0030
0000
0000
0003
0100
0000
0100
0001
,
2000
0000
0000
0010
0000
0000
0200
0000
3000
0000
0000
0000
0001
0000
0300
0000
,
0002
0000
0000
0200
0000
0003
1000
0000
2300
0000
0000
0000
3010
0000
0000
0000
,
0200
0000
0000
1000
0000
0000
0002
0000
0000
0000
0303
0000
0101
0000
0000
0000
,
0020
0000
0000
0001
0000
0000
2000
0000
0000
0000
3030
0000
1010
0000
0000
0000
,
2000
0000
0000
0200
0000
3000
0002
0000
0300
0000
0000
0003
0100
0000
0000
0000
,
0020
0000
0000
1000
0000
0000
0031
0000
0200
0000
0000
1000
0000
0000
0301
0000
,
1000
0000
0000
0010
1000
0000
0001
0000
0010
0000
0000
0100
0010
0000
0000
0000
,
0001
0000
0000
0100
0001
0000
1000
0000
0100
0000
0000
0100
0010
0100
0010
0000
,
0001
0010
1000
0100
,
0011
0100
0110
1001
,
0100
0000
0000
0000
0010
0010
0000
0000
0000
0000
0010
1000
0010
1000
0010
0100
,
0001
0001
0000
0000
1000
1000
0000
0000
2002
0000
0000
0000
0000
0000
3003
0000
,
0010
0010
0000
0000
0100
0100
0000
0000
0000
0000
0010
0001
0010
0001
0010
0100
,
1000
1000
0000
0000
0010
0000
0000
0000
0101
0000
0000
1100
0000
0000
0110
0000
,
0001
0000
0000
0100
0000
0000
0010
0000
0000
0000
0100
0000
0001
0000
0010
0000
,
1000
0000
0000
0000
0010
0100
0000
0000
0220
0000
0000
0000
0000
0000
0330
0000
,
1000
0000
0000
0010
0000
0000
0100
0000
0000
0000
0010
0000
1000
0000
0100
0000
,
0001
0000
0000
0000
0000
0000
0000
0000
0000
0000
0000
0000
0000
0000
0000
0000
0100
0000
0000
0000
0000
0000
0000
0000
0000
0000
0000
0000
0000
0000
0000
0000
0000
1000
0000
0000
0000
0000
0000
0000
0000
0000
0000
0000
0000
0000
0000
0000
0000
0000
0000
0000
0000
0000
0000
0000
0000
0000
0000
0000
0000
0000
0000
0000
0000
0000
0000
0000
0000
0000
0000
0000
0000
0000
0000
0000
0000
0000
0000
0000
0000
0000
0000
0000
0000
0000
0000
0000
0000
0000
0000
0000
0000
0000
0000
0000
0011
0000
0000
0000
0000
0000
0000
0000
0000
0000
0000
0000
0000
0000
0000
0000
0000
0000
0000
0000
0000
0000
0000
0000
0000
0000
0000
0000
0000
0000
0000
0000
0000
0000
0000
0000
1010
0000
0000
0000
0000
0000
0000
0000
0000
0000
0000
0000
0000
0000
0000
0000
0000
0000
0000
0000
0000
0000
0000
0000
0000
0000
0000
0000
0000
0000
0000
0000
0000
0000
0000
0000
0110
0000
0000
0000
0000
0000
0000
0000
0000
0000
0000
0000
0000
0000
0000
0000
0000
0000
0000
0000
0000
0000
0000
0000
,
2000
0000
0000
0001
0000
0000
0100
0000
3000
0000
1000
0100
1000
0100
1000
0001
,
0100
0010
0000
0000
0010
0100
0000
0000
2020
0000
0000
0000
0000
0000
3030
0000
,
0002
0000
0000
1000
0000
0000
0010
0000
0003
0000
0001
0010
0001
0010
0001
1000
,
0100
0010
0000
0000
0010
0100
0000
0000
0022
0000
0000
0000
0030
0000
0013
0000
,
0200
0000
0000
0010
0000
0000
1000
0000
0300
0000
0100
0010
0100
0010
0100
1000
,
0001
0001
0000
0000
1000
1000
0000
0000
0220
0000
0000
0000
0300
0000
0130
0000
,
0020
0000
0000
1000
0000
0000
0100
0000
0030
0000
0010
0100
0010
0100
0010
1000
,
0001
0001
0000
0000
1000
1000
0000
0000
0110
0000
0000
1001
0000
0000
1100
0000
,
0001
0000
0000
0010
0001
0000
1000
0000
0001
0000
0000
0100
0001
0000
0001
0000
,
1000
0000
0000
0010
1000
0000
0001
0000
1000
0000
0000
0100
1000
0100
1000
0000
,
0010
0000
0000
0001
0010
0000
0100
0000
0010
0000
0000
1000
0010
0000
0000
0000
,
0100
0000
0000
1000
0100
0000
0010
0000
0100
0000
0000
0001
0100
0000
0001
1000
,
0100
0000
0000
1000
0000
0000
0010
0000
1010
0000
0000
0100
0000
0000
0010
0000
,
1001
0000
0000
0010
0000
0000
1000
0000
0110
0000
0000
0100
0001
0100
0001
0000
,
1100
0000
0000
0101
0000
0000
1000
0000
0110
0000
0000
1001
0000
0000
1000
0000
,
0101
0000
0000
1100
0000
0000
0001
0000
0110
0000
0000
0010
0100
0000
0001
1000
,
2002
0000
0000
0000
,
3003
0000
0000
0000
;

//---------------dance-double - ----------------
#NOTES:
     dance-double:
     :
     Easy:
     4:
     0.233,0.316,0.168,0.140,0.000:
00000000
00000000
00000000
00000000
,
00000000
00000000
00000000
00000000
,
00000000
00000000
00000000
00000000
,
00000000
00000000
00000000
00000000
,
00001000
00000000
00000100
00000000
,
00000010
00000000
00000001
00000000
,
00001001
00000000
00001000
00000000
,
00010000
00000000
00001000
00000000
,
10010000
00000000
00010000
00000000
,
00001000
00000000
00010000
00000000
,
00022000
00000000
00000000
00000000
,
00000000
00000000
00033000
00000000
,
02000000
00000000
03000000
00000000
,
00020000
00000000
00030000
00000000
,
00001000
00001000
00010000
00010000
,
00000010
00000100
00000001
00000001
,
00000020
00000000
00000030
00000000
,
00002000
00000000
00003000
00000000
,
00010000
00010000
00001000
00001000
,
01000000
00100000
10000000
10000000
,
00020000
00000000
00000000
01000000
00030000
00000000
01000000
00000000
,
00100000
00000000
00100000
10000000
00000000
00000000
01000000
00000000
,
20000000
00000000
00000000
01000000
30000000
00000000
01000000
00000000
,
00100000
00000000
00011000
00000000
,
00002000
00000000
00000000
00000100
00003000
00000000
00000100
00000000
,
00000010
00000000
00000010
00000001
00000000
00000000
00000100
00000000
,
00000002
00000000
00000000
00000100
00000003
00000000
00000100
00000000
,
00000010
00000000
00011000
00000000
,
01000000
00100000
00000000
00100000
,
01000000
00010000
00000000
10000000
,
00100000
00100000
01000000
01000000
,
00001000
00010000
00000010
00000010
,
00000100
00000001
00000000
00000001
,
00001000
00000000
00001000
00000000
00000020
00000000
00000000
00000030
,
00000100
00000100
00000000
00000010
,
00001000
00001000
00000010
00010000
,
00001000
00000000
01000000
00000000
,
00100000
00000000
10000000
00000000
20200000
00000000
00000000
30300000
,
01000000
00000000
00010000
00000000
,
00010000
00100000
00001000
00001000
,
00010000
00000000
00000100
00000000
,
00000010
00000001
00001000
00000000
,
00000100
00000000
00001000
00000000
,
00000010
00000000
00011000
00000000
,
00000100
00001000
00000010
00000000
,
00010000
00001000
00001000
00000000
,
01000000
00010000
00100000
00000000
,
00001000
00010000
00001000
00001000
,
00011000
00000000
00110000
00000000
,
00011000
00000000
00001010
00000000
,
00001001
00000000
00000110
00000000
,
00011000
00000000
01100000
00000000
,
10000000
01000000
00100000
00001000
,
00010000
00000100
00000010
00000001
,
00001000
00001010
00000001
00000011
,
00000100
00001000
00010000
00100000
,
20020000
00000000
30030000
00000000
;

//---------------dance-double - ----------------
#NOTES:
     dance-double:
     :
     Medium:
     6:
     0.309,0.369,0.252,0.289,0.079:
00000000
00000000
00000000
00000000
,
00000000
00000000
00000000
00000000
,
00000000
00000000
00000000
00000000
,
00000000
00000000
00000000
00000000
,
00000002
00000000
00000000
00000003
00000200
00000000
00000000
00000300
,
00000020
00000000
00000000
00000030
00002000
00000000
00000000
00003000
,
00000101
00000000
00001100
00000000
,
01010000
00000000
11000000
00000000
,
10100000
00000000
00110000
00000000
,
00001010
00000000
00000011
00000000
,
00002002
00000000
00000000
00000000
,
00000000
00000000
00003003
00000000
,
00001000
00000000
00000000
00000100
00000000
00000000
00000010
00000000
00000001
00000000
00000000
00000000
00000011
00000000
00000000
00000000
,
00000001
00000000
00000000
00000100
00000000
00000000
00000010
00000000
00001000
00000000
00000000
00000000
00001010
00000000
00000000
00000000
,
00000001
00000100
00000001
00000100
,
00001000
00010000
00100000
10000000
,
00010000
00000000
00000000
00100000
00000000
00000000
01000000
00000000
10000000
00000000
00000000
00000000
11000000
00000000
00000000
00000000
,
10000000
00000000
00000000
00100000
00000000
00000000
01000000
00000000
00010000
00000000
00000000
00000000
01010000
00000000
00000000
00000000
,
10000000
00100000
10000000
00100000
,
00010000
00001000
00000100
00000001
,
00002000
00000000
00000000
00000100
00000000
00003000
00000200
00000000
00000000
00000000
00000000
00000300
00001000
00000000
00000000
00000000
,
00000002
00000000
00000000
00000200
00000000
00000003
00000020
00000000
00000300
00000000
00000000
00000030
00010000
00000000
00000000
00000000
,
00002000
00000000
00000000
00010000
00000000
00003000
00020000
00000000
00000000
00000000
00000000
00030000
00001000
00000000
00000000
00000000
,
01020000
00000000
00000000
00030000
20100000
00000000
00000000
30000000
,
00020000
00000000
00000000
00100000
00000000
00030000
00200000
00000000
00000000
00000000
00000000
00300000
00010000
00000000
00000000
00000000
,
20000000
00000000
00000000
00200000
00000000
30000000
02000000
00000000
00300000
00000000
00000000
03000000
00001000
00000000
00000000
00000000
,
00020000
00000000
00000000
00001000
00000000
00030000
00002000
00000000
00000000
00000000
00000000
00003000
00010000
00000000
00000000
00000000
,
00002100
00000000
00000000
00003000
00000012
00000000
00000000
00000003
,
00001000
00000000
00000100
00001000
00000100
00000000
00000011
00000000
,
00000001
00000000
00000100
00000001
00000100
00000000
00001010
00000000
,
00000001
00001000
00000001
00001000
,
00010000
10000000
00010000
10000000
,
00100000
10010000
00000000
01000000
,
00010000
00000000
00001000
00000000
00000020
00000000
00000000
00000030
,
00000100
00001001
00000000
00000010
,
00001000
00000000
00000000
00000000
00010000
00000000
00000000
00000000
00100000
00000000
00000000
00100000
00000000
00000000
00100000
00000000
,
10000000
01000000
00100000
00000000
,
00001000
00000000
00010000
00000000
00002200
00000000
00000000
00003300
,
00000001
00000100
00000010
00000000
,
00010000
00000000
00000000
00000000
00001000
00000000
00000000
00000000
00000010
00000000
00000000
00000010
00000000
00000000
00000010
00000000
,
00000001
00000100
00000010
00000000
,
00001000
00000100
00000000
00000000
00000100
00010000
00000000
00000000
00002000
00000000
00000000
00000000
00000000
00000000
00003000
00000000
,
01000000
00010000
00100000
00000000
,
00010000
01000000
00000000
00100000
,
10000000
01000000
00100000
00000000
,
00010000
01000000
00000000
00000000
01000000
00001000
00000000
00000000
00020000
00000000
00000000
00000000
00000000
00000000
00030000
00000000
,
00000010
00001000
00000100
00000000
,
00001000
00000000
00000000
00000000
00000010
00000000
00000000
00000000
00000100
00000000
00000000
00000100
00000000
00000000
00000100
00000000
,
00000001
00000000
00000010
00000000
,
00010000
00000000
01000000
00000000
,
10000000
00000000
00100000
00000000
,
00001000
00000000
00000100
00000000
,
00000101
00000000
00001010
00000000
,
01010000
00000000
10100000
00000000
,
10000000
01000000
00100000
00010000
,
00001000
00000100
00000010
00000001
,
00002002
00000000
00003003
00000000
;

//---------------dance-double - ----------------
#NOTES:
     dance-double:
     :
     Hard:
     9:
     0.455,0.501,0.252,0.411,0.355: // measure 1
00000000
00000000
00000000
00000000
,  // measure 2
00000000
00000000
00000000
00000000
,  // measure 3
00000000
00000000
00000000
00000000
,  // measure 4
00000000
00000000
00000000
00000000
,  // measure 5
00020000
00000000
00230000
00000000
,  // measure 6
02300000
00000000
23000000
00000000
,  // measure 7
30010000
00000000
00000000
00100000
00000000
00000000
01000000
00000000
00010000
00000000
00000000
00001000
00000000
00000000
00000010
00000000
,  // measure 8
00000100
00000000
00000000
00001000
00000000
00000000
00000010
00000000
00000100
00000000
00000000
00000001
00000000
00000000
00001000
00000010
,  // measure 9
00001000
00000000
00000000
00000100
00000000
00000000
00000010
00000000
00001000
00010000
00000000
01000000
00000000
00000000
00100000
00000000
,  // measure 10
00010000
00000000
00000000
01000000
00000000
00000000
00100000
00000000
10000000
00000000
00000000
00010000
00000000
00010000
10000000
00000000
,  // measure 11
01000000
00100000
01000000
00100000
,  // measure 12
00010000
00000000
00000000
00000000
10000000
00000000
00000000
00000000
00100000
00000000
00000000
00000000
00100000
01000000
00000000
00000000
,  // measure 13
00020000
00000000
00000000
00100000
00000000
00000000
10000000
00000000
01000000
00000000
00030000
01000000
00010000
00000000
00000000
00000000
,  // measure 14
20000000
00000000
00000000
00100000
00000000
00000000
00010000
00000000
01000000
00000000
30000000
01000000
10000000
01000000
00000000
00000000
,  // measure 15
10000000
00010000
10000000
00010000
,  // measure 16
00001000
00000000
00000000
00000000
00000001
00000000
00000000
00000000
00001000
00000000
00000000
00000000
00001001
00000000
00001000
00000100
,  // measure 17
00002000
00000000
00000000
00000010
00000000
00000000
00000001
00000000
00000100
00000000
00003000
00000100
00001000
00000000
00000000
00000000
,  // measure 18
00000002
00000000
00000000
00000010
00000000
00000000
00001000
00000000
00000100
00000000
00000003
00000100
00000001
00000100
00000000
00000000
,  // measure 19
00000001
00001000
00000001
00001000
,  // measure 20
00010000
00000000
00000000
00000000
10000000
00000000
00000000
00000000
00010000
00000000
00000000
00000000
10010000
00000000
01000000
10000000
,  // measure 21
02000000
00000000
00000000
00100000
00000000
00000000
00020000
00000000
03000000
00000000
00000000
00000000
00031000
00000000
00000000
00000000
,  // measure 22
00000020
00000000
00000000
00001000
00000000
00000000
00000002
00000000
00000000
00000000
00000033
00000000
00001001
00000000
00001000
00000001
,  // measure 23
00000200
00000000
00000000
00000010
00000000
00000000
00002000
00000000
00000300
00000000
00000000
00000000
00013000
00000000
00000000
00000000
,  // measure 24
00200000
00000000
00000000
00010000
00000000
00000000
01000000
00000000
10000000
00000000
00300000
00000000
10100000
00000000
10000000
00000000
,  // measure 25
02000000
00000000
00000000
00200000
00000000
03000000
00002000
00000000
00300000
00000000
00000000
00003000
00010000
00000000
00000000
00000000
,  // measure 26
00200000
00000000
00000000
00020000
00000000
00300000
00002000
00000000
00030000
00000000
00000000
00003000
00001000
00000000
00000010
00000100
,  // measure 27
00000020
00000000
00000000
00000200
00000000
00000030
00002000
00000000
00000300
00000000
00000000
00003000
00000001
00000000
00000000
00000000
,  // measure 28
00002002
00000000
00000000
00003003
00022000
00000000
00000000
00033000
,  // measure 29
10010000
00000000
00000000
01000000
00000000
00000000
00010000
00000000
01000000
00000000
00000000
00010000
00001000
00000000
00000000
00000000
,  // measure 30
00001001
00000000
00000000
00000010
00000000
00000000
00001000
00000000
00000010
00000000
00000000
00001000
00010000
00000000
00000000
00000000
,  // measure 31
01000000
00100000
01000000
00100000
,  // measure 32
00000010
00000100
00000010
00000100
,  // measure 33
00000001
00000000
00000000
00000000
00000010
00000001
00000000
00000000
00000000
00000000
00000100
00000010
00000100
00000010
00000100
00000000
,  // measure 34
00000010
00001000
00000000
00000000
00001000
00100000
00000000
00000000
02200000
00000000
00000000
00000000
00000000
00000000
03300000
00000000
,  // measure 35
10000000
00100000
00000000
00000000
00100000
10000000
00000000
00000000
00000000
00000000
01000000
00100000
01000000
00100000
01000000
00000000
,  // measure 36
00100000
00010000
00000000
00000000
00000010
00000000
00000000
00000000
00001100
00000000
00000000
00000101
00000000
00000000
00000110
00000000
,  // measure 37
00000001
00000000
00000000
00000100
00000000
00000000
00020000
00000000
00000000
00000000
00000000
00000000
00030000
00000000
01000000
00000000
,  // measure 38
10000000
00000000
01000000
00000000
02020000
00000000
00000000
03030000
,  // measure 39
10000000
00000000
00000000
00100000
00000000
00000000
02000000
00000000
00000000
00000000
00000000
00000000
03000000
00000000
00100000
00000000
,  // measure 40
10000000
00000000
00000000
00000000
00000000
00000000
00000000
00000000
00000000
00000000
00000000
00000000
00000000
00000000
00000000
00000000
00010000
00000000
00000000
00000000
00000000
00000000
00000000
00000000
00000000
00000000
00000000
00000000
00000000
00000000
00000000
00000000
00000000
01000000
00000000
00000000
00000000
00000000
00000000
00000000
00000000
00000000
00000000
00000000
00000000
00000000
00000000
00000000
00000000
00000000
00000000
00000000
00000000
00000000
00000000
00000000
00000000
00000000
00000000
00000000
00000000
00000000
00000000
00000000
00000000
00000000
00000000
00000000
00000000
00000000
00000000
00000000
00000000
00000000
00000000
00000000
00000000
00000000
00000000
00000000
00000000
00000000
00000000
00000000
00000000
00000000
00000000
00000000
00000000
00000000
00000000
00000000
00000000
00000000
00000000
00000000
01001000
00000000
00000000
00000000
00000000
00000000
00000000
00000000
00000000
00000000
00000000
00000000
00000000
00000000
00000000
00000000
00000000
00000000
00000000
00000000
00000000
00000000
00000000
00000000
00000000
00000000
00000000
00000000
00000000
00000000
00000000
00000000
00000000
00000000
00000000
00000000
01010000
00000000
00000000
00000000
00000000
00000000
00000000
00000000
00000000
00000000
00000000
00000000
00000000
00000000
00000000
00000000
00000000
00000000
00000000
00000000
00000000
00000000
00000000
00000000
00000000
00000000
00000000
00000000
00000000
00000000
00000000
00000000
00000000
00000000
00000000
00000000
00110000
00000000
00000000
00000000
00000000
00000000
00000000
00000000
00000000
00000000
00000000
00000000
00000000
00000000
00000000
00000000
00000000
00000000
00000000
00000000
00000000
00000000
00000000
00000000
,  // measure 41
10000000
00000000
00000000
01000000
00000000
00000000
00020000
00000000
00000000
00000000
00000000
00000000
00030000
00000000
00000010
00000000
,  // measure 42
00000001
00000010
00000000
00000000
00000010
00000100
00000000
00000000
00002200
00000000
00000000
00000000
00000000
00000000
00003300
00000000
,  // measure 43
00000001
00000000
00000000
00000010
00000000
00000000
00020000
00000000
00000000
00000000
00000000
00000000
00030000
00000000
00100000
00000000
,  // measure 44
10000000
00000000
00000000
00200000
00000000
00000000
00000000
00000000
01300000
00000000
00000000
00000000
00000000
00000000
00010000
00000000
,  // measure 45
10000000
00000000
00000000
00100000
00000000
00000000
00002000
00000000
00000000
00000000
00000000
00000000
00003000
00000000
00000010
00000000
,  // measure 46
00000001
00000000
00000000
00000020
00000000
00000000
00000000
00000000
00000130
00000000
00000000
00000000
00000000
00000000
00001000
00000000
,  // measure 47
00000001
00000000
00000000
00000100
00000000
00000000
00020000
00000000
00000000
00000000
00000000
00000000
00030000
00000000
01000000
00000000
,  // measure 48
10000000
01000000
00000000
00000000
01000000
00100000
00000000
00000000
00110000
00000000
00000000
01100000
00000000
00000000
10100000
00000000
,  // measure 49
10000000
00000000
00000000
00100000
00000000
00000000
01000000
00000000
00010000
00000000
00000000
00000000
11000000
00000000
00000000
00000000
,  // measure 50
00100000
00000000
00000000
00001000
00000000
00000000
00010000
00000000
00000010
00000000
00000000
00000100
00000001
00000100
00000000
00000000
,  // measure 51
00000001
00000000
00000000
00000010
00000000
00000000
00000100
00000000
00001000
00000000
00000000
00000000
00000101
00000000
00000000
00000000
,  // measure 52
00000010
00000000
00000000
00010000
00000000
00000000
00001000
00000000
01000000
00000000
00000000
00100000
10000000
00000000
00010000
00000000
,  // measure 53
10000000
11000000
00010000
01010000
,  // measure 54
00100000
00000000
00000000
00001000
00000000
00000000
00010000
00000000
00000100
00000000
00000000
00000100
00001000
00000000
00000000
00000000
,  // measure 55
00000001
00000011
00001000
00001010
,  // measure 56
00000100
00000000
00000000
00010000
00000000
00000000
00001000
00000000
01000000
00000000
00000000
00100000
01000000
00000000
00010000
10000000
,  // measure 57
20020000
00000000
30030000
00000000
;
