#TITLE:Twist of Fate;
#SUBTITLE:;
#ARTIST:Wizbit and Lukozade;
#TITLETRANSLIT:;
#SUBTITLETRANSLIT:;
#ARTISTTRANSLIT:;
#GENRE:;
#CREDIT:;
#MENUCOLOR:;
#METERTYPE:DDR;
#BANNER:Twist Of Fate-bn.png;
#BACKGROUND:Twist Of Fate-bg.png;
#LYRICSPATH:;
#CDTITLE:ddrencorecdtitle.png;
#MUSIC:Twist of Fate.mp3;
#OFFSET:-0.026;
#SAMPLESTART:55.900;
#SAMPLELENGTH:11.172;
#SELECTABLE:YES;
#LISTSORT:;
#BPMS:0.000=171.862,64.000=85.931,80.000=128.896,104.000=85.931,120.000=171.862;
#STOPS:;
#BGCHANGES:;
#ATTACKS:;

//---------------dance-single - ----------------
#NOTES:
     dance-single:
     :
     Beginner:
     1:
     0.104,0.275,0.030,0.000,0.000:
0000
0000
0000
0000
,
0000
0000
0000
0000
,
0000
0000
0000
0000
,
0000
0000
0000
0000
,
0001
0000
0000
0000
,
0100
0000
0000
0000
,
0001
0000
0000
0000
,
0001
0000
0000
0000
,
1000
0000
1000
0000
,
0100
0000
0100
0000
,
1000
0000
1000
0000
,
0010
0000
0010
0000
,
0100
0000
0000
0000
,
0001
0000
0000
0000
,
1000
0000
0000
0000
,
0100
0000
0000
0000
,
1000
0000
0010
0000
,
1000
0000
0100
0000
,
0001
0000
0010
0000
,
0001
0000
0100
0000
,
1000
0000
0000
0000
,
0000
0000
0001
0000
,
0000
0000
0000
0000
,
0100
0000
0000
0000
,
0000
0000
0010
0000
,
0000
0000
0000
0000
,
1000
0000
0010
0000
,
0100
0000
0001
0000
,
1001
0000
1001
0000
,
0100
0100
0100
0100
,
0100
0000
0000
0000
,
0010
0000
0000
0000
,
0100
0000
0000
0000
,
0001
0000
0000
0000
,
1000
0000
0000
0000
,
0100
0000
0000
0000
,
1000
0000
0000
0000
,
0001
0000
0000
0000
,
0010
0000
0000
0000
,
0100
0000
0000
0000
,
0010
0000
0000
0000
,
0001
0000
0000
0000
,
1000
0000
0000
0000
,
0010
0000
0000
0000
,
1000
0000
0000
0000
,
0100
0000
0000
0000
,
0010
0000
0000
0000
,
0010
0000
0000
0000
,
0100
0000
0000
0000
,
0100
0000
0000
0000
,
0010
0000
0000
0000
,
0001
0000
0000
0000
,
1000
0000
0000
0000
,
0010
0000
0100
0000
,
0010
0000
0000
0000
,
0010
0000
0000
0000
,
0100
0000
0000
0000
,
0100
0000
0000
0000
,
0001
0000
0000
0000
,
1000
0000
0000
0000
,
0100
0000
0000
0000
,
0000
0000
0000
0000
,
1001
0000
0000
0000
;

//---------------dance-single - ----------------
#NOTES:
     dance-single:
     :
     Easy:
     4:
     0.228,0.397,0.049,0.177,0.000:
0000
0000
0000
0000
,
0000
0000
0000
0000
,
0000
0000
0000
0000
,
0000
0000
0000
0000
,
1000
0000
0000
0000
,
0001
0000
0000
0000
,
0100
0000
0000
0000
,
0001
0000
0000
0000
,
2000
0000
3010
0000
,
0002
0000
0013
0000
,
2000
0000
3100
0000
,
0002
0000
0103
0000
,
0001
0010
0100
1000
,
0001
1000
0010
1000
,
0001
0100
0010
1000
,
0002
0000
0000
0000
,
0103
0000
0010
0000
,
1000
0000
0001
0000
,
1000
0000
0010
0000
,
1000
0000
0002
0000
,
0103
0000
0000
0010
0000
0000
0100
0000
,
0000
0010
0000
0000
1000
0000
0000
0001
,
0000
0000
1000
0000
0000
0001
0000
0000
,
0010
0000
0000
0001
0000
0000
0010
0000
,
0000
0001
0000
0000
1000
0000
0000
0010
,
0000
0000
0100
0000
0000
0001
0000
0000
,
1000
0000
0100
0000
,
1000
0000
0010
0000
,
1001
0000
1001
0000
,
1001
1001
0200
0320
,
1030
0100
0010
0000
,
0100
0010
0001
0000
,
0010
0001
1000
0000
,
0001
1000
0100
0000
,
2000
0000
3010
0000
,
0200
0000
0301
0000
,
0002
0000
0013
0000
,
0200
0000
1300
0010
,
0100
0001
1000
0000
,
0001
1000
0010
0000
,
1000
0010
0100
0000
,
0010
0100
0001
0000
,
2000
0000
3100
0000
,
0020
0000
0031
0000
,
0002
0000
0103
0000
,
0020
0000
1030
0000
,
0001
0000
1000
0010
,
0100
0000
0010
1000
,
0001
0000
0010
0001
,
0100
0000
0010
1000
,
0001
0000
0001
0000
,
1000
0000
1000
0000
,
0010
0000
0100
0000
,
0001
0000
1000
0000
,
0001
0000
0010
0100
,
1000
0000
0010
0100
,
0001
0000
1000
0001
,
0100
0000
0001
1000
,
0010
0000
0010
0000
,
0100
0000
0100
0000
,
0002
0000
0000
0003
,
2000
0000
0000
3000
,
1001
0000
0000
0000
;

//---------------dance-single - ----------------
#NOTES:
     dance-single:
     :
     Medium:
     6:
     0.346,0.397,0.069,0.059,0.025:
0000
0000
0000
0000
,
0000
0000
0000
0000
,
0000
0000
0000
0000
,
0000
0000
0000
0000
,
0001
0100
0000
0010
,
0000
0100
0000
1001
,
0000
1000
0000
0100
,
0000
0010
0000
1001
,
0001
0100
0000
0100
0001
0000
1000
0000
,
0100
1000
0000
1000
0100
0000
0010
0000
,
0001
0100
0000
0100
0001
0000
1000
0000
,
0010
1000
0000
1000
0010
0000
0100
0000
,
0001
0010
0001
0100
,
1000
0010
1000
0100
,
0001
0010
1000
0010
,
0002
0000
2003
0000
,
3001
0100
0001
1000
,
1000
0100
1000
0001
,
0001
0100
0010
1000
,
1000
0010
0100
0001
,
0001
0000
0000
0000
0000
0000
1000
0000
0000
0000
0000
0000
0010
0000
0000
0100
,
0000
0001
0000
0000
0010
0000
0000
0001
,
0000
0000
0000
0000
1000
0000
0000
0010
0000
0000
0100
0000
0000
0001
0000
0000
,
1000
0000
0000
0000
0000
0000
0100
0000
0000
0000
0000
0000
0010
0000
0000
0001
,
0000
0100
0000
0000
0020
0000
0000
0000
,
0030
0000
0000
0000
0200
0000
0000
0000
0000
0000
0000
0000
0300
0010
0000
0000
,
1000
0010
0100
0010
,
0001
0010
1000
0010
,
1001
0000
0110
0000
,
1001
1100
0002
2003
,
3010
0000
1000
0001
0000
0000
0100
0000
,
0010
0000
1000
0001
0000
0000
0010
0000
,
0100
0000
1000
0001
0000
0000
0010
0000
,
0100
0000
1000
0001
0000
0000
0100
0000
,
0010
0100
0010
0000
1000
0000
0100
0000
,
0010
0100
0010
0000
0001
0000
0100
0000
,
0001
0010
0100
1000
,
0100
0000
0010
0000
0001
1000
0001
1000
,
0001
0000
0100
0010
0000
0000
1000
0000
,
0001
0000
0100
0010
0000
0000
1000
0000
,
1000
0000
0100
0010
0000
0000
0001
0000
,
0001
0000
0100
0010
0000
0000
1000
0000
,
0001
0100
0001
0000
1000
0000
0010
0000
,
1000
0100
1000
0000
0001
0000
0100
0000
,
0001
0010
0100
1000
,
0100
0000
0010
0100
0000
0000
1000
0000
,
0001
0100
0010
0010
,
1000
0001
0100
0100
,
0001
0010
0001
0001
,
1000
0000
0010
0000
1000
0000
1000
0001
,
0100
0000
0010
0000
1000
0000
0001
0100
,
0000
0000
0001
0000
1000
0000
0001
0010
,
0000
0000
0001
0000
0100
0000
0001
1000
,
0000
0000
0100
0000
1000
0000
0001
0100
,
0010
1000
0010
0010
,
0100
0001
1000
1000
,
0001
0010
0100
0100
,
0010
0000
0001
0000
1000
0000
0001
0010
,
0100
1000
0000
1000
0100
0000
0010
0000
,
0001
1000
0000
1000
0001
0000
0100
0000
,
0001
1000
0000
0001
0000
0100
0000
0010
,
1000
0001
0100
0010
,
1001
0000
0000
0000
;

//---------------dance-single - ----------------
#NOTES:
     dance-single:
     :
     Hard:
     9:
     0.620,0.885,0.138,0.010,0.423: // measure 1
0000
0000
0000
0000
,  // measure 2
0000
0000
0000
0000
,  // measure 3
0000
0000
0000
0000
,  // measure 4
0000
0000
0000
0000
,  // measure 5
0010
0000
0100
0000
0001
1000
0010
0000
,  // measure 6
1000
0000
0100
0000
0010
0001
0100
0000
,  // measure 7
0010
0000
1000
0000
0001
0100
0010
0000
,  // measure 8
1000
0000
0001
0000
0010
0001
1000
0000
,  // measure 9
0001
1000
0000
1000
0010
0000
0100
0001
,  // measure 10
0010
0100
0000
0100
0001
0000
0100
1000
,  // measure 11
0010
0100
0000
0100
0001
0000
1000
0001
,  // measure 12
0100
0010
0000
0010
0001
0000
0010
1000
,  // measure 13
0100
0010
0000
0110
0000
0110
0000
0001
,  // measure 14
0000
1000
0000
1001
0000
1001
0000
0100
,  // measure 15
0000
0001
0000
1001
0000
0110
0000
0010
,  // measure 16
1000
0001
0100
0100
0001
1000
0010
0000
,  // measure 17
1000
0100
0010
0000
0010
0100
1000
0000
0001
0100
0010
0000
0010
0100
0001
0000
,  // measure 18
1000
0001
0100
0000
0100
0001
1000
0000
0001
0100
1000
0000
0001
0100
1000
0000
,  // measure 19
0100
0010
0000
0010
1000
0001
0000
0001
0100
0010
0000
0010
1000
0100
0000
0010
,  // measure 20
0001
0100
0000
0001
0010
0100
0000
1000
0001
0100
0000
0010
1000
0001
0000
0100
,  // measure 21
0010
0000
0000
1000
0000
0000
0001
0000
0000
0100
0000
0000
0010
0000
0000
0000
0000
0000
0010
0000
0000
1000
0000
0000
0000
0000
0000
0100
0000
0000
0000
0000
,  // measure 22
0000
0010
0000
0000
0001
0000
0000
0000
0000
0000
1000
0000
0000
0010
0000
0000
0100
0000
0000
0001
0000
0000
0010
0000
0000
0100
0000
0000
1000
0000
0000
0000
,  // measure 23
0000
0000
0010
0000
0000
0100
0000
0000
0000
0000
0000
0001
0000
0000
0000
0000
0000
1000
0000
0000
0100
0000
0000
0000
0000
0000
1000
0000
0000
0010
0000
0000
,  // measure 24
0100
0000
0000
0001
0000
0000
0000
0000
0000
1000
0000
0000
0100
0000
0000
0000
0000
0000
1000
0000
0000
0001
0000
0000
0000
0000
0000
0001
0000
0000
0000
0000
,  // measure 25
0000
0100
0000
0000
0010
0000
0000
0000
0000
0000
0000
0000
0000
1000
0000
0000
0001
0000
0000
0100
0000
0000
0000
0000
0000
0010
0000
0000
0100
0000
0000
0000
,  // measure 26
0000
0000
0001
0000
0000
1000
0000
0000
0010
0000
0000
0010
0000
0000
0000
0000
0000
1000
0000
0000
0001
0000
0000
0100
0000
0000
0010
0000
0000
1000
0000
0000
,  // measure 27
0100
0010
0000
0100
1000
0000
0001
0100
0010
1000
0000
0010
0100
0000
0010
1000
,  // measure 28
0001
0010
0000
0001
1000
0000
0001
0100
0010
1000
0000
0010
0100
0000
0001
1000
,  // measure 29
0100
0010
0000
0110
0000
1001
0000
0001
0100
0010
0000
0110
0000
1001
0000
1000
,  // measure 30
0010
0100
0000
0010
1000
0001
0000
0010
0100
1000
0001
0001
0100
0010
1000
1000
,  // measure 31
0001
0100
0010
1000
0000
1000
0001
0100
,  // measure 32
0010
1000
0100
0010
0000
0010
0100
1000
,  // measure 33
0001
0100
0010
1000
0000
1000
0001
0100
,  // measure 34
0010
1000
0100
0010
0000
0010
0001
1000
,  // measure 35
0001
0000
1000
0100
0000
0001
0100
0000
,  // measure 36
1001
0000
0001
0100
0000
1000
0100
0000
,  // measure 37
0010
0100
0001
0010
0000
0100
1000
0001
,  // measure 38
0100
0010
1000
0001
0000
0000
0100
0100
,  // measure 39
0100
0001
0100
0010
0000
0010
1000
0001
,  // measure 40
0010
0100
1000
0010
0000
0010
0100
0001
,  // measure 41
1000
0010
1000
0100
0000
0100
0010
0001
,  // measure 42
0100
0010
1000
0001
0000
0010
0100
1000
,  // measure 43
0001
0000
1000
0100
0000
0001
0100
0000
,  // measure 44
1001
0000
0001
0100
0000
1000
0100
0000
,  // measure 45
0001
0100
0010
1000
0000
0001
0010
0100
,  // measure 46
1000
0010
0100
0001
0200
0000
1000
0000
,  // measure 47
0310
1000
0010
0100
0001
0000
0001
0100
,  // measure 48
0010
1000
0100
0010
0001
0000
0001
1000
,  // measure 49
0100
1000
0010
0100
0001
0000
0001
0010
,  // measure 50
0100
1000
0010
0001
0000
1000
0100
0001
,  // measure 51
1000
0010
0100
0001
0010
0100
1000
0100
,  // measure 52
0000
0010
0100
1000
0010
0100
0001
1000
,  // measure 53
0000
0100
1000
0010
0100
0001
1000
0100
,  // measure 54
0010
0001
1000
0100
0010
0000
0100
0100
,  // measure 55
0100
1000
0010
0100
0001
0010
1000
0010
,  // measure 56
0001
0100
0010
1000
0100
0010
1000
0010
,  // measure 57
0100
1000
0010
0100
0001
0100
1000
0100
,  // measure 58
0001
1000
0100
0001
0000
1000
0010
0100
,  // measure 59
1000
0010
0100
0001
1000
0100
0001
0100
,  // measure 60
1000
0010
0100
0001
0010
0100
0001
0100
,  // measure 61
0010
0001
1000
0010
1000
0010
0001
0010
,  // measure 62
1000
0001
0100
0110
,  // measure 63
1001
0000
0000
0000
;

//---------------dance-double - ----------------
#NOTES:
     dance-double:
     :
     Easy:
     4:
     0.212,0.336,0.030,0.059,0.000:
00000000
00000000
00000000
00000000
,
00000000
00000000
00000000
00000000
,
00000000
00000000
00000000
00000000
,
00000000
00000000
00000000
00000000
,
00010000
00000000
00000000
00000000
,
01000000
00000000
00000000
00000000
,
00010000
00000000
00000000
00000000
,
10000000
00000000
00000000
00000000
,
00010000
00000000
00100000
00000000
,
00010000
00000000
01000000
00000000
,
00001000
00000000
00010000
00000000
,
00001000
00000000
00100000
00000000
,
00001000
00010000
00001000
00010000
,
00000100
00001000
00000100
00001000
,
00000010
00000100
00000001
00001000
,
00000200
00000000
00000000
00000000
,
00001300
00000100
00001000
00000010
,
00001000
00000100
00010000
00001000
,
01000000
00010000
01000000
00100000
,
10000000
01000000
00100000
00010000
,
01000000
00000000
00000000
00001000
00000000
00000000
01000000
00000000
,
00000000
00001000
00000000
00000000
00010000
00000000
00000000
00000100
,
00000000
00000000
00010000
00000000
00000000
00001000
00000000
00000000
,
00100000
00000000
00000000
00010000
00000000
00000000
00100000
00000000
,
00000000
00010000
00000000
00000000
01000000
00000000
00000000
00001000
,
00000000
00000000
00010000
00000000
00000000
00000100
00000000
00000000
,
00001000
00000000
00000001
00000000
,
00001000
00000000
00000001
00000000
,
00001001
00000000
00000110
00000000
,
00001000
00000100
00020000
00032000
,
00013000
00000000
00000000
00001000
00000000
00000000
01000000
00000000
,
00010000
00000000
00000000
10000000
00000000
00000000
01000000
00000000
,
10000000
00000000
00000000
00100000
00000000
00000000
10000000
00000000
,
00010000
00000000
00000000
01000000
00000000
00000000
00001000
00000000
,
00010000
00000000
00001000
00000000
,
00010000
00000000
00001000
00000000
,
00010000
00000100
00001000
00000000
,
00000100
00001000
00000010
00000000
,
00000100
00000000
00000000
00000001
00000000
00000000
00000100
00000000
,
00000010
00000000
00000000
00001000
00000000
00000000
00000010
00000000
,
00001000
00000000
00000000
00000001
00000000
00000000
00000010
00000000
,
00000100
00000000
00000000
00001000
00000000
00000000
00000010
00000000
,
00000100
00000000
00000010
00000000
,
00000100
00000000
00000010
00000000
,
00001000
00000100
00010000
00000000
,
00001000
00100000
00010000
00000000
,
10000000
00000000
01000000
00000000
,
10000000
00000000
01000000
00000000
,
00100000
00000000
00001000
00000000
,
00010000
00000000
00000100
00000000
,
00001000
00000000
00000010
00000000
,
00001000
00000000
00000010
00000000
,
00000100
00000000
00000001
00000000
,
00000020
00000000
00000000
00000130
,
00001000
00000000
00000001
00000000
,
00001000
00000000
00000001
00000000
,
00000100
00000000
00000010
00000000
,
00010000
00000000
00001000
00000000
,
01000000
00000000
00010000
00000000
,
01000000
00000000
00010000
00000000
,
20000000
00000000
00000000
30000000
,
00020000
00000000
00000000
00030000
,
10010000
00000000
00000000
00000000
;

//---------------dance-double - ----------------
#NOTES:
     dance-double:
     :
     Medium:
     6:
     0.340,0.427,0.069,0.059,0.039:
00000000
00000000
00000000
00000000
,
00000000
00000000
00000000
00000000
,
00000000
00000000
00000000
00000000
,
00000000
00000000
00000000
00000000
,
01000000
00100000
00000000
10000000
,
00000000
00010000
00000000
10010000
,
00000000
01000000
00000000
00001000
,
00000000
00010000
00000000
00011000
,
00010000
00000100
00000000
00000100
00001000
00000000
00000000
00000000
,
00000100
00000010
00000000
00000010
00000001
00000000
00000000
00000000
,
00000010
00000001
00000000
00000001
00001000
00000000
00000000
00000000
,
00000001
00000100
00000000
00000100
00000010
00000000
00000000
00000000
,
00001000
00000010
00001000
00000010
,
00010000
00001000
00010000
00001000
,
01000000
00010000
01000000
00010000
,
20000000
00000000
30020000
00000000
,
01030000
00000000
00100000
00000000
,
10000000
00000000
00100000
00000000
,
01000000
00010000
01000000
00010000
,
00100000
00001000
00010000
00000100
,
00001000
00000000
00000000
00000001
00000000
00000000
00000100
00000000
00000000
00000000
00000000
00000000
00000001
00000000
00000000
00001000
,
00000000
00000000
00000100
00000000
00000000
00000000
00000000
00000000
00001000
00000000
00000000
00000010
00000000
00000000
00010000
00000000
,
00000000
00000000
00000000
00000000
00000010
00000000
00000000
00001000
00000000
00000000
00000100
00000000
00000000
00010000
00000000
00000000
,
00001000
00000000
00000000
00100000
00000000
00000000
00010000
00000000
00000000
00000000
00000000
00000000
00010000
00000000
00000000
01000000
,
00000000
00100000
00000000
00000000
00200000
00000000
00000000
00000000
,
00300000
00000000
00000000
00000000
02000000
00000000
00000000
00000000
00000000
00000000
00000000
00000000
03000000
00010000
00000000
00000000
,
10000000
01000000
10000000
00000000
01000000
00100000
01000000
00000000
,
00100000
00010000
00100000
00000000
00010000
10000000
00010000
00000000
,
10010000
00000000
01010000
00000000
,
01001000
00011000
00020000
00032000
,
00013000
00000000
00000100
00001000
00000000
00000000
00000010
00000000
,
00000100
00000000
00000001
00001000
00000000
00000000
00000100
00000000
,
00000100
00000000
00000010
00000100
00000000
00000000
00000010
00000000
,
00000010
00000000
00000100
00000010
00000000
00000000
00000001
00000000
,
00001000
00000010
00000010
00000100
,
00000001
00001000
00001000
00000010
,
00010000
00001000
00100000
00010000
,
01000000
00000000
00100000
00000000
10000000
00010000
10000000
00010000
,
10000000
00000000
00100000
01000000
00000000
00000000
00010000
00000000
,
10000000
00000000
01000000
00100000
00000000
00000000
00010000
00000000
,
00100000
00000000
00001000
00010000
00000000
00000000
00001000
00000000
,
01000000
00000000
00010000
10000000
00000000
00000000
01000000
00000000
,
00100000
00010000
00010000
01000000
,
00001000
00010000
00010000
00000100
,
00001000
00000000
00000010
00001000
00000000
00000000
00000001
00000000
,
00000100
00000000
00000010
00000100
00000000
00000000
00000010
00000000
,
00000100
00000000
00000001
00000000
00001000
00000000
00000010
00001000
,
00000010
00000000
00000100
00000000
00000001
00000000
00001000
00000100
,
00001000
00000000
00000100
00000000
00010000
00000000
00001000
00010000
,
00001000
01000000
00100000
00100000
,
10000000
00000000
00010000
00000000
00100000
00000000
01000000
10000000
,
01000000
00000000
00100000
00000000
00010000
00000000
10000000
00010000
,
10000000
00000000
00010000
00000000
01000000
00000000
00001000
00010000
,
00001000
00000000
00000000
00000000
00010000
00000000
00010000
00001000
,
00010000
00000100
00001000
00000010
,
00000100
00000001
00000010
00000100
,
00001000
00000100
00010000
00001000
,
00010000
00000010
00000100
00000001
,
00001000
00000100
00000010
00000010
,
00000100
00001000
00000010
00010000
,
00010000
00001000
00000000
00100000
00000000
00001000
00000000
01000000
,
00010000
01000000
00100000
10000000
,
10010000
00000000
00000000
00000000
;

//---------------dance-double - ----------------
#NOTES:
     dance-double:
     :
     Hard:
     9:
     0.573,0.885,0.118,0.000,0.379:
00000000
00000000
00000000
00000000
,
00000000
00000000
00000000
00000000
,
00000000
00000000
00000000
00000000
,
00000000
00000000
00000000
00000000
,
10010000
01000000
00010000
00100000
,
00011000
00010000
00000100
00001000
,
00000110
00000001
00001000
00000100
,
00001001
00000010
00000100
00001000
,
00000010
00000100
00000000
00000100
00000001
00000000
00001000
00000100
,
00000010
00000001
00000000
00000001
00001000
00000000
00000010
00000000
,
00010000
00001000
00000000
00001000
01000000
00000000
00010000
00100000
,
01000000
10000000
00000000
10000000
00010000
00000000
01000000
00000000
,
00001000
00010000
00000000
01000000
00000000
00010000
00000000
00001000
,
00000000
00000010
00000000
00000100
00000000
00001000
00000000
00000010
,
00000000
00010000
00000000
00001000
00000000
01000000
00000000
00010000
,
00100000
01000000
10000000
10000000
01000000
00100000
00001000
00000000
,
00010000
00000100
00001000
00000000
00001000
00000100
00010000
00000000
00001000
01000000
00010000
00000000
00010000
01000000
00001000
00000000
,
00100000
00010000
01000000
00000000
01000000
00001000
00010000
00000000
00010000
00000100
00001000
00000000
00000100
00001000
00000010
00000000
,
00000100
00000001
00000000
00000100
00000001
00000100
00000000
00000100
00000010
00000100
00000000
00000100
00001000
00000100
00000000
00000100
,
00000010
00001000
00000000
00000010
00001000
00000010
00000000
00000010
00000100
00000010
00000000
00000010
00000001
00000010
00000000
00000010
,
00001000
00000000
00000000
00000000
00000000
00000000
00000100
00000000
00000000
00000000
00000000
00000000
00001000
00000000
00000000
00000000
00000000
00000000
00000010
00000000
00000000
00010000
00000000
00000000
00000000
00000000
00000000
00001000
00000000
00000000
00000000
00000000
,
00000000
00001000
00000000
00000000
01000000
00000000
00000000
00000000
00000000
00000000
00000000
00000000
00000000
00010000
00000000
00000000
00100000
00000000
00000000
01000000
00000000
00000000
00000000
00000000
00000000
00100000
00000000
00000000
00010000
00000000
00000000
00000000
,
00000000
00000000
00000000
00000000
00000000
01000000
00000000
00000000
00000000
00000000
00000000
00100000
00000000
00000000
00000000
00000000
00000000
00100000
00000000
00000000
10000000
00000000
00000000
00000000
00000000
00000000
00010000
00000000
00000000
00000000
00000000
00000000
,
01000000
00000000
00000000
00001000
00000000
00000000
00000000
00000000
00000000
00001000
00000000
00000000
00100000
00000000
00000000
00000000
00000000
00000000
00010000
00000000
00000000
00100000
00000000
00000000
00000000
00000000
00000000
00001000
00000000
00000000
00000000
00000000
,
00000000
00001000
00000000
00000000
00010000
00000000
00000000
00000000
00000000
00000000
00000100
00000000
00000000
00001000
00000000
00000000
00000010
00000000
00000000
00000100
00000000
00000000
00000000
00000000
00000000
00000100
00000000
00000000
00000001
00000000
00000000
00000000
,
00000000
00000000
00000010
00000000
00000000
00000100
00000000
00000000
00000000
00000000
00000000
00001001
00000000
00000000
00000000
00000000
00000000
00000010
00000000
00000000
00000001
00000000
00000000
00000100
00000000
00000000
00000010
00000000
00000000
00000010
00000000
00000000
,
00000100
00000001
00000000
00000100
00000001
00000000
00001000
00000000
00000010
00001000
00000000
00000010
00001000
00000000
00000100
00000000
,
00010000
00001000
00000000
00010000
00001000
00000000
00100000
00000000
00010000
01000000
00000000
00010000
01000000
00000000
00100000
00000000
,
10000000
00010000
00000000
10010000
00000000
01100000
00000000
00100000
10000000
00010000
00000000
01010000
00000000
01001000
00000000
00010000
,
00001000
00100000
00000000
00001000
00010000
00000100
00000000
00001000
00000010
00000100
00000001
00000001
00001000
00000010
00000100
00000100
,
00000010
00000000
00001000
00000001
00000000
00000001
00000100
00000010
,
00001000
00000000
00000100
00010000
00000000
00010000
00001000
00100000
,
00010000
00000000
01000000
00010000
00000000
00010000
00100000
01000000
,
10000000
00000000
00010000
01000000
00000000
01000000
00100000
10000000
,
00010000
00000000
01000000
00000000
00100000
10000000
00100000
01000000
,
00010000
00000000
00100000
00000000
00001000
00010000
00001000
00100000
,
00010000
00000000
00010000
10000000
00000000
10000000
01000000
00000000
,
00100000
00000000
00001000
00000000
00010000
00000100
00001000
00001000
,
00001000
00000000
00000010
00000100
00000000
00000100
00000001
00000010
,
00000100
00000000
00001000
00000010
00000000
00000010
00000100
00000001
,
00000010
00000000
00000100
00001000
00000000
00001000
00000010
00010000
,
00001000
00000000
01000000
00010000
00000000
10000000
00100000
01000000
,
00010000
00000000
00100000
00000000
01000000
10000000
01000000
00100000
,
00001000
00000000
00010000
00000000
00000010
00001000
00000010
00000100
,
00000001
00000000
00000010
00000100
00000000
00000100
00001000
00000000
,
00000010
00000000
00000100
00000001
00000000
00000000
00001001
00000000
,
00000100
00000001
00000100
00000010
00001000
00000000
00000100
00000010
,
00000100
00001000
00000010
00010000
00001000
00000000
00010000
00000100
,
00010000
00001000
01000000
00100000
10000000
00000000
00010000
01000000
,
00010000
00100000
01000000
10000000
00000000
00100000
01000000
00010000
,
10000000
01000000
00000000
01000000
00100000
00000000
00100000
00001000
,
00010000
01000000
00000000
01000000
00100000
00000000
00100000
00010000
,
01000000
00001000
00000000
00001000
00010000
00000000
00010000
00000010
,
00000100
00000000
00000001
00000000
00001000
00000010
00000100
00000100
,
00000100
00000001
00000010
00000100
00001000
00000010
00000001
00000010
,
00001000
00000100
00000010
00000001
00000100
00000010
00000001
00000010
,
00000100
00000001
00001000
00000010
00010000
00001000
00000010
00001000
,
00010000
01000000
00100000
00010000
00000000
01000000
00100000
10000000
,
01000000
10000000
00100000
01000000
00010000
00100000
10000000
00100000
,
00010000
01000000
00100000
10000000
01000000
00100000
10000000
00100000
,
01000000
10000000
00010000
01000000
00001000
00010000
00100000
00010000
,
00001000
00000100
00000010
00000110
,
00001001
00000000
00000000
00000000
;
