#TITLE:Trypical;
#SUBTITLE:;
#ARTIST:KimonoThief;
#TITLETRANSLIT:;
#SUBTITLETRANSLIT:;
#ARTISTTRANSLIT:;
#GENRE:;
#CREDIT:;
#MENUCOLOR:;
#METERTYPE:DDR;
#BANNER:Trypical-bn.png;
#BACKGROUND:Trypical-bg.png;
#LYRICSPATH:;
#CDTITLE:ddrencorecdtitle.png;
#MUSIC:Trypical.mp3;
#OFFSET:-3.468;
#SAMPLESTART:89.173;
#SAMPLELENGTH:11.980;
#SELECTABLE:YES;
#LISTSORT:;
#BPMS:0.000=70.000,28.000=140.000;
#STOPS:169.750=0.210
,170.000=0.210
,170.250=0.210
;
#BGCHANGES:;
#ATTACKS:;

//---------------dance-single - ----------------
#NOTES:
     dance-single:
     :
     Hard:
     9:
     0.592,0.536,0.403,0.232,0.464: // measure 1
0000
0000
0000
0000
,  // measure 2
0001
0000
0000
0100
0000
0000
0001
0000
0000
0010
0000
0000
1000
0000
0001
0000
,  // measure 3
1000
0000
0000
0100
0000
0000
1000
0000
0000
0010
0000
0000
0100
0000
0010
0000
,  // measure 4
0002
0000
0000
1003
0000
0000
0200
0000
0000
0310
0000
0000
1000
0000
0001
0000
,  // measure 5
2000
0000
0000
3100
0000
0000
0002
0000
0003
0100
0000
0000
0001
0000
0010
0000
,  // measure 6
0200
0000
0000
0310
0000
0000
2000
0000
0000
3001
0000
0000
0100
0000
0010
0000
,  // measure 7
2000
0000
0000
0000
0000
0000
3001
0000
0000
0000
0000
0000
0100
0000
0000
0000
0000
0000
1000
0000
0000
0000
0000
0000
0100
0000
0000
0000
0001
0010
0100
1000
,  // measure 8
0001
0000
0100
0000
0000
0000
0001
0000
0102
0000
0000
0010
0000
0000
0013
0000
,  // measure 9
0000
0000
0010
0000
0000
0000
2010
0000
0100
0000
0000
0100
3000
0000
0001
0000
,  // measure 10
0010
0000
1000
0000
0001
0000
1000
0000
2100
0000
0000
0010
0000
0000
3010
0000
,  // measure 11
0100
0000
1000
0000
0100
0000
0001
0000
0012
0000
0000
0100
0000
0000
0103
0000
,  // measure 12
1000
0000
0100
0000
1000
0000
0100
0000
0001
0000
0010
0100
0000
0000
1000
0100
,  // measure 13
0000
0000
0010
0000
0000
0000
0001
0000
0100
0000
0010
1000
0000
0000
0100
0010
,  // measure 14
0000
0000
0001
0000
0010
0000
1000
0000
0011
0000
0000
0110
0000
0000
1100
0000
,  // measure 15
1000
0000
0010
0000
0100
0000
1000
0000
1100
0000
0000
0110
0000
0000
0101
0000
,  // measure 16
0001
0000
0010
0000
0100
0000
2100
0000
0010
0000
0000
0010
3000
0000
0010
0100
,  // measure 17
0002
0000
0010
0000
0000
0000
0010
0000
0013
0000
0000
0100
0000
1000
0010
0100
,  // measure 18
0020
0000
0100
0000
0000
0030
0100
0010
1000
0000
0000
0001
0000
0000
0010
0000
,  // measure 19
0000
0000
0100
0000
0000
0000
0110
0000
0012
0000
0000
0100
0003
0000
0100
0001
,  // measure 20
2000
0000
0100
0000
3000
0000
0100
0000
1100
0000
0000
0110
0000
0000
0001
0010
,  // measure 21
0001
0000
0100
0000
0000
0000
0001
0000
0011
0000
0000
1001
0000
0000
0001
0100
,  // measure 22
0010
0000
1000
0000
0000
0000
0110
0000
0102
0000
0000
0010
0000
0000
0013
0000
,  // measure 23
0000
0000
0001
0000
0000
0000
1000
0000
0001
0000
0000
0100
0000
0000
0010
1000
,  // measure 24
0100
0000
1000
0000
0001
0000
0102
0000
0010
0000
0000
0010
0003
0000
0010
0001
,  // measure 25
0100
0000
0020
0000
0000
0000
1000
0000
1000
0000
0000
1030
0000
0100
1000
0100
,  // measure 26
0020
0000
0001
0000
0030
0000
0001
0010
0100
0000
0000
1000
0000
0000
0100
0000
,  // measure 27
0000
0000
0010
0000
0000
0000
0011
0000
1002
0000
0000
1000
0003
0000
1000
0010
,  // measure 28
1000
0000
0100
0000
0000
0000
0100
0000
1100
0000
0000
1001
0000
0000
0010
1000
,  // measure 29
0010
0000
0100
0000
0000
0000
0101
0000
0110
0000
0000
1010
0000
0000
0001
1000
,  // measure 30
0001
0000
1000
0000
0000
0000
1100
0000
0120
0000
0000
0001
0000
0000
0031
0000
,  // measure 31
0000
0000
0100
0000
0000
0000
1000
0000
0010
0000
0000
0100
0000
0000
0001
0010
,  // measure 32
0100
0000
1000
0000
0100
0000
0010
0001
0010
0000
0100
0000
1000
0000
0001
0000
,  // measure 33
0000
0000
1000
0000
0100
0000
0010
0001
0010
0000
0001
0000
0010
0000
1000
0000
,  // measure 34
0000
0000
0010
0000
0100
0000
1000
0010
1000
0000
0100
0000
1000
0000
0010
0000
,  // measure 35
0000
0000
1000
0001
1000
0000
0010
0001
0010
0000
1000
0000
0010
0000
0001
0000
,  // measure 36
0000
0000
0010
0100
0000
0000
0010
0100
0010
0000
1000
0000
0001
0000
1000
0000
,  // measure 37
0000
0000
0100
0010
0000
0000
0100
0010
0100
0000
1000
0000
0001
0000
1000
0000
,  // measure 38
0000
0000
0001
0010
0000
0000
1000
0010
1000
0000
0010
0000
0001
0000
0010
0000
,  // measure 39
0000
0000
0100
1000
0000
0000
0001
0100
0001
0000
0100
0000
1000
0000
0100
0000
,  // measure 40
0001
0000
1000
0000
0100
0000
0001
0100
0000
1000
0000
0001
0100
0000
1000
0000
,  // measure 41
0100
0000
0001
0000
1000
0000
0100
0001
0000
0100
0000
1000
0001
0000
0100
0000
,  // measure 42
1000
0000
0100
0000
0010
0000
0100
0001
0000
0100
0000
0010
1000
0000
0100
0000
,  // measure 43
0010
0000
0100
0000
0001
0000
0100
1000
0010
0001
0010
0000
1000
0000
0001
0000
,  // measure 44
0010
1000
0000
0010
0000
0001
1000
0000
0010
0000
0001
0000
0010
0000
1000
0000
,  // measure 45
0001
0010
0000
1000
0000
0010
0001
0000
1000
0000
0010
0000
0001
0000
0010
0000
,  // measure 46
1000
0001
0000
1000
0000
0100
0010
0000
0100
0000
0001
0000
0100
0000
1000
0000
,  // measure 47
0010
0001
0100
1000
0001
2100
0010
0000
,  // measure 48
0010
0000
0010
0000
0000
0100
3000
0000
0010
0001
0010
0000
0100
0000
1000
0000
,  // measure 49
0102
0000
0010
0000
0000
0010
0000
0103
1000
0100
1000
0000
0001
0000
0000
0000
,  // measure 50
0100
0000
0010
0000
0000
1001
0000
0000
1010
0000
0000
0000
1000
0000
0000
0000
,  // measure 51
0110
0000
2100
0000
0000
0001
3000
0000
0001
0100
0010
0000
1000
0000
0010
0000
,  // measure 52
0100
0000
0101
0000
0000
1001
0000
0000
0001
0010
0001
0000
0010
0000
0100
0000
,  // measure 53
1000
0000
1100
0000
0000
1001
0000
0000
0010
1000
0020
0000
0100
0000
0000
0000
,  // measure 54
1000
0000
0100
0000
0000
0001
0000
0000
0130
0000
0000
0000
0001
0000
0000
0000
,  // measure 55
1100
0000
0001
0000
0000
0100
0000
0000
1000
0000
0210
0000
0001
0000
0000
0000
,  // measure 56
0001
0000
0001
0000
0000
1000
0300
0000
0100
0010
1000
0000
0100
0000
0010
0000
,  // measure 57
0012
0000
0100
0000
0000
0100
0003
1000
0001
1000
0001
0000
0010
0000
0000
0000
,  // measure 58
1000
0000
0001
0000
0000
0101
0000
0000
1001
0000
0000
0000
0010
0000
0000
0000
,  // measure 59
1010
0000
0210
0000
0000
0010
0300
0000
1000
0100
0010
0000
0001
0000
0000
0000
,  // measure 60
0110
0000
1100
0000
0000
1001
0000
0000
0001
1000
0001
0000
0100
0000
0000
0000
,  // measure 61
0101
0000
0110
0000
0000
1010
0000
0000
0100
0010
0100
0000
0001
0000
0010
0000
,  // measure 62
0100
0000
1000
0000
0010
0100
0000
0000
0010
0100
0000
0000
1000
0000
0100
0000
,  // measure 63
0001
0000
0010
0000
0100
1000
0000
0000
0100
1000
0020
0000
0000
0000
0000
0000
,  // measure 64
0030
0000
0000
0000
;

//---------------dance-single - ----------------
#NOTES:
     dance-single:
     :
     Beginner:
     2:
     0.136,0.170,0.046,0.008,0.000:
0000
0000
0000
0000
,
1000
0000
0000
0000
,
0100
0000
0000
0000
,
0100
0000
0000
0000
,
0010
0000
0000
0000
,
0001
0000
0000
0000
,
1000
0000
0001
0000
,
1000
0000
0000
0000
,
0010
0000
0000
0000
,
0100
0000
0000
0000
,
0001
0000
0000
0000
,
0010
0010
0000
0000
,
1000
1000
0000
0000
,
0001
0001
0000
0000
,
0100
0100
0100
0100
,
0100
0000
1000
0000
,
0001
0000
1000
0000
,
0100
0000
1000
0000
,
0001
0000
1000
0000
,
0010
0000
0100
0000
,
0010
0000
0100
0000
,
0001
0000
0100
0000
,
0001
0000
0100
0100
,
0100
0000
0001
0000
,
1000
0000
0100
0000
,
1000
0000
0010
0000
,
0100
0000
0001
0000
,
0010
0000
0001
0000
,
1000
0000
0010
0000
,
1000
0000
0001
0000
,
1000
0000
0001
0000
,
1001
0000
0000
0000
,
0110
0000
0000
0000
,
1001
0000
0000
0000
,
0110
0000
0000
0000
,
1000
0000
0100
0000
,
0001
0000
0100
0000
,
1000
0000
0100
0000
,
0001
0001
0001
0001
,
0001
0000
1000
0000
,
0100
0000
1000
0000
,
0001
0000
1000
0000
,
0020
0000
0000
0030
,
0000
1000
0000
0000
0000
0100
0000
0000
,
0000
0001
0000
0000
0000
0100
0000
0000
,
0000
0010
0000
0000
0000
0100
0000
0000
,
0000
1000
0000
0000
0000
0001
0000
0001
,
0000
0000
0000
0010
0000
0000
0000
0100
,
0000
0000
0000
1000
0000
1000
0000
0000
,
0000
0001
0000
0000
0000
0010
0000
0000
,
0000
0100
0000
0000
0000
0001
0000
0000
,
0000
1000
0000
0000
0000
0100
0000
0000
,
0000
0001
0000
0000
0000
1000
0000
0000
,
0000
0010
0000
0000
0000
1000
0000
0000
,
0000
0001
0000
0000
0000
1001
0000
0000
,
0000
0100
0000
0000
0000
0010
0000
0000
,
0000
1000
0000
0000
0000
0001
0000
0000
,
0000
0100
0000
0000
0000
1000
0000
0000
,
0000
0010
0000
0000
0000
0001
0000
0000
,
0000
1000
0000
0000
0000
0001
0000
0000
,
0000
0100
0000
0000
0000
0010
0000
0000
,
0000
0100
0000
0000
0000
0010
0000
0000
,
0000
1000
0000
0000
0000
1001
0000
0000
;

//---------------dance-single - ----------------
#NOTES:
     dance-single:
     :
     Easy:
     5:
     0.292,0.343,0.046,0.194,0.000:
0000
0000
0000
0000
,
1000
0000
0100
0000
,
1000
0000
0100
0000
,
0001
0000
0100
0000
,
1000
0000
0001
0000
,
1000
0001
1000
0010
,
1000
0000
0001
0000
1000
0000
0001
0001
,
0001
1000
1000
0100
,
0100
1000
1000
0010
,
0020
0000
1000
0130
,
0001
0100
0001
0100
,
0001
1000
0100
1000
,
0010
1000
0100
1000
,
0200
0000
1000
0310
,
0001
0100
0010
0100
,
0110
0001
1000
0100
,
0010
0100
1000
0001
,
0100
0001
0100
0001
,
1000
0100
1000
0100
,
0010
0100
0100
0100
,
1000
0001
0001
0001
,
0100
0010
0010
0010
,
1000
0100
0100
0100
,
1000
0010
0100
0001
,
1000
1000
0002
0000
,
1003
0010
0100
0001
,
0100
0100
0020
0000
,
0130
0010
1000
0100
,
0010
0001
0002
0000
,
0103
0010
1000
0100
,
1000
0001
0200
0000
,
0302
0000
1000
1003
,
2000
0000
0100
3100
,
0200
0000
0010
0310
,
0002
0000
0100
0103
,
0020
1000
0100
1030
,
0200
0001
0010
0301
,
2000
0010
0001
3010
,
0101
1010
1100
1001
,
0100
0001
0100
0000
0010
0000
0010
0000
,
1000
0100
1000
0001
,
1000
0100
1000
0000
0010
0000
0100
0000
,
0001
0000
2000
0000
0000
3001
0000
0100
,
0000
0010
0000
1000
0000
0001
1000
0001
,
0000
1000
0000
0100
0000
0010
0000
0001
,
0000
1000
0000
0010
0000
0100
0000
0001
,
0000
1000
0000
0001
0000
1000
0000
2000
,
0000
0001
0000
0100
0000
3001
0000
0200
,
0000
0010
0000
0001
0000
0310
0000
2000
,
0000
3200
0000
0320
0000
0032
0000
0103
,
0000
0010
0000
0010
0000
1000
0000
0100
,
0000
1000
0000
1000
0000
0001
0000
0100
,
0000
0010
0000
0010
0000
0100
0000
0001
,
0000
0001
0000
1000
0000
0001
0000
0100
,
0000
0010
0000
0100
0000
0001
0000
2000
,
0000
0100
0000
3010
0000
0100
0000
0001
,
0000
1000
0000
0100
0000
0020
0000
0001
,
0000
0100
0000
0031
0000
1000
0000
0100
,
0000
1000
0000
0010
0000
0100
0000
0001
,
0000
2000
0000
3100
0000
0010
0000
0001
,
0000
0100
0000
0001
0000
1000
0000
0010
,
0000
0100
0000
0001
0000
1000
0000
0001
,
0000
0100
0000
0010
0000
2002
0000
0000
,
0000
0000
0000
3003
0000
0000
0000
0000
;

//---------------dance-single - ----------------
#NOTES:
     dance-single:
     :
     Medium:
     8:
     0.414,0.417,0.070,0.108,0.023:
0000
0000
0000
0000
,
1000
0000
0000
0001
0000
0000
1000
0000
0000
0100
0000
0000
0010
0000
0001
0000
,
0100
0000
0000
0010
0000
0000
1000
0000
0000
0100
0000
0000
1000
0000
0100
0000
,
1000
0000
0100
0000
0010
0001
0010
0001
,
0010
0000
0001
0000
0100
0000
0010
1000
,
0010
0000
0100
0000
0001
0000
1000
0100
,
1000
0000
0001
0000
0100
0000
0010
1000
,
0010
0100
0001
1000
,
0010
0000
0100
0000
0001
0000
1000
0001
,
1000
0010
0100
0001
,
0010
0000
0100
0000
1000
0000
0001
0010
,
0001
0000
0100
0000
0010
0000
1000
0100
,
1000
0000
0001
0000
0100
0000
0010
0100
,
0010
0000
1000
0000
0100
0000
0010
0100
,
0010
0000
0001
0000
1000
0001
1000
0001
,
1000
0010
0100
0001
,
0200
0000
0010
0000
0301
0000
1000
0100
,
0020
0000
0001
0000
0130
0000
0010
0001
,
2000
0000
0010
0000
3100
0000
0010
0100
,
0002
0000
1000
0000
0103
0000
0010
1000
,
0200
0000
0001
0000
0310
0000
0001
1000
,
0010
0000
0100
0001
1000
0000
0010
0000
,
1000
0100
0010
0001
0010
0100
1000
0001
,
1000
0000
0010
0000
0100
0001
0100
0001
,
0010
0000
0100
0000
1000
0001
1000
0001
,
0100
0000
0010
0000
1000
0000
0100
0010
,
0100
0000
1000
0000
0010
0100
0001
0100
,
0001
0000
1000
0000
0100
1000
0100
0000
,
1000
0000
0010
0000
0100
0001
0100
0000
,
0010
1001
0100
1001
,
0100
0010
1000
0001
1000
0001
0100
0000
,
1000
0001
0100
0000
0002
0000
0013
0000
,
0100
1000
0001
0000
0020
0000
0130
0000
,
0010
0001
0100
0000
0020
0000
1030
0000
,
0100
1000
0010
0100
0001
1000
0001
0000
,
0100
0010
1000
0000
0101
0000
1001
0000
,
0100
0010
0001
0000
1100
0000
1001
0000
,
0100
0010
0100
0000
1001
0000
0110
0000
,
0001
0100
0010
1000
0100
0010
0001
0000
,
1000
0010
1000
0000
0001
0000
0100
0000
,
0010
1000
0100
0000
0010
0000
0001
0000
,
0100
0010
0100
0000
0001
0000
1000
0000
,
0100
0000
0001
0000
0100
0000
0000
0001
1000
0001
0100
0000
0010
0000
1000
0000
,
0000
0001
0000
0100
0000
0001
0010
0100
,
0000
1000
0000
0010
0000
0100
0001
0100
,
0000
0010
0000
1000
0000
0001
0100
0010
,
1000
0001
0100
0010
1000
0100
1000
0100
,
1000
0100
1000
0100
1000
0001
0010
0001
,
0010
0001
0010
0001
0000
0001
0100
0001
,
0100
0001
0100
0001
0100
0010
1000
0010
,
1000
0010
1000
0010
0000
0100
0010
0100
,
0010
0100
0010
0100
0010
1000
0001
1000
,
0001
1000
0001
1000
0000
0010
0100
0001
,
0000
0100
0010
1000
0000
0100
0010
0001
,
0100
0010
1000
0100
0010
0001
0100
0020
,
0000
1000
0000
0130
0000
0010
1000
0100
,
0000
0010
0001
1000
0000
0010
0100
0002
,
0000
1000
0000
0013
0000
0100
1000
0001
,
0000
0100
0010
1000
0100
1000
0001
0200
,
0000
0010
0000
0301
0000
1000
0100
0020
,
0000
0001
0000
0130
0000
1000
0010
0100
,
0000
0001
0010
0100
0000
1000
0001
0100
,
0000
0001
1000
0100
0000
0220
0000
0000
,
0000
0000
0000
0330
0000
0000
0000
0000
;

//---------------dance-double - ----------------
#NOTES:
     dance-double:
     :
     Easy:
     4:
     0.297,0.296,0.093,0.139,0.004:
00000000
00000000
00000000
00000000
,
01000000
00010000
00100000
00001000
,
00010000
00000100
00001000
00000000
,
00000010
00000100
00000001
00001000
,
00000100
00000010
00000100
00000000
,
00010000
00001000
01000000
00010000
,
00100000
00010000
01000000
00200000
,
10300000
01000000
00100000
00010000
,
10000000
01000000
00100000
00010000
,
01000000
00010000
00100000
00001000
,
00010000
00000100
00000010
00000001
,
00001000
00000010
00000100
00000001
,
00001000
00000010
00000100
00000001
,
00001000
00000100
00010000
00001000
,
00100000
00010000
10000000
01000000
,
10010000
00100000
01000000
00010000
,
00200000
00001000
00001000
00301000
,
00010000
00000100
00001000
00000010
,
00000200
00000001
00000001
00000301
,
00001000
00000100
00010000
00001000
,
00020000
00000100
00000100
00030100
,
00001000
00000010
00000100
00000001
,
00002000
00000010
00000010
00003010
,
00000110
00000001
00001000
00000100
,
00010000
00001000
01000000
00010000
,
01010000
00100000
10000000
01000000
,
00100000
00010000
01000000
00001000
,
00011000
00000100
00010000
00001000
,
01000000
00010000
00100000
01000000
,
11000000
00010000
01000000
00100000
,
01000000
00001000
00010000
00001000
,
00001100
00000100
00000020
00000031
,
00000000
00000001
00002000
00003100
,
00000000
00010000
00002000
01003000
,
00000000
00100000
01000000
10010000
,
00000000
01000000
00200000
00310000
,
00000000
01000000
00002000
00013000
,
00000000
00000100
00002000
00003010
,
00000000
00000100
00000001
00001001
,
00000100
00000010
00001000
00001000
,
00000100
00010000
00001000
00001000
,
01000000
00100000
10000000
10000000
,
00010000
00000000
00000000
00000000
01000000
00000000
00000000
02200000
00000000
03300000
01000000
00000000
00000000
00000000
00010000
00000000
,
00000000
10000000
00000000
01000000
00000000
00100000
00000000
00010000
,
00000000
01000000
00000000
00001000
00000000
00010000
00000000
00000100
,
00000000
00001000
00000000
00000010
00000000
00000100
00000000
00000001
,
00000000
00000100
00000000
00000001
00000000
00001001
00000000
00000100
,
00000000
00000010
00000000
00001000
00000000
00000100
00000000
00000100
,
00000000
00010000
00000000
00010000
00000000
00001000
00000000
01000000
,
00000000
00010000
00000000
00100000
00000000
01000000
00000000
01000000
,
00000000
10000000
00000000
10000000
00000000
00010000
00000000
01000000
,
00000000
00100000
00000000
01000000
00000000
00001000
00000000
00001000
,
00000000
00010000
00000000
00010000
00000000
00000100
00000000
00001000
,
00000000
00000010
00000000
00000100
00000000
00000001
00000000
00000001
,
00000000
00001000
00000000
00001000
00000000
00000110
00000000
00000100
,
00000000
00000001
00000000
00001000
00000000
00000200
00000000
00010000
,
00000000
00010000
00000000
00010300
00000000
00001000
00000000
01000000
,
00000000
00100000
00000000
10000000
00000000
00020000
00000000
01000000
,
00000000
01000000
00000000
01030000
00000000
00001000
00000000
00010000
,
00000000
00000100
00000000
00001000
00000000
00000020
00000000
00000100
,
00000000
00000100
00000000
00000130
00000000
00000001
00000000
00001000
,
00000000
00000100
00000000
00010000
00000000
00001000
00000000
01000000
,
00000000
00010000
00000000
00100000
00000000
00022000
00000000
00000000
,
00000000
00000000
00000000
00000000
00000000
00033000
00000000
00000000
;

//---------------dance-double - ----------------
#NOTES:
     dance-double:
     :
     Medium:
     7:
     0.378,0.344,0.085,0.116,0.023:
00000000
00000000
00000000
00000000
,
10000000
00000000
00000000
00100000
00000000
00000000
01000000
00000000
00000000
00010000
00000000
00000000
00100000
00000000
01000000
00000000
,
10000000
00000000
00000000
00010000
00000000
00000000
01000000
00000000
00000000
00001000
00000000
00000000
00010000
00000000
00000100
00000000
,
00001000
00000000
00000010
00000000
00000100
00000100
00000001
00000001
,
00001000
00000000
00000100
00000000
00000010
00000010
00000100
00000100
,
00010000
00000000
00001000
00000000
00010000
00001000
01000000
00000000
,
00010000
10000000
01000000
00100000
00010000
01000000
00100000
00000000
,
10000000
10000000
00100000
01000000
,
00020000
00100000
00100000
00130000
,
00001000
00010000
00000100
00001000
,
00000020
00000000
00000100
00000000
00000100
00000000
00000130
00000001
,
00001000
00000100
00000010
00000001
,
00002000
00000100
00000100
00003100
,
00010000
00001000
01000000
00000000
00010000
00100000
00001000
00000000
,
00010000
00000100
00001000
00000100
00010000
00001000
00010000
00000000
,
00001000
00000000
01000000
00000000
00100000
00000000
10000000
01000000
,
00100000
00000000
00010000
00000000
01000000
00000000
00100000
10000000
,
01000000
00000000
00100000
00000000
00001000
00000000
00010000
00000100
,
00001000
00000000
00000010
00000000
00000100
00000000
00000001
00001000
,
00000200
00000000
00000010
00000000
00000310
00000000
00000001
00001000
,
00000200
00000000
00010000
00000000
00010300
00000000
00001000
01000000
,
00020000
00100000
00130000
01000000
,
10000000
00010000
00100000
01000000
10000000
00010000
01000000
00000000
,
00010000
00200000
00001000
00000000
00010000
00000000
00301000
00000000
,
00010000
00000100
00001000
00000010
,
00000100
00000002
00000010
00000000
00001000
00000000
00000103
00000000
,
00000010
00001000
00000100
00010000
,
00001000
02000000
00010000
00000000
00100000
00000000
03010000
00000000
,
10000000
01000000
00100000
00010000
,
01000000
00001000
00010000
00000000
00000100
00010000
00001000
00000000
,
00010000
00000100
00001000
00000010
00001000
00000100
00010000
00000000
,
00001000
01000000
00000000
01000000
00010000
00000000
01010000
00000000
,
00100000
10000000
00000000
10000000
01000000
00000000
11000000
00000000
,
00010000
01000000
00000000
01000000
00001000
00000000
01001000
00000000
,
00010000
00000100
00000000
00000100
00001000
00000000
00001100
00000000
,
00000001
00000100
00000001
00000000
00001000
00000000
00001001
00000000
,
00000100
00000010
00000100
00000000
00000001
00000000
00000101
00000000
,
00000010
00010000
00000010
00000000
00001000
00000000
00001010
00000000
,
00000100
00010000
00000100
00000000
00001000
00000000
00001100
00000000
,
00010000
00001000
00010000
00000000
00001000
00000000
01000000
00000000
,
00010000
00100000
00010000
00000000
10000000
00000000
01000000
00000000
,
00100000
00010000
00100000
00000000
01000000
00000000
10000000
00000000
,
00010000
00000000
01000000
00000000
00010000
00000000
00000000
01000000
00001000
00010000
00000100
00000000
00001000
00000000
00000100
00000000
,
00000000
00000010
00000000
00000001
00000000
00000100
00000010
00000100
,
00000000
00000001
00000000
00001000
00000000
00000100
00010000
00001000
,
00000000
00010000
00000000
00011000
00000000
00001000
01000000
00010000
,
00100000
00010000
01000000
00001000
00000000
00010000
00000100
00002000
,
00000000
00000010
00000000
00003010
00000000
00000100
00000000
00000001
,
00000000
00001000
00000000
00000100
00000000
00010000
00001000
02000000
,
00000000
00010000
00000000
03010000
00000000
10000000
00000000
01000000
,
00000000
00100000
00000000
00010000
00000000
01000000
00001000
00020000
,
00000000
00000100
00000000
00030100
00000000
00001000
00000000
00000010
,
00000000
00000100
00000000
00000001
00000000
00001000
00000100
00000020
,
00000000
00000100
00000000
00000130
00000000
00000010
00000000
00000001
,
00000000
00001000
00000000
00000100
00000000
00001001
00000000
00000100
,
00000000
00000010
00000000
00001000
00000100
00010000
00000000
00001000
,
00000000
01000000
00000000
00010000
00100000
00010000
00000000
10000000
,
00000000
01000000
00000000
10000000
00100000
10000000
00000000
00010000
,
00000000
01000000
00010000
01000000
00010000
01000000
00000000
00100000
,
00000000
10000000
00000000
01000000
00100000
01000000
00000000
10000000
,
00000000
00010000
00000000
01000000
00001000
00010000
00000000
00000100
,
00000000
00001000
00000000
00000010
00000100
00000010
00000000
00001000
,
00000000
00000001
00000100
00000001
00000000
00000220
00000000
00000000
,
00000000
00000000
00000330
00000000
;

//---------------dance-double - ----------------
#NOTES:
     dance-double:
     :
     Hard:
     9:
     0.556,0.516,0.093,0.101,0.298:
00000000
00000000
00000000
00000000
,
00100000
00000000
00000000
00010000
00000000
00000000
01000000
00000000
00000000
00100000
00000000
00000000
01000000
00000000
00010000
00000000
,
00100000
00000000
00000000
01000000
00000000
00000000
00100000
00000000
00000000
00001000
00000000
00000000
00010000
00000000
00000100
00000000
,
00001000
00000000
00000000
00000010
00000000
00000000
00000100
00000000
00000000
00000001
00000000
00000000
00000010
00000000
00001000
00000000
,
00000010
00000000
00000000
00000001
00000000
00000000
00000100
00000000
00000000
00000010
00000000
00000000
00001000
00000000
00000100
00000000
,
00011000
00000000
00000000
00001000
00000000
00000000
01000000
00000000
00000000
00010000
00000000
00000000
00100000
00000000
00010000
00000000
,
01000000
00000000
00000000
00100000
00000000
00000000
10000000
00000000
00000000
01000000
00000000
00000000
00010000
10000000
01000000
00100000
,
00010000
01000000
00100000
00010000
00100000
10000000
00100000
00010000
,
00000000
01000000
00100000
00000000
10000000
01000000
00100000
00010000
,
00000000
01000000
00001000
00000000
00010000
00000100
00001000
00000010
,
00000000
00000100
00000001
00000000
00001000
00000100
00000001
00000100
,
00001000
00000010
00001000
00000000
00000001
00000100
00000010
00000100
,
00000001
00001000
00000100
00000000
00000010
00000001
00000010
00000000
,
00000001
00000100
00001000
00010000
01000000
10000000
00010000
10000000
,
01000000
00010000
00001000
00000100
00000001
00001000
00000001
00000010
,
00001001
00000000
00000000
00000000
00000100
00000000
00000000
00000000
00000010
00000000
00001000
00000100
00000000
00000100
00001000
00000000
,
00000001
00000000
00001000
00000000
00000100
00000000
00010000
00000000
00001000
00000000
00100000
00010000
00000000
00010000
00100000
00000000
,
00010000
00000000
10000000
00000000
01000000
00000000
00100000
00000000
00010000
00000000
01000000
00100000
00000000
00100000
01000000
00000000
,
00010000
00000000
10000000
00000000
01000000
00000000
00010000
00000000
00001000
00000000
00000100
00000001
00000000
00000001
00000100
00000000
,
00000010
00000000
00001000
00000000
00000100
00000000
00000001
00000000
00000100
00000000
00001000
00000010
00000000
00000010
00001000
00000000
,
00000001
00000000
00000100
00000000
00000010
00000000
00010000
00000000
00001000
00000000
01000000
00010000
00000000
00000000
01000000
00000000
,
00100000
00000000
10000000
00000000
00010000
00000000
01000000
00000000
00100000
00000000
00000000
01100000
00000000
00000000
10010000
00000000
,
01000000
00000000
00100000
00000000
10000000
00000000
01000000
00000000
00100000
00000000
00000000
00110000
00000000
00000000
00011000
00000000
,
00000100
00000000
00001000
00000000
00000010
00000000
00000100
00000000
00000002
00000000
00000000
00000010
00000000
00000000
00000103
00000000
,
00000010
00000000
00001000
00000000
00000100
00000000
00000010
00000000
00000002
00000000
00000000
00001000
00000000
00000000
00000103
00000000
,
00000010
00000000
00001000
00000000
00000100
00000000
00010000
00000000
00001000
00000000
00010000
00001000
00000000
00010000
00001000
00000000
,
01000000
00000000
00100000
00000000
10000000
00000000
00010000
00000000
01000000
00100000
01000000
00000000
00010000
00000000
10000000
00000000
,
01000000
00000000
00100000
00000000
00010000
00000000
01000000
00000000
00001000
00000000
00000000
00010000
00000000
00000000
00000100
00000000
,
00001000
00000000
00000010
00000000
00000100
00000000
00000001
00000000
00001000
00000000
00000000
00000100
00000000
00000000
00010000
00000000
,
00001000
00000000
01000000
00000000
00100000
00000000
10000000
00000000
00010000
00000000
00000000
01010000
00000000
00000000
10010000
00000000
,
01000000
00000000
00100000
00000000
10000000
00000000
00010000
00000000
01000000
00000000
00010000
00100000
00000000
00010000
00100000
00000000
,
00010000
00000000
01000000
00000000
00100000
00000000
10000000
01000000
20000000
00000000
00010000
00000000
32000000
00000000
00100000
00000000
,
03000000
00000000
00010000
00000000
00100000
00000000
00001000
00010000
00002000
00000000
00010000
00000000
00023000
00000000
00000100
00000000
,
00030000
00000000
00001000
00000000
00000010
00000000
00000100
00000001
00000200
00000000
00000010
00000000
00000302
00000000
00001000
00000000
,
00000003
00000100
00000010
00000001
00001001
00000000
00001001
00000000
,
00000100
00000000
00000010
00000000
00010000
00001000
00010000
00000000
00000100
00000000
00001000
00000000
00000100
00000000
00000000
00000000
,
00000000
00000000
00010000
00000000
00001000
00000000
01000000
00010000
01000000
00000000
00100000
00000000
10000000
00000000
01000000
00000000
,
00100000
00000000
00010000
00000000
01000000
00000000
00001000
00010000
00001000
00000000
00010000
00000000
00000100
00000000
00000000
00000000
,
00000000
00000000
00001000
00000000
00000010
00000000
00000100
00000001
00000100
00000000
00000010
00000000
00001000
00000000
00000100
00000000
,
00002000
00000000
00000000
00000000
00003100
00000000
00010000
00001000
00000000
00010000
00000000
00001000
01000000
00000000
00010000
00000000
,
00200000
00000000
00000000
00000000
00310000
00000000
01000000
00100000
00000000
10000000
00000000
01000000
00100000
00000000
00010000
00000000
,
02000000
00000000
00000000
00000000
03001000
00000000
00010000
00000100
00000000
00001000
00000000
00000100
00001000
00000000
00000010
00000000
,
00000100
00000000
00000001
00000000
00001000
00000000
00000010
00000100
00001001
00000010
00000100
00000000
00000001
00000000
00000010
00000000
,
00000100
00001000
00000000
00000100
00000000
00010000
00001000
00000000
00010000
00000000
00001000
00000000
01000000
00000000
00010000
00000000
,
00100000
00010000
00000000
01000000
00000000
00100000
10000000
00000000
00010000
00000000
01000000
00000000
00100000
00000000
01000000
00000000
,
00001000
00010000
00000000
00000100
00000000
00001000
00000010
00000000
00000100
00000000
00000001
00000000
00001000
00000000
00000100
00000000
,
00000010
00000001
00001000
00000100
00010000
00001000
01000000
00100000
,
10000000
00010000
01000000
00100000
01000000
00000000
00010000
00100000
,
00001000
00000000
00010000
00000000
00000100
00000000
00001000
00000000
00000010
00000100
00000010
00000100
00000010
00000000
00001000
00000000
,
00000001
00000100
00000010
00001000
00000100
00000000
00001000
00000010
,
00000100
00000001
00001000
00000100
00010000
00001000
00100000
00010000
,
01000000
00000000
00100000
00000000
00000000
10000000
00000000
00000000
01000000
00000000
00100000
00000000
00010000
00000000
01000000
00000000
,
00010000
00000000
00100000
00000000
00000000
00001000
00000000
00000000
00010000
00000000
00000100
00000000
00001000
00000000
00000010
00000000
,
00000100
00000000
00000001
00000000
00000000
00001000
00000000
00000000
00000100
00000000
00000001
00000000
00000100
00000000
00001000
00000000
,
00000010
00000100
00000001
00000100
00001000
00000100
00000010
00001000
,
00000100
00000000
00010000
00000000
00001000
00000000
01000000
00000000
00100000
10000000
01000000
00000000
00010000
00000000
01000000
00000000
,
10000000
00000000
00100000
00000000
01000000
00000000
00010000
00000000
01000000
10000000
01000000
00000000
00010000
00000000
10000000
00000000
,
01000000
10000000
01000000
00000000
00100000
00000000
00010000
00000000
01000000
00000000
00000000
00000000
00001000
00000000
00010000
00000000
,
00000100
00000000
00001000
00000000
00000000
00000010
00000000
00000000
00000100
00000000
00000001
00000000
00001000
00000000
00000100
00000000
,
00000010
00000000
00000001
00000000
00000100
00000000
00001000
00000000
00000100
00000000
00000001
00000100
00000001
00000000
00001000
00000000
,
00000100
00000010
00000001
00001000
00000100
00000010
00000001
00001000
,
00000000
00000000
00000100
00010000
00001000
00000000
00010000
00000000
00001000
00000000
01000000
00010000
01000000
00000000
00100000
00000000
,
01000000
00000000
00001000
00010000
00001000
00000000
00010000
00000000
00000100
00000000
00022000
00000000
00000000
00000000
00000000
00000000
,
00000000
00000000
00033000
00000000
;
