#TITLE:Trollhammaren;
#SUBTITLE:;
#ARTIST:Finntroll;
#TITLETRANSLIT:;
#SUBTITLETRANSLIT:;
#ARTISTTRANSLIT:;
#GENRE:;
#CREDIT:;
#MENUCOLOR:;
#METERTYPE:DDR;
#BANNER:Trollhammaren-bn.png;
#BACKGROUND:Trollhammaren-bg.png;
#LYRICSPATH:Trollhammaren.lrc;
#CDTITLE:ddrencorecdtitle.png;
#MUSIC:Trollhammaren.mp3;
#OFFSET:-0.650;
#SAMPLESTART:12.412;
#SAMPLELENGTH:22.756;
#SELECTABLE:YES;
#LISTSORT:;
#BPMS:0.000=95.000,19.000=190.000,213.000=95.000,229.000=190.000;
#STOPS:156.000=0.010
,190.000=0.306
,197.000=0.316
,199.000=0.316
,203.000=0.336
,210.000=0.316
,212.000=0.316
;
#BGCHANGES:;
#ATTACKS:;

//---------------dance-single - ----------------
#NOTES:
     dance-single:
     :
     Beginner:
     2:
     0.211,0.273,0.130,0.139,0.000:
0000
0000
0000
0000
,
0000
0000
0000
0000
,
0000
0000
0000
0000
,
0000
0000
0000
1001
,
0000
0000
0000
1000
,
0000
1000
0000
0001
,
0000
0001
0000
0010
,
0000
0100
0000
0010
,
0010
0010
0000
0001
,
0000
0001
0000
1000
,
0000
1000
0000
0010
,
0000
0100
0000
0010
,
0010
0010
0000
1000
,
0000
0001
0000
1000
,
0000
0001
0000
1000
,
0000
0001
0000
0100
,
0100
0100
0000
0001
,
0000
1000
0000
0001
,
0000
1000
0000
0001
,
0000
1000
0000
0010
,
0010
0010
0000
0200
,
0000
0000
0000
0300
,
0000
0000
0000
0000
,
0001
0000
0001
0000
,
1000
0000
1000
0000
,
0010
0000
1000
0000
,
0001
0000
1001
0000
,
1000
0000
1000
0000
,
0001
0000
0001
0000
,
0100
0000
0001
0000
,
1000
0000
0000
0001
,
0000
0001
0000
1000
,
0000
1000
0000
0010
,
0000
0100
0000
1001
,
1001
1001
0000
1000
,
0000
1000
0000
0001
,
0000
0001
0000
0100
,
0000
0010
0000
1001
,
1001
1001
0000
2000
,
0000
3000
0000
0002
,
0000
0003
0000
2000
,
0000
3000
0000
0002
,
0000
0003
0000
0200
,
0000
0300
0000
0020
,
0000
0030
0000
0200
,
0000
0300
0000
0020
,
0000
0030
0000
1000
,
0000
0001
0000
0000
,
1000
0000
0001
0000
,
0100
0000
0000
0010
,
0010
0000
0100
0000
,
0000
0001
0000
1000
,
0000
0100
0000
0000
,
0010
0020
0000
0030
,
0000
0200
0000
0300
,
0000
2000
0000
3000
,
0000
0002
0000
0003
,
0000
1000
0000
1000
,
0000
0001
0000
0001
,
0000
0100
0000
0010
,
0000
0100
0100
0100
,
0000
0001
0000
0001
,
0000
1000
0000
1000
,
0000
0100
0000
0010
,
0000
0100
0100
0100
,
0000
1000
0000
1000
,
0000
1000
0000
1000
,
0000
1000
0000
1000
,
0000
1001
1001
1001
,
0000
0001
0000
0001
,
0000
0001
0000
0001
,
0000
0001
0000
0001
,
0000
1001
1001
2002
,
0000
0000
0000
3003
;

//---------------dance-single - ----------------
#NOTES:
     dance-single:
     :
     Easy:
     4:
     0.311,0.307,0.120,0.268,0.000:
0000
0000
0000
0000
,
0000
0000
0000
0000
,
0000
0000
0000
0000
,
0000
0000
0000
2002
,
0000
0000
3003
0001
,
0100
0001
0000
0010
,
0100
1000
0000
0010
,
1000
0010
0100
0001
,
0010
0100
0000
1000
,
0010
1000
0000
0100
,
0010
0001
0000
0100
,
0001
0100
0010
1000
,
0100
0010
0000
0001
,
0100
0020
0000
1030
,
0001
0200
0000
0301
,
1000
0002
0000
0013
,
0100
1000
0000
1000
,
0010
0200
0000
0301
,
1000
0020
0000
1030
,
0001
2000
0000
3010
,
0100
0001
0000
0220
,
0000
0000
0000
0000
,
0000
0330
0000
0000
,
0001
0000
0001
0000
,
1000
0000
1000
0000
,
0010
0000
0100
0000
,
0001
0000
1001
0000
,
1000
0000
1000
0000
,
0001
0000
0001
0000
,
0100
0000
0010
0000
,
1000
0000
0001
1000
,
0000
0010
0000
1000
,
0000
0001
0000
0100
,
0000
0010
0000
1000
,
0001
0110
0000
0001
,
0010
0001
0000
0100
,
0010
1000
0000
0100
,
1000
0100
0010
0001
,
0100
1001
0000
0020
,
0000
0000
0030
0200
,
0000
0000
0300
0020
,
0000
0000
0030
0200
,
0000
0000
0300
0001
,
1000
0100
0100
1000
,
0010
0100
0100
0001
,
1000
0100
0100
0010
,
0001
0100
0100
0010
,
0010
0010
0010
0100
,
0100
0010
1000
1000
,
1000
1000
0001
0001
,
1000
1000
1000
1000
,
0010
0010
0100
0001
,
0001
0001
0001
0100
,
0100
0220
0000
0000
,
0330
2002
0000
3003
,
0010
0220
0000
0000
,
0330
2002
0000
3003
,
0100
1000
0100
0010
,
0000
0001
0100
0001
,
0000
0010
0100
1000
,
0010
0100
0001
1000
,
0000
0100
1000
0001
,
0000
1000
0010
1000
,
0000
0001
0100
0010
,
1000
0100
0010
0001
,
0000
1000
0010
0200
,
0000
0310
1000
0002
,
0000
0013
0100
0020
,
0000
0031
1000
0101
,
0000
0010
1000
0200
,
0000
0310
0001
2000
,
0000
3010
0100
0001
,
0100
1001
1001
2002
,
0000
0000
0000
3003
;

//---------------dance-single - ----------------
#NOTES:
     dance-single:
     :
     Medium:
     6:
     0.426,0.512,0.139,0.185,0.000:
0000
0000
0000
0000
,
0000
0000
0000
0000
,
0100
0010
0000
1000
,
0000
0001
0000
2002
,
0000
0000
3003
1000
,
0100
0000
0010
0000
0001
0000
1000
0001
,
1000
0001
1000
0000
0010
0000
0100
0000
,
0001
0100
0001
0000
0010
0000
0100
0000
,
1000
2000
0000
3001
,
0100
0000
0010
0000
1000
0000
0001
1000
,
0001
1000
0001
0000
0010
0000
0100
0000
,
1000
0100
1000
0000
0010
0000
0100
0000
,
0001
0002
0000
1003
,
0000
0010
0100
0000
0001
0000
1000
0000
,
0000
0100
0010
0000
0001
0000
1000
0000
,
0000
0010
0100
0000
0001
0000
1000
0001
,
1000
0001
1000
0000
0100
0000
0010
0000
,
0000
0001
1000
0000
0010
0000
0100
0000
,
0000
0001
1000
0000
0100
0000
0010
0000
,
0000
0001
1000
0000
0010
0000
1000
0001
,
1000
0001
1000
0000
0010
0000
2002
0000
,
0000
0000
0000
0000
,
0000
3003
0000
0000
,
1000
0010
0100
0001
,
0010
0100
1000
0000
,
0010
1000
0100
0010
,
0001
1000
0000
0000
0000
0000
0000
0000
,
0010
1000
0001
0100
,
0010
1000
0001
0000
,
0010
0001
1000
0010
,
0100
0001
1000
0001
,
0000
1000
0001
0000
0100
0000
0010
0000
,
0000
0010
1000
0000
0010
0000
0100
0000
,
0000
0100
0001
0000
1000
0000
1001
0000
,
0001
1000
0001
0000
0000
0000
1000
0000
,
0010
1000
0010
0000
0100
0000
0001
0000
,
0010
0001
0010
0000
0100
0000
1000
0000
,
0001
1000
0001
0000
0100
0000
1001
0000
,
1000
0001
1000
0000
0010
0000
0200
0000
,
0000
0000
0300
0020
,
0000
0000
0030
2000
,
0000
0000
3000
0002
,
0000
1000
1003
0001
,
0010
0000
0100
0000
1000
0001
0100
0000
,
0010
0000
1000
0000
0001
0010
0100
0000
,
1000
0000
0010
0000
1000
0100
0010
0000
,
0001
1000
0010
0100
,
0001
0010
0010
0100
,
1000
0010
0100
0001
,
1000
1000
0001
0001
,
0010
0100
0010
0010
,
0001
0100
0010
1000
,
0001
0100
0100
0010
,
0010
0000
2000
0000
3001
0200
0000
0000
,
0310
0000
0020
0000
1030
0002
0000
0000
,
0013
0010
0002
0000
0103
0020
0000
0000
,
1030
0000
2000
0000
3001
0200
0000
0000
,
0310
1000
0001
0000
0010
0001
0010
0000
,
0100
0000
1000
0000
0010
1000
0001
0000
,
0000
0000
0010
0000
0001
0100
0010
0000
,
1000
0000
0001
0100
0001
0100
0001
0000
,
0000
0000
1000
0000
0100
1000
0100
0000
,
0010
0000
0001
0000
0100
0001
1000
0000
,
0000
0000
0010
0000
1000
0100
0010
0000
,
0001
0000
1000
0100
1000
0100
1000
0000
,
0010
1001
1001
1001
,
0100
1001
1001
1001
,
0010
1001
1001
1001
,
0100
0000
1001
0000
0001
1000
0001
0000
,
0000
0000
1000
0100
1000
0100
0010
0000
,
0001
0000
1000
0010
1000
0010
0100
0000
,
0001
0000
1000
0001
1000
0001
0100
0000
,
0010
0000
1001
0000
1000
0002
2000
0000
,
0000
0000
0000
3003
;

//---------------dance-single - ----------------
#NOTES:
     dance-single:
     :
     Hard:
     9:
     0.628,0.853,0.463,0.139,0.065:
0000
0000
0000
0000
,
0000
0000
0000
0000
,
0010
1000
0001
0000
1000
0100
0001
0000
,
0100
1000
0001
0000
1000
0010
2002
0000
,
0000
0000
0000
0000
3003
0000
0001
0100
,
0001
0100
0010
0000
0100
0001
1000
0100
,
1000
0100
0010
0000
0100
0010
0001
0100
,
0010
1000
0001
0100
0010
1000
0001
0010
,
0100
1000
0001
0000
0100
0000
0001
0010
,
0001
0010
0100
0000
0010
0001
1000
0010
,
1000
0010
0100
0000
0010
0100
0001
0010
,
0100
1000
0001
0000
1100
0000
0001
0100
,
0010
1000
0001
0000
1001
0000
0100
1000
,
0100
0010
0001
0000
0001
0100
0010
1000
,
0010
0100
0001
0000
1000
0010
0100
0001
,
0100
0010
1000
0000
1000
0100
0010
0001
,
0010
0100
1000
0000
1001
0000
0100
0001
,
0100
0010
1000
0000
0001
0100
0010
1000
,
0010
0100
0001
0000
0001
0010
0100
1000
,
0100
0010
0001
0000
1000
0100
0010
0001
,
0010
0100
1000
0000
0001
0000
2002
0000
,
0000
0000
0000
0000
,
3003
0000
0000
0010
0100
0010
0000
0000
,
1000
0000
0101
0000
0001
0010
1000
0000
,
1000
0010
0001
0000
1000
0000
0010
0000
,
0100
0000
1001
0000
0000
0010
0100
0000
,
0010
1000
0000
0000
0010
0000
1100
0000
,
0010
0001
0100
0000
0001
0100
1000
0000
,
0100
0001
1000
0000
,
1000
0100
0001
0000
0100
0000
1000
0000
,
0001
1002
0000
1003
,
0001
0100
0001
0000
0010
0000
0100
0000
,
1000
0010
1000
0000
0001
0000
0100
0000
,
0001
0010
0001
0000
1000
0000
1001
0000
,
0100
0010
0100
0000
0010
0000
1000
0001
,
1000
0001
0010
0000
0100
0010
0001
0100
,
0001
0100
0010
0000
0100
0001
1000
0010
,
1000
0010
0100
0000
0001
0000
1001
0000
,
0100
0010
0100
0000
0001
0000
2000
0000
,
0000
0000
3000
0200
,
0000
0000
0300
0020
,
0000
0000
0030
0002
,
0000
0000
1000
0000
1003
0000
0001
0010
,
0100
1000
0010
0100
0010
0100
0001
1000
,
0100
0010
0001
1000
0001
1000
0010
0100
,
0001
1000
0001
0010
0001
0010
0100
1000
,
0001
0100
0010
1000
0010
1000
0001
0000
,
0010
0001
1001
0000
1100
0000
0010
0100
,
0101
0000
0101
0000
1001
0000
0010
1000
,
1001
0101
1010
0110
,
1001
0000
0100
1000
1001
0000
0011
0000
,
0010
0100
1100
0000
1100
0000
1001
0000
,
0010
0001
1001
0000
1010
0000
0101
0000
,
0110
0000
0000
0000
0000
0000
0000
0000
1000
0000
0000
0000
0001
0100
0001
0000
1000
0000
0010
0000
0200
0000
0000
0000
0000
0000
0000
0000
0310
0000
0000
0000
,
1000
0000
0000
0000
1000
0000
0000
0000
0001
0000
0000
0000
1000
0100
1000
0000
0001
0000
0100
0000
0020
0000
0000
0000
0000
0000
0000
0000
0130
0000
0000
0000
,
1001
0000
0000
0000
1001
0000
0000
0000
0010
0000
0000
0000
0100
1000
0100
0000
0010
0000
0001
0000
2000
0000
0000
0000
0000
0000
0000
0000
3010
0000
0000
0000
,
1000
0000
0000
0000
1000
0000
0000
0000
0010
0000
0000
0000
0100
0001
0100
0000
0010
0000
1000
0000
0002
0000
0000
0000
0000
0000
0000
0000
1003
0000
0000
0000
,
0010
0100
0010
0100
0001
0000
0010
0000
0001
0000
0010
0000
0100
0000
0000
0000
,
0010
0001
1000
0100
1000
0100
0010
0000
,
0100
0010
0001
0100
0010
1000
0001
0100
,
0010
1000
0001
0010
0100
1000
0001
0000
,
1000
0000
0001
0100
0001
0100
0010
0000
,
0100
0001
1000
0010
1000
0010
0100
0000
,
0010
0100
0001
0010
0100
1000
0001
0000
,
1000
0000
0001
0100
0010
1000
0001
0000
,
1000
1010
0101
0011
,
1100
0101
1010
1100
,
0011
0110
1100
0101
,
0110
0000
1001
0000
0010
0100
0010
0000
,
1001
0000
0001
0100
1000
0100
0001
0000
,
0100
0010
1000
0100
0001
0100
1000
0000
,
0010
0100
0001
0010
1000
0010
0001
0000
,
0010
0000
1001
0000
1001
1001
2002
0000
,
0000
0000
0000
3003
;

//---------------dance-double - ----------------
#NOTES:
     dance-double:
     :
     Easy:
     5:
     0.336,0.375,0.250,0.194,0.000:
00000000
00000000
00000000
00000000
,
00000000
00000000
00000000
00000000
,
00000000
00000000
00000000
00000000
,
00000000
00000000
00000000
20020000
,
00000000
00000000
30030000
10000000
,
01000000
00100000
00010000
00100000
,
01000000
10000000
00100000
01000000
,
01000000
00001000
00001000
00010000
,
00000100
00001100
00000000
00000001
,
00000100
00000010
00001000
00000010
,
00000100
00000001
00000010
00000100
,
00000100
00010000
00010000
00001000
,
01000000
01010000
00000000
00010000
,
00000000
11000000
00000000
00100000
,
00000000
01010000
00000000
10000000
,
00000000
01100000
00000000
10000000
,
01000000
00100000
00001000
00010000
,
00000000
00010100
00000000
00000010
,
00000000
00000101
00000000
00001000
,
00000000
00000110
00000000
00000001
,
00000100
00000010
00010000
00022000
,
00000000
00000000
00000000
00000000
,
00000000
00033000
00000000
00000000
,
00001000
00000000
00100000
00000000
,
00001000
00000000
00100000
00000000
,
01000000
00000000
10000000
00000000
,
00010000
00000000
00011000
00000000
,
00010000
00000000
00000100
00000000
,
00010000
00000000
00000100
00000000
,
00000010
00000000
00000001
00000000
,
00001000
00000000
00000001
00002000
,
00000000
00003010
00000000
00000020
,
00000000
00001030
00000000
00002000
,
00000000
00003001
00000000
00000101
,
00001010
00001001
00000000
00001000
,
00000100
00000010
00000001
00000010
,
00000100
00010000
00001000
01000000
,
01000000
00010000
00010000
10100000
,
01010000
10010000
10000000
00200000
,
00000000
00000000
00300000
02000000
,
00000000
00000000
03000000
00020000
,
00000000
00000000
00030000
20000000
,
00000000
01000000
30000000
10000000
,
01000000
00100000
00100000
00010000
,
01000000
00001000
00001000
00100000
,
00010000
01000000
01000000
00001000
,
00010000
00000100
00000100
00001000
,
00001000
00001000
00001000
00000010
,
00000010
00000100
00000001
00000001
,
00000001
00000001
00001000
00001000
,
00000010
00000010
00000010
00000010
,
00010000
00010000
00010000
00001000
,
00001000
00001000
00001000
01000000
,
01000000
20020000
00000000
00000000
,
30030000
02200000
00000000
03300000
,
00010000
02200000
00000000
00000000
,
03300000
20020000
00000000
30030000
,
10000000
00010000
01000000
00100000
,
10000000
00100000
01000000
00010000
,
00100000
00001000
00001000
00010000
,
00010000
00000100
00001000
00001010
,
00000000
00001000
00000010
00000100
,
00000001
00000100
00000010
00001000
,
00000100
00010000
00010000
00001000
,
00001000
01000000
00010000
00110000
,
00000000
00010000
00010000
10000000
,
10000000
00100000
00100000
01000000
,
01000000
00010000
00010000
00100000
,
00100000
00001000
00010000
00001100
,
00000000
00000100
00000100
00001000
,
00001000
00000010
00000010
00000100
,
00000100
00000001
00000001
00001000
,
00001000
00001100
00010100
00022000
,
00000000
00000000
00000000
00033000
;

//---------------dance-double - ----------------
#NOTES:
     dance-double:
     :
     Medium:
     6:
     0.404,0.478,0.185,0.176,0.000:
00000000
00000000
00000000
00000000
,
00000000
00000000
00000000
00000000
,
00010000
01000000
00000000
00100000
,
00000000
10000000
00000000
20020000
,
00000000
00000000
30030000
10000000
,
01000000
10000000
01000000
00000000
00100000
00000000
00010000
00000000
,
10000000
00010000
10000000
00000000
00000000
00000000
00100000
00000000
,
01000000
00001000
00010000
00000100
,
00001000
00000010
00000100
00000000
00000000
00000000
00000001
00000000
,
00000100
00000001
00000100
00000000
00000010
00000000
00001000
00000000
,
00000001
00001000
00000001
00000000
00000000
00000000
00000100
00000000
,
00000010
00010000
00002000
01003000
,
00010000
00100000
01000000
00000000
00000000
00000000
10000000
00000000
,
00000000
00010000
01000000
00000000
00100000
00000000
10000000
00000000
,
00000000
01000000
00100000
00000000
00010000
00000000
01000000
00000000
,
00000000
00001000
00010000
00000000
00000100
00000000
00001000
00000000
,
00000010
00000100
00000000
00000001
,
00000000
00001000
00000100
00000000
00000010
00000000
00000001
00000000
,
00000000
00000100
00000010
00000000
00001000
00000000
00000100
00000000
,
00000000
00010000
00001000
00000000
01000000
00000000
00010000
00000000
,
00100000
01000000
01100000
20020000
,
00000000
00000000
00000000
00000000
,
00000000
30030000
00000000
00000000
,
11000000
00000000
11000000
00000000
,
10010000
00000000
10010000
00000000
,
01010000
00000000
01010000
00000000
,
01001000
00000000
00011000
00000000
,
00010100
00000000
00010100
00000000
,
00001100
00000000
00001100
00000000
,
00000011
00000000
00000011
00000000
,
00001001
00000000
00000001
00000100
,
00000000
00000100
00000010
00000000
00001000
00000000
00000001
00000000
,
00000000
00000001
00000100
00000000
00000010
00000000
00010000
00000000
,
00000000
00010000
00001000
00000000
01000000
00000000
00010000
00000000
,
10000000
00010000
10000000
00000000
00000000
00000000
10000000
00000000
,
00100000
10000000
00100000
00000000
01000000
00000000
00010000
00000000
,
00100000
00010000
00100000
00000000
00001000
00000000
00010000
00000000
,
00000100
00001000
00000100
00000000
00000010
00000000
00000001
00000000
,
00001000
00000001
00001000
00000000
00000010
00000000
00000200
00000000
,
00000000
00000000
00000300
00000020
,
00000000
00000000
00000030
00002000
,
00000000
00000000
00003000
00000002
,
00000000
00001000
00001003
00000001
,
00000010
00000000
00000100
00000000
00000100
00001000
00000010
00000000
,
00010000
00000000
00001000
00000000
00001000
01000000
00010000
00000000
,
00100000
00000000
01000000
00000000
01000000
10000000
00010000
00000000
,
01000000
00100000
10000000
01000000
,
00100000
01000000
01000000
00100000
,
00010000
01000000
00001000
00010000
,
00000100
00000100
00001000
00001000
,
00000010
00000100
00000001
00000001
,
00000010
00000100
00001000
00000010
,
00010000
00001000
00001000
01000000
,
01000000
00000000
00020000
00000000
10030000
02000000
00000000
00000000
,
03100000
00000000
00200000
00000000
00301000
00020000
00000000
00000000
,
00031000
00001000
00020000
00000000
00030100
00002000
00000000
00000000
,
00003010
00000000
00000020
00000000
00001030
00000002
00000000
00000000
,
00001003
00000001
00000100
00000000
00000001
00000100
00000001
00000000
,
00001000
00000000
00000010
00000000
00001000
00000001
00001000
00000000
,
00000000
00000100
00010000
00001000
,
01000000
00000000
00010000
00000000
00100000
01000000
10000000
00000000
,
00000000
00000000
00100000
00000000
10000000
00100000
10000000
00000000
,
00010000
00000000
00100000
00000000
00010000
10000000
00010000
00000000
,
00000000
01000000
00001000
00010000
,
00000100
00000000
00001000
00000000
00000010
00000100
00000001
00000000
,
00000000
00000000
00001000
00000000
00000001
00000100
00000001
00000000
,
00000010
00000000
00000100
00000000
00001000
00000100
00001000
00000000
,
00000010
00000000
00010000
00000000
00001000
00010000
00001000
00000000
,
01000000
00000000
10010000
00000000
00010000
10000000
00010000
00000000
,
00000000
00000000
10000000
01000000
10000000
01000000
00100000
00000000
,
00010000
00000000
00010000
01000000
00010000
01000000
00001000
00000000
,
00010000
00000000
00010000
00000100
00010000
00000100
00001000
00000000
,
00000010
00000000
00001001
00000000
00001000
00000002
00002000
00000000
,
00000000
00000000
00000000
00003003
;

//---------------dance-double - ----------------
#NOTES:
     dance-double:
     :
     Hard:
     8:
     0.576,0.614,0.555,0.157,0.009: // measure 1
00000000
00000000
00000000
00000000
,  // measure 2
00000000
00000000
00000000
00000000
,  // measure 3
00000010
00000001
00000000
00001000
,  // measure 4
00000000
00010000
00000000
02200000
,  // measure 5
00000000
00000000
00000000
00000000
03300000
00000000
10000000
01000000
,  // measure 6
10000000
01000000
00100000
00000000
01000000
00100000
00010000
01000000
,  // measure 7
00010000
01000000
00100000
00000000
00100000
10000000
00100000
10000000
,  // measure 8
01000000
00100000
01000000
10000000
00010000
00100000
00001000
00010000
,  // measure 9
00000100
00001000
00000010
00000000
00000100
00000000
00000001
00000100
,  // measure 10
00000001
00000100
00000010
00000000
00000100
00000010
00001000
00000100
,  // measure 11
00001000
00000100
00000010
00000000
00000010
00000001
00000010
00000001
,  // measure 12
00000100
00000010
00000100
00000000
00001001
00000000
00001000
00000010
,  // measure 13
00010000
00001000
01000000
00000000
10010000
00000000
00010000
00100000
,  // measure 14
01000000
10000000
01000000
00000000
10000000
00100000
01000000
00010000
,  // measure 15
01000000
00100000
10000000
00000000
00010000
00100000
00001000
00010000
,  // measure 16
00001000
00100000
01000000
00000000
00100000
00001000
00010000
00000010
,  // measure 17
00001000
00000100
00000010
00000000
00001001
00000000
00001000
00000010
,  // measure 18
00000100
00000001
00000100
00000000
00000001
00000010
00000100
00001000
,  // measure 19
00000100
00000010
00000001
00000000
00001000
00000010
00010000
00001000
,  // measure 20
00010000
00000010
00000100
00000000
00000010
00010000
00001000
00100000
,  // measure 21
00010000
01000000
00100000
00000000
10010000
00000000
02200000
00000000
,  // measure 22
00000000
00000000
00000000
00000000
,  // measure 23
03300000
00000000
00000000
10000000
00010000
10000000
00000000
00000000
,  // measure 24
10100000
00000000
01010000
00000000
,  // measure 25
01001000
00000000
00011000
00000000
,  // measure 26
00010100
00000000
00001100
00000000
,  // measure 27
00000110
00000000
00000000
00000001
00001000
00000001
00000000
00000000
,  // measure 28
00000101
00000000
00001001
00000000
,  // measure 29
00001100
00000000
00010100
00000000
,  // measure 30
00011000
00000000
01001000
00000000
,  // measure 31
01100000
10000000
00010000
10000000
,  // measure 32
00100000
10000000
00100000
00000000
01000000
00000000
00010000
00000000
,  // measure 33
00100000
00001000
00100000
00000000
00010000
00000000
01000000
00000000
,  // measure 34
00001000
00010000
00001000
00000000
00010000
00000000
00020100
00000000
,  // measure 35
00001000
00001000
00031000
00000000
00010000
00000000
00000100
00001000
,  // measure 36
00000100
00001000
00000010
00000000
00000100
00000001
00001000
00000010
,  // measure 37
00001000
00000010
00000100
00000000
00000010
00010000
00000100
00001000
,  // measure 38
00000100
00001000
00000010
00000000
00010000
00000000
00020100
00000000
,  // measure 39
00001000
00001000
00031000
00000000
01000000
00000000
00200000
00000000
,  // measure 40
00000000
00000000
00300000
02000000
,  // measure 41
00000000
00000000
03000000
00020000
,  // measure 42
00000000
00000000
00030000
20000000
,  // measure 43
00000000
01000000
31000000
10000000
,  // measure 44
01000000
00000000
00100000
00010000
00100000
01000000
10000000
00000000
,  // measure 45
00010000
00000000
00100000
00001000
00100000
00010000
01000000
00000000
,  // measure 46
00001000
00000000
00010000
00000100
00010000
00000010
00001000
00000000
,  // measure 47
00000100
00000000
00000010
00000001
00000010
00000100
00001000
00000000
,  // measure 48
00000001
00000101
00001001
00001001
,  // measure 49
00000100
00000010
00011000
00001000
,  // measure 50
01001000
01010000
01010000
10010000
,  // measure 51
10010000
01000000
00110000
11000000
,  // measure 52
11000000
10000000
00100000
01010000
,  // measure 53
01000000
01001000
00011000
00011000
,  // measure 54
00010100
00000000
00000100
00000100
00001000
00000020
00000000
00000030
,  // measure 55
00000100
00000000
00000001
00000001
00001000
00000200
00000000
00000300
,  // measure 56
00011000
00011000
00001000
00001000
01000000
00200000
00000000
00300000
,  // measure 57
10000000
00000000
00010000
00010000
10000000
02000000
00000000
03000000
,  // measure 58
00100000
01000000
00100000
01000000
10000000
00000000
00010000
00000000
10000000
00000000
00010000
00000000
01000000
00000000
00000000
00000000
,  // measure 59
00010000
01000000
00100000
10000000
00100000
10000000
01000000
00000000
,  // measure 60
10000000
01000000
00100000
00010000
01000000
00010000
00100000
00001000
,  // measure 61
00010000
00000100
00001000
00000010
00001000
00000001
00000100
00000000
,  // measure 62
00000001
00000000
00001000
00000010
00001000
00000010
00000100
00000000
,  // measure 63
00000010
00000100
00000001
00000010
00000001
00000010
00000100
00000000
,  // measure 64
00000010
00000100
00001000
00000010
00010000
00001000
01000000
00000000
,  // measure 65
00011000
00000000
01000000
00010000
00100000
01000000
10000000
00000000
,  // measure 66
10010000
01010000
01001000
00011000
,  // measure 67
00010100
00011000
00101000
00110000
,  // measure 68
01100000
11000000
01010000
01001000
,  // measure 69
00011000
00000000
00010200
00000000
00001000
00001000
00001300
00000000
,  // measure 70
00000010
00000000
00000100
00000001
00000010
00000100
00001000
00000010
,  // measure 71
00000100
00000001
00001000
00000010
00010000
00001000
01000000
00010000
,  // measure 72
00100000
01000000
10000000
01000000
00100000
00001000
00010000
00001000
,  // measure 73
00100000
00000000
10010000
00000000
10010000
10010000
20020000
00000000
,  // measure 74
00000000
00000000
00000000
30030000
;
