#TITLE:Time to Move;
#SUBTITLE:;
#ARTIST:Flip & Fill;
#TITLETRANSLIT:;
#SUBTITLETRANSLIT:;
#ARTISTTRANSLIT:;
#GENRE:;
#CREDIT:;
#MENUCOLOR:;
#METERTYPE:DDR;
#BANNER:Time to Move-bn.png;
#BACKGROUND:Time to Move-bg.png;
#LYRICSPATH:;
#CDTITLE:ddrencorecdtitle.png;
#MUSIC:Time to Move.mp3;
#OFFSET:-0.006;
#SAMPLESTART:57.817;
#SAMPLELENGTH:15.662;
#SELECTABLE:YES;
#LISTSORT:;
#BPMS:0.000=137.083,68.000=68.542,84.000=102.813,111.000=137.083;
#STOPS:;
#BGCHANGES:;
#ATTACKS:;

//---------------dance-single - ----------------
#NOTES:
     dance-single:
     :
     Hard:
     8:
     0.490,0.502,0.334,0.155,0.188:
0000
0000
0000
0000
,
0000
0000
0000
0000
,
0000
0000
0000
0000
,
0000
0000
0000
0000
,
0001
0000
0100
0000
0000
0000
0010
0000
1000
0100
0000
0100
0010
0000
0000
0000
,
0000
0001
0100
0000
0010
0000
1001
0000
,
0001
0000
0100
0000
0000
0000
0010
0000
1000
0001
0000
0001
0010
0000
0000
0000
,
0110
0000
0000
1001
0000
0000
0011
0000
0010
0000
0000
0010
0000
0000
0010
0000
,
0002
0000
0000
0000
0100
0100
0103
0000
,
0010
2000
0000
0001
0000
0100
0000
0010
,
3000
1000
0001
0000
0100
0010
1000
0001
,
0020
0100
0000
1000
0000
0001
0000
0100
,
0030
0010
0001
0000
1000
0001
0101
0000
,
0010
0200
0000
1000
0000
0001
0000
0010
,
0300
0100
1000
0000
0100
0001
1000
0010
,
1010
1000
0001
0010
0110
1000
0001
0100
,
0101
0110
1010
1001
,
0020
0000
0000
0000
1030
0001
0100
0010
,
2000
0000
0000
0000
3001
0010
0100
1000
,
0001
0100
0020
0000
0000
0000
0000
0000
1030
0000
0001
0000
0100
0000
0010
0000
,
2000
0000
0100
0000
0000
0000
0000
0000
3001
0000
1000
0000
0010
0100
0001
0000
,
1000
0000
0000
0100
0000
0000
0000
0000
0000
0000
0000
0000
0001
0000
0000
0100
0000
0000
0000
0000
0000
0000
0000
0000
1000
0000
0000
0010
0000
0000
0000
0000
,
0000
0000
0000
0000
0001
0000
0000
0010
0000
0000
0000
0000
0000
0000
0000
0000
0100
0000
0000
1000
0000
0000
0000
0000
0000
0000
0000
0000
0100
0000
0000
0001
,
0000
0000
0000
0000
0000
0000
0000
0000
0010
0000
0000
1000
0000
0000
0000
0000
0000
0000
0000
0000
0010
0000
0000
0001
0000
0000
0000
0000
0000
0000
0000
0000
,
1000
0000
0000
0100
0000
0000
0000
0000
0000
0010
0000
0000
0001
0000
0000
0100
0000
0000
0000
0000
0000
0000
0000
0000
0010
0000
0000
0100
0000
0000
0000
0000
,
0000
0001
0000
0000
1000
0000
0000
0100
0000
0000
0000
0000
0000
0000
0000
0000
1001
0000
0000
0000
0000
0000
0000
0000
0000
0000
0000
0000
0011
0000
0000
0000
,
0000
0000
0000
0000
1100
0000
0000
1001
0000
0000
0101
0000
0000
0110
0000
0000
,
0001
0000
0000
0000
0000
0000
1000
0000
0000
0000
0000
0000
0010
0000
0000
1000
0000
0000
1001
0000
0000
0100
0000
0000
0100
0000
0000
0000
0010
0000
0000
0000
,
1000
0001
0010
0100
1000
0001
0000
0100
,
0010
1000
0001
0010
0100
0100
1000
0001
,
0100
0010
1000
0001
0010
0100
0000
0010
,
0001
1000
0010
0100
0001
0010
1001
1000
,
0010
0100
0001
1000
0100
0010
0000
0001
,
1000
0010
0100
0001
1000
0010
1100
1000
,
0001
0010
0110
1000
0010
0100
0101
0000
,
1001
0000
0000
0000
1010
0000
0000
0000
0110
0000
0000
0000
0100
0000
0001
1000
,
0001
0000
1000
0000
0100
0000
1000
0000
0010
0000
0100
0000
0001
1000
0001
1000
,
0001
0000
0010
0000
0100
0000
1000
0000
0010
0000
0010
0000
1000
0000
0100
1000
,
0100
0000
0010
0000
0001
0000
0100
0000
0010
0000
1000
0000
0100
0010
0100
0010
,
0100
0000
1000
0000
0010
0000
0100
0000
0001
0000
1000
0000
0000
0000
0010
1000
,
0010
0000
0100
0000
0001
0000
0010
0000
0100
0000
1000
0000
0001
0000
0100
0001
,
0100
0001
0100
0001
0010
0100
1100
1000
,
0001
1000
1010
0100
0001
0010
1100
0000
,
0011
0000
1001
0000
1010
0000
0200
0001
,
0000
0000
1000
0000
0000
0000
0310
0000
0000
1000
0000
0000
0002
0000
0010
0000
,
0010
0000
0013
0100
0010
0001
2000
0010
,
0000
0000
0100
0000
0000
0000
3001
0000
0000
0100
0000
0000
0020
0000
1000
0000
,
1000
0000
1030
0001
0100
0001
0020
0100
,
0000
0000
1000
0000
0000
0000
0031
0000
0000
0100
0000
0000
0002
0000
1000
0000
,
1000
0000
0103
0010
1000
0001
2000
0100
,
0000
0000
0001
0000
0000
0000
3010
0000
0000
0100
0000
0000
0110
0000
0000
1001
,
0000
0000
1010
0000
0010
0000
0000
0010
0000
0000
0010
0000
1001
0000
0000
0000
,
0010
0100
0001
1000
0100
0010
0002
1000
,
1000
0000
0000
0000
0000
0000
0013
0000
0000
0001
0000
0000
1001
0000
0000
0000
,
0010
1000
0001
0010
0100
0010
0002
0100
,
0100
0000
0103
0010
1000
0001
1100
0000
,
0010
0001
1000
0010
0100
0001
2000
0100
,
0100
0000
0000
0000
0000
0000
3100
0000
0000
1000
0001
0000
0101
0000
0000
0000
,
0010
0000
0001
0000
1000
0000
0010
0000
0100
0000
0001
0000
1010
0000
0000
0110
,
0000
0000
1001
0000
0100
0000
0000
0100
0000
0000
0100
0000
0010
0000
0000
0000
,
0000
0000
1000
0001
0200
0000
0000
0000
,
0000
0000
0300
0000
;

//---------------dance-single - ----------------
#NOTES:
     dance-single:
     :
     Medium:
     6:
     0.313,0.351,0.049,0.090,0.069: // measure 1
0000
0000
0000
0000
,  // measure 2
0000
0000
0000
0000
,  // measure 3
0000
0000
0000
0000
,  // measure 4
0000
0000
0000
0000
,  // measure 5
1000
0001
0000
0000
0100
0001
0010
0000
,  // measure 6
0000
0100
1000
0000
0001
0000
1000
0000
,  // measure 7
0001
0010
0000
0000
0001
0100
0010
0000
,  // measure 8
1000
0000
0000
0010
0000
0000
1000
0000
0001
0000
0000
0010
0000
0000
0001
0000
,  // measure 9
0200
0000
0010
0310
,  // measure 10
0010
1000
0000
0001
0000
0100
0000
0001
,  // measure 11
0000
1000
0010
0000
0100
0000
0001
0000
,  // measure 12
0010
0100
0000
0010
0000
0001
0000
1000
,  // measure 13
0000
0010
1000
0000
0001
0000
1001
0000
,  // measure 14
1000
0100
0000
1000
0000
0010
0000
0100
,  // measure 15
0000
0001
0010
0000
0100
0000
1000
0000
,  // measure 16
0101
0000
1010
0000
,  // measure 17
0001
0010
1000
0010
,  // measure 18
0001
0000
0100
0000
0001
1000
0100
1000
,  // measure 19
0010
0000
0100
0000
0001
1000
0001
0010
,  // measure 20
0200
0000
1300
0000
0001
0100
0010
1000
,  // measure 21
0020
0000
0130
0000
0001
1000
0100
1000
,  // measure 22
0010
0000
0000
0100
0000
0000
0001
0000
,  // measure 23
0000
1000
0000
0000
0100
0000
0000
1000
,  // measure 24
0000
0000
0010
0000
0000
0100
0000
0000
,  // measure 25
1001
0000
0000
0010
0000
0000
0001
0000
,  // measure 26
0000
0010
0000
0000
0011
0000
0000
1001
,  // measure 27
0000
0000
0000
0000
0010
0000
0000
1000
0000
0000
0001
0000
0000
0100
0000
0000
,  // measure 28
0010
0000
0000
0000
0000
0000
1000
0000
0000
0000
0000
0000
0010
0000
0000
0100
0000
0000
0001
0000
0000
0000
0000
0000
1000
0000
0000
0000
0000
0000
0000
0000
,  // measure 29
0001
0000
0010
0001
1000
0000
0001
0000
,  // measure 30
0100
0000
0010
1000
0010
0100
0001
0000
,  // measure 31
0010
0000
0001
1000
0001
0000
1000
0000
,  // measure 32
0001
0000
1000
0010
0100
0001
0000
0000
,  // measure 33
1000
0000
0100
1000
0001
0000
0100
0000
,  // measure 34
0010
0000
1000
0100
1000
0001
0010
0000
,  // measure 35
0000
0001
0000
1000
,  // measure 36
0010
0001
0010
1000
,  // measure 37
0010
0000
1000
0001
1000
0100
0010
0000
,  // measure 38
0001
0000
1000
0010
1000
0001
0100
0000
,  // measure 39
0010
0000
1000
0001
0010
0100
1000
0000
,  // measure 40
0001
0000
1000
0010
1000
0100
0000
0000
,  // measure 41
0010
0000
0001
1000
0001
0100
0010
0000
,  // measure 42
1000
0000
0001
0010
0001
1000
0010
0000
,  // measure 43
0000
0100
0000
0001
,  // measure 44
1000
0100
1000
0020
,  // measure 45
0000
0000
0000
0000
0000
0000
0130
0000
0000
0001
0000
0000
0200
0000
0000
0000
,  // measure 46
0000
0000
0000
0000
0000
0000
0301
0000
0000
1000
0000
0000
0002
0000
0000
0000
,  // measure 47
0000
0000
0000
0000
0000
0000
1003
0000
0000
0100
0000
0000
2000
0000
0010
0000
,  // measure 48
0000
0010
0000
0010
3000
0100
0002
0000
,  // measure 49
0000
0000
0000
0000
0000
0000
1003
0000
0000
0100
0000
0000
0020
0000
0000
0000
,  // measure 50
0000
0000
0000
0000
0000
0000
0130
0000
0000
1000
0000
0000
0002
0000
0000
0000
,  // measure 51
0000
0000
0000
0000
0000
0000
0013
0000
0000
0001
0000
0000
0100
0000
0000
0010
,  // measure 52
0000
0000
1000
0000
0001
0000
0000
1000
0000
0000
0001
0000
0010
0000
0000
0000
,  // measure 53
0001
0000
1000
0100
1000
0000
0000
0010
,  // measure 54
1000
0001
0100
0010
,  // measure 55
0100
0000
0001
0010
0001
0000
0000
1000
,  // measure 56
0010
1000
0001
1000
,  // measure 57
0001
0000
0010
0001
0010
0000
0000
0100
,  // measure 58
1000
0001
0100
0010
,  // measure 59
1000
0000
0000
0000
0001
0000
0100
0000
0001
0000
0000
0000
1000
0000
0000
0001
,  // measure 60
0000
0000
0100
0000
0010
0000
0000
1000
0000
0000
0001
0000
0000
0000
0000
0000
,  // measure 61
0000
0000
0001
1000
0200
0000
0000
0000
,  // measure 62
0000
0000
0300
0000
;

//---------------dance-single - ----------------
#NOTES:
     dance-single:
     :
     Beginner:
     1:
     0.136,0.172,0.041,0.000,0.000:
0000
0000
0000
0000
,
0000
0000
0000
0000
,
0000
0000
0000
0000
,
0000
0000
0000
0000
,
0001
0000
1000
0000
,
0001
0000
0000
0000
,
0100
0000
0010
0000
,
0100
0000
0100
0000
,
1001
0000
0000
0000
,
0010
0000
0010
0000
,
0010
0000
1000
0000
,
0001
0000
0001
0000
,
0001
0000
0010
0000
,
0100
0000
0100
0000
,
0100
0000
1000
0000
,
0001
0000
1000
0000
,
0010
0000
0100
0000
,
0001
0000
1000
1000
,
1000
0000
0010
0010
,
0010
0000
0100
0100
,
0100
0000
0001
0001
,
0001
0000
0000
0100
,
0000
0000
0010
0000
,
0000
1000
0000
0000
,
1001
0000
0000
0010
,
0000
0000
0110
0000
,
0000
1001
0000
0000
,
0100
0000
0000
0010
,
0000
1000
0000
0001
,
0000
0010
0000
0001
,
0000
1000
0000
0100
,
0000
1000
0000
0010
,
0000
0100
0000
0001
,
0000
1000
0000
0100
,
0000
0100
0000
1000
,
1000
1000
1000
1000
,
0000
0001
0000
0100
,
0000
0010
0000
1000
,
0000
0001
0000
0010
,
0000
0001
0000
0100
,
0000
0010
0000
1000
,
0000
0100
0000
1000
,
0000
1000
0000
0001
,
0001
0001
0001
0001
,
0000
0000
0000
0100
,
0000
0010
0000
1000
,
0000
0000
0000
0001
,
0000
1000
0000
0010
,
0000
0000
0000
0100
,
0000
1000
0000
0001
,
0000
0000
0000
0100
,
0000
0010
0000
0100
,
0100
0000
0001
0000
,
1000
0000
0100
0000
,
1000
0000
0001
0000
,
0100
0000
0010
0000
,
1000
0000
0001
0000
,
0010
0000
0001
0000
,
1000
0000
0010
0010
,
0000
0100
0000
0001
,
0000
1001
0000
0000
;

//---------------dance-single - ----------------
#NOTES:
     dance-single:
     :
     Easy:
     4:
     0.209,0.251,0.057,0.139,0.000:
0000
0000
0000
0000
,
0000
0000
0000
0000
,
0000
0000
0000
0000
,
0000
0000
0000
0000
,
0001
0000
1000
0000
,
0010
0000
0000
0000
,
0100
0000
0001
0000
,
1000
0000
1000
0000
,
2000
0000
0010
0010
,
3010
0000
1000
0000
,
0001
0000
0100
0010
,
1000
0000
0001
0000
,
0100
0000
0010
0100
,
0001
0000
0010
0000
,
0001
0000
0100
0010
,
1000
0000
1000
0000
,
1000
0001
0010
0100
,
2000
0000
3001
0100
,
0002
0000
0013
0100
,
0020
0000
0130
1000
,
0200
0000
0310
0001
,
1000
0000
0000
0001
0000
0000
1000
0000
,
0000
0001
0000
0000
0100
0000
0000
0010
,
0000
0000
0100
0000
0000
0010
0000
0000
,
1001
0000
0000
0100
0000
0000
0010
0000
,
0000
0001
0000
0000
1100
0000
0000
0001
,
0000
0000
0100
0000
0000
0010
0000
0000
,
2002
0000
3003
0010
,
1000
0001
0001
0010
,
0100
1000
0001
1000
,
0010
0100
0100
0010
,
1000
0001
0010
0001
,
0100
0010
0010
1000
,
0100
0010
0001
1000
,
0000
0010
0000
0100
,
0001
1000
0100
1000
,
0010
0100
0100
0010
,
1000
0001
1001
1000
,
0010
0100
0100
0010
,
1000
0001
1100
1000
,
0010
1000
1000
0001
,
0010
0100
1001
0100
,
0000
0010
0000
1000
,
0001
0010
0100
2000
,
0000
0000
0000
3010
,
0000
0100
0000
0002
,
0000
0000
0000
0013
,
0000
0001
1000
0020
,
0000
0000
0000
1030
,
0000
0001
0000
0200
,
0000
0000
0000
0310
,
1000
0001
1000
0200
,
0000
0000
0000
1300
,
0001
1000
0010
0200
,
0000
0000
0000
0310
,
0000
1000
0001
0020
,
0000
0000
0000
0031
,
0100
0010
1000
0200
,
0000
0000
0000
1300
,
0000
0001
0000
0100
,
0000
0010
2002
0000
,
0000
0000
3003
0000
;

//---------------dance-double - ----------------
#NOTES:
     dance-double:
     :
     Easy:
     3:
     0.167,0.226,0.008,0.130,0.000:
00000000
00000000
00000000
00000000
,
00000000
00000000
00000000
00000000
,
00000000
00000000
00000000
00000000
,
00000000
00000000
00000000
00000000
,
00001000
00000000
00010000
00000000
,
00000010
00000000
00000000
00000000
,
00000100
00000000
00000001
00000000
,
00000010
00000000
00000100
00001000
,
00000002
00000000
00000100
00000103
,
00000001
00000000
00001000
00000000
,
00000100
00000000
00010000
00001000
,
00100000
00000000
00001000
00000000
,
00010000
00000000
00001000
01000000
,
00100000
00000000
10000000
00000000
,
00010000
00000000
00100000
01000000
,
10000000
00000000
00010000
00000000
,
01000000
00100000
10000000
00010000
,
00200000
00000000
01300000
10000000
,
02000000
00000000
13000000
00010000
,
00200000
00000000
00310000
01000000
,
00002000
00000000
00013000
00000100
,
00001000
00000000
00000000
00000010
,
00000000
00000000
00000100
00000000
,
00000000
00000001
00000000
00000000
,
00001000
00000000
00000000
00000010
,
00000000
00000000
00000000
00000000
00010000
00000000
00000000
00001000
,
00000000
00000000
00100000
00000000
00000000
00010000
00000000
00000000
,
02000000
00000000
03000000
00100000
,
00000000
10000000
00000000
00010000
,
00000000
00100000
00010000
10000000
,
00000000
00100000
00000000
01000000
,
00000000
00010000
00100000
00001000
,
00000000
00010000
00000000
00001000
,
00000000
01000000
00010000
00100000
,
00000000
00100000
00000000
01000000
,
10000000
00010000
01000000
00100000
,
00000000
10000000
00000000
00010000
,
00000000
00100000
00001000
00010000
,
00000000
00000100
00000000
00001000
,
00000000
00000010
00000100
00000001
,
00000000
00001000
00000000
00000100
,
00000000
00001000
00000010
00000100
,
00000000
00000100
00000000
00000100
,
00000010
00001000
00000100
00020000
,
00000000
00000000
00000000
00031000
,
00000000
01000000
00000000
00020000
,
00000000
00000000
00000000
00130000
,
00000000
01000000
00000000
20000000
,
00000000
00000000
00000000
30010000
,
00000000
01000000
00000000
00200000
,
00000000
00000000
00000000
10300000
,
00000000
00010000
01000000
00002000
,
00000000
00000000
00000000
00013000
,
00000000
00000010
00000000
00002000
,
00000000
00000000
00000000
00003010
,
00000000
00000100
00000000
00000002
,
00000000
00000000
00000000
00000013
,
00000000
00000100
00000000
00002000
,
00000000
00000000
00000000
00003010
,
00000000
00000100
00000001
00001000
,
00000000
00000010
00000202
00000000
,
00000000
00000000
00000303
00000000
;

//---------------dance-double - ----------------
#NOTES:
     dance-double:
     :
     Hard:
     8:
     0.437,0.451,0.212,0.049,0.159:
00000000
00000000
00000000
00000000
,
00000000
00000000
00000000
00000000
,
00000000
00000000
00000000
00000000
,
00000000
00000000
00000000
00000000
,
01000000
00000000
00100000
00000000
00000000
00000000
10000000
00000000
00010000
00100000
00000000
00100000
00001000
00000000
00000000
00000000
,
00000000
01000000
00010000
00000000
00100000
00000000
10010000
00000000
,
10000000
00000000
00100000
00000000
00000000
00000000
01000000
00000000
00100000
10000000
00000000
10000000
00010000
00000000
00000000
00000000
,
00100000
00000000
00000000
00001000
00000000
00000000
00010000
00000000
00001000
00000000
00000000
00000100
00000000
00000000
00000010
00000000
,
00002000
00000000
00000001
00000000
00003001
00000010
00001000
00000000
,
00000010
00000100
00000000
00001000
00000000
00000010
00000000
00010000
,
00000000
00000000
00001000
00000000
01000000
00000000
00000000
00000000
00010000
10000000
00010000
00000000
10000000
00000000
00100000
00000000
,
01000000
00010000
00000000
00100000
00000000
01000000
00000000
10000000
,
00000000
00000000
00010000
00000000
01000000
00000000
00000000
00000000
00001000
00010000
00001000
00000000
00011000
00000000
00000000
00000000
,
00010000
00000100
00000000
00001000
00000000
00000010
00000000
00000100
,
00000000
00000000
00000001
00000000
00000010
00000000
00000000
00000000
00000100
00001000
00000100
00000000
00000010
00000000
00000100
00000000
,
00001010
00010000
00101000
00010000
,
00100000
00010000
01000000
00001000
00010000
01000000
00100000
00010000
,
10000000
00000000
00100000
00000000
01000000
00100000
10000000
00010000
,
01000000
00000000
00001000
00000000
00010000
00000100
00001000
00000010
,
00000100
00000010
00001000
00000000
00000001
00000000
00000000
00000000
00000010
00000000
00000100
00000000
00001000
00000000
00000010
00000000
,
00010000
00001000
00100000
00000000
00001000
00000000
00000000
00000000
00010000
00000000
00000010
00000000
00000100
00000001
00001000
00000000
,
00000100
00000000
00000000
00001000
00000000
00000000
00000000
00000000
00000000
00000000
00000000
00000000
00000010
00000000
00000000
00000100
00000000
00000000
00000000
00000000
00000000
00000000
00000000
00000000
00000001
00000000
00000000
00001000
00000000
00000000
00000000
00000000
,
00000000
00000000
00000000
00000000
00000100
00000000
00000000
00010000
00000000
00000000
00000000
00000000
00000000
00000000
00000000
00000000
00001000
00000000
00000000
00010000
00000000
00000000
00000000
00000000
00000000
00000000
00000000
00000000
01000000
00000000
00000000
00100000
,
00000000
00000000
00000000
00000000
00000000
00000000
00000000
00000000
00010000
00000000
00000000
01000000
00000000
00000000
00000000
00000000
00000000
00000000
00000000
00000000
00100000
00000000
00000000
10000000
00000000
00000000
00000000
00000000
00000000
00000000
00000000
00000000
,
00010000
00000000
00000000
01000000
00000000
00000000
00000000
00000000
00000000
00000000
00000000
00000000
00100000
00000000
00000000
01000000
00000000
00000000
00000000
00000000
00000000
00000000
00000000
00000000
00010000
00000000
00000000
00100000
00000000
00000000
00000000
00000000
,
00000000
00000000
00000000
00000000
01000000
00000000
00000000
00010000
00000000
00000000
00000000
00000000
00000000
00000000
00000000
00000000
11000000
00000000
00000000
00000000
00000000
00000000
00000000
00000000
00000000
00000000
00000000
00000000
10010000
00000000
00000000
00000000
,
00000000
00000000
00000000
00000000
01010000
00000000
00000000
01001000
00000000
00000000
00011000
00000000
00000000
00010100
00000000
00000000
,
00000110
00000000
00000000
00000000
00000000
00000000
00000001
00000000
00000000
00000000
00000000
00000000
00000100
00000000
00000000
00000010
00000000
00000000
00001000
00000000
00000000
00001000
00000000
00000000
00001000
00000000
00000000
00000000
00000001
00000000
00000000
00000000
,
00000010
00000100
00001000
00000010
00000100
00000001
00001000
00000100
,
00010000
00001000
01000000
00100000
00010000
00100000
10000000
01000000
,
00100000
01000000
10000000
00010000
01000000
00100000
00010000
00001000
,
00000100
00000010
00001000
00000100
00000010
00000001
00000100
00000010
,
00001000
00000001
00000010
00000100
00001000
00000010
00000100
00000001
,
00001000
00000100
00010000
00001000
00100000
00010000
01001000
00000000
,
00010000
00011000
00000100
00000110
,
00001100
00000000
00010100
00000000
00001010
00000000
00001000
00000100
,
00000010
00000001
00001000
00000010
00000100
00000100
00000010
00001000
,
00000100
00010000
00001000
01000000
00100000
00100000
10000000
00010000
,
00100000
01000000
10000000
00010000
01000000
01000000
00100000
10000000
,
00010000
00100000
00001000
00010000
00000100
00000100
00000010
00000100
,
00001000
00000010
00000100
00000001
00001000
00001000
00000010
00000100
,
00000001
00001000
00000100
00010000
00000010
00000010
00001100
00000000
,
00010000
00101000
00010000
01010000
,
10010000
00000000
01100000
00000000
10100000
00000000
01000000
00200000
,
00000000
00000000
00000000
00000000
00000000
00000000
10300000
00000000
00000000
00010000
00000000
00000000
00100000
00000000
00010000
00000000
,
01000000
00000000
00001000
00000000
00011000
00000000
00010000
00000200
,
00000000
00000000
00000000
00000000
00000000
00000000
00000310
00000000
00000000
00000001
00000000
00000000
00001000
00000000
00000010
00000000
,
00000100
00000000
00000010
00010000
00001000
00000000
00010000
00000020
,
00000000
00000000
00000000
00000000
00000000
00000000
00001030
00000000
00000000
00000100
00000000
00000000
00010000
00000000
00001000
00000000
,
00100000
00000000
00010000
00000000
11000000
00000000
00010000
00200000
,
00000000
00000000
00000000
00000000
00000000
00000000
01300000
00000000
00000000
10000000
00000000
00000000
00010000
00000000
00000000
01000000
,
00000000
00000000
00001000
00000000
00010000
00000000
00000000
00000100
00000000
00000000
00001000
00000000
00000000
00000000
00000000
00000000
,
00000010
00001000
00000010
00000100
00000001
00001000
00000000
00000010
,
00000100
00000010
00001001
00000100
,
00000010
00010000
00001000
00100000
00010000
01000000
00000000
00100000
,
10000000
00000000
00010000
00100000
01000000
00000000
00100000
00000000
,
00010000
00100000
10000000
00100000
01000000
10000000
00000000
00010000
,
01000000
00000000
00000000
00000000
00001000
00000000
00010000
00000000
00000000
00001000
00010000
00000000
00000100
00000000
00000000
00000000
,
00001000
00000000
00000010
00000000
00001000
00000000
00000001
00000000
00000100
00000000
00000010
00000000
00001000
00000000
00000000
00000100
,
00000000
00000000
00010000
00000000
00001000
00000000
00000000
00100000
00000000
00000000
01000000
00000000
00010000
00000000
00000000
00000000
,
00000000
00000000
01000000
10000000
00200000
00000000
00000000
00000000
,
00000000
00000000
00300000
00000000
;

//---------------dance-double - ----------------
#NOTES:
     dance-double:
     :
     Medium:
     6:
     0.282,0.326,0.024,0.057,0.041:
00000000
00000000
00000000
00000000
,
00000000
00000000
00000000
00000000
,
00000000
00000000
00000000
00000000
,
00000000
00000000
00000000
00000000
,
00010000
00000100
00000000
00000000
00001000
00000000
00000010
00000000
,
00000000
00000100
00000001
00000000
00000100
00000000
00001001
00000000
,
00000010
00000100
00000000
00000000
00000010
00000000
00001000
00000000
,
00000100
00000000
00000000
00010000
00000000
00000000
00001000
00000000
00010000
00000000
00000000
00000100
00000000
00000000
00010000
00000000
,
00002000
00000000
00100000
00103000
,
00010000
01000000
00000000
00100000
00000000
10000000
00000000
00010000
,
00000000
01000000
00100000
00000000
10000000
00000000
00010000
00000000
,
00100000
00001000
00000000
00010000
00000000
00000100
00000000
00001000
,
00000000
00000010
00001000
00000000
00000100
00000000
00010000
00000000
,
00001000
00100000
00000000
00010000
00000000
01000000
00000000
00100000
,
00000000
10000000
00010000
00000000
10000000
00000000
00100000
00000000
,
01000000
00000000
00010000
00000000
,
00100000
00001000
00010000
01000000
,
10000000
00000000
00010000
00000000
01000000
00100000
01000000
00010000
,
10000000
00000000
00010000
00000000
00100000
00001000
00100000
00010000
,
01000000
00000000
00001000
00000000
00010000
00000100
00001000
00000010
,
00000100
00000000
00000010
00000000
00001000
00000001
00000100
00000010
,
00001000
00000000
00000000
00000100
00000000
00000000
00010000
00000000
,
00000000
00001000
00000000
00000000
00100000
00000000
00000000
00010000
,
00000000
00000000
01000000
00000000
00000000
00100000
00000000
00000000
,
10000000
00000000
00000000
00010000
00000000
00000000
00100000
00000000
,
00000000
00001000
00000000
00000000
00011000
00000000
00000000
00010100
,
00000000
00000000
00000000
00000000
00000100
00000000
00000000
00001000
00000000
00000000
00000010
00000000
00000000
00000100
00000000
00000000
,
00000002
00000000
00000000
00000000
00000000
00000000
00000000
00000000
00000000
00000000
00000000
00000000
00001003
00000000
00000000
00000100
00000000
00000000
00001000
00000000
00000000
00000000
00000000
00000000
00000010
00000000
00000000
00000000
00000000
00000000
00000000
00000000
,
00000100
00000000
00000001
00001000
00000010
00000000
00000100
00000000
,
00000010
00000000
00001000
00000000
00000100
00010000
00000000
00000000
,
00001000
00000000
00100000
00010000
00100000
00000000
00010000
00000000
,
01000000
00000000
00100000
00000000
10000000
00010000
00000000
00000000
,
00100000
00000000
01000000
10000000
01000000
00000000
00100000
00000000
,
00010000
00000000
01000000
00000000
00001000
00010000
00001000
00000000
,
00000000
01000000
00000000
00100000
,
10000000
00010000
01000000
00001000
,
00010000
00000000
00000100
00000010
00000001
00000000
00000100
00000000
,
00000010
00000000
00001000
00000001
00000100
00000010
00000000
00000000
,
00001000
00000000
00000001
00000100
00000010
00000000
00001000
00000000
,
00000100
00000000
00010000
00000000
00001000
00100000
00000000
00000000
,
00010000
00000000
01000000
00100000
10000000
00000000
00010000
00000000
,
00100000
00000000
01000000
10000000
01000000
00100000
00010000
00000000
,
00000000
01000000
00000000
00001000
,
00010000
00000000
00000100
00000000
00000010
00000000
00000001
00000200
,
00000000
00000000
00000000
00000310
00000000
00000000
00001000
00000000
,
00000001
00000000
00001000
00000000
00000010
00000000
00010000
00002000
,
00000000
00000000
00000000
00013000
00000000
00000000
01000000
00000000
,
00100000
00000000
00010000
00000000
01000000
00000000
00100000
20000000
,
00000000
00000000
00000000
30010000
00000000
00000000
01000000
00000000
,
00001000
00000000
00100000
00000000
00010000
00000000
01000000
00002000
,
00000000
00000000
00000000
00000000
00000000
00000000
00013000
00000000
00000000
00000000
00000000
00000000
00000100
00000000
00000000
00001000
,
00000000
00000000
00000010
00000000
00001000
00000000
00000000
00000100
00000000
00000000
00010000
00000000
00000000
00000000
00000000
00000000
,
00001000
00000000
00010000
00001000
00010000
00000000
00000000
00000000
,
01000000
00000000
10000000
00000000
,
00010000
00000000
01000000
00100000
01000000
00000000
00000000
00000000
,
00010000
00000000
00100000
00001000
,
00010000
00000000
00000100
00001000
00000100
00000000
00000000
00000000
,
00000010
00000000
00000100
00000000
,
00001000
00000000
00000000
00000000
00000001
00000000
00000100
00000000
00000001
00000000
00000000
00000000
00001000
00000000
00000000
00000100
,
00000000
00000000
00010000
00000000
00001000
00000000
00000000
00100000
00000000
00000000
00010000
00000000
00000000
00000000
00000000
00000000
,
00000000
00000000
01000000
00100000
20000000
00000000
00000000
00000000
,
00000000
00000000
30000000
00000000
;
