#TITLE:THIS IS MY LIFE;
#SUBTITLE:;
#ARTIST:EUROBAND;
#TITLETRANSLIT:;
#SUBTITLETRANSLIT:;
#ARTISTTRANSLIT:;
#GENRE:;
#CREDIT:;
#MENUCOLOR:;
#METERTYPE:DDR;
#BANNER:THIS IS MY LIFE.png;
#BACKGROUND:THIS IS MY LIFE-bg.png;
#LYRICSPATH:;
#CDTITLE:ddrencorecdtitle.png;
#MUSIC:THIS IS MY LIFE.mp3;
#OFFSET:-1.743;
#SAMPLESTART:35.680;
#SAMPLELENGTH:13.910;
#SELECTABLE:YES;
#LISTSORT:;
#BPMS:0.000=138.000;
#STOPS:;
#BGCHANGES:-1.000=THIS IS MY LIFE.avi=1.000=1=1=0,
74.750=THIS IS MY LIFE.avi=0.000=0=0=1,
76.250=THIS IS MY LIFE.avi=1.000=0=0=1,
99999=-nosongbg-=1.000=0=0=0 // don't automatically add -songbackground-
;
#ATTACKS:;

//---------------dance-single - ----------------
#NOTES:
     dance-single:
     :
     Hard:
     7:
     0.444,0.468,0.291,0.235,0.134: // measure 1
0000
0000
0000
0000
,  // measure 2
0000
0000
0000
0000
,  // measure 3
0000
0000
0000
0000
,  // measure 4
0000
0000
0000
0000
,  // measure 5
1001
0000
0000
1000
0100
0000
0100
0200
,  // measure 6
0000
0000
1000
1000
0000
0000
0010
0020
,  // measure 7
0000
0000
0000
0000
,  // measure 8
0000
0000
0330
0000
,  // measure 9
1002
0000
0000
1000
0000
0000
2000
0000
0000
0000
0000
0000
0000
0000
0000
0000
,  // measure 10
0000
0000
3003
0000
,  // measure 11
0210
0000
0000
0010
0000
0000
0020
0000
0000
0000
0000
0000
0330
0000
0000
0000
,  // measure 12
0010
1000
0001
0100
,  // measure 13
1001
0000
0000
0001
0000
0000
1000
0000
0100
0000
0000
0000
0010
0000
0000
0000
,  // measure 14
0001
0100
0010
1000
,  // measure 15
0001
0000
0000
0001
0000
0000
0001
0000
1000
0000
0000
0000
0100
0000
0000
0000
,  // measure 16
0001
0010
1000
0001
,  // measure 17
0101
0000
0000
0001
0000
0000
1000
0000
0100
0000
0000
0000
0010
0000
0000
0000
,  // measure 18
1100
0000
0000
1000
0000
0000
0001
0000
0100
0000
0000
0000
0010
0000
0000
0000
,  // measure 19
1010
0000
0000
1000
0000
0000
0001
0000
0101
0000
0000
0100
0000
0000
0001
0000
,  // measure 20
2002
0000
3003
0000
,  // measure 21
1000
0100
1000
0000
0001
0010
0001
0000
,  // measure 22
1000
0000
0010
0000
0001
0010
1000
0001
,  // measure 23
0000
1000
0100
1000
0000
0001
0100
0001
,  // measure 24
1000
0000
0000
0000
0100
0000
0000
0000
0010
0000
0000
0001
0000
0000
0010
0000
,  // measure 25
0002
0010
1000
0100
,  // measure 26
0023
0000
0000
0000
1000
0000
0000
0000
0130
0000
0010
0000
0000
0001
0000
0000
,  // measure 27
1000
0000
0101
0000
0001
1000
0100
0010
,  // measure 28
0000
0001
0100
0010
0100
0000
1010
0000
,  // measure 29
1000
0000
0000
0100
0000
0000
0010
0000
0002
0000
0000
0000
1000
0000
1000
0000
,  // measure 30
1003
0000
0000
0010
0000
0000
0100
0000
0002
0000
0000
0000
1000
0000
0000
0000
,  // measure 31
0013
0000
0000
0001
0000
0000
1000
0000
0200
0000
0000
0000
0001
0000
0000
0000
,  // measure 32
0310
0000
0000
0010
0000
0000
0001
0000
1000
0000
0000
0000
0110
0000
0000
0000
,  // measure 33
0001
0000
0100
0000
0010
0000
1000
0000
0100
0000
0010
0000
0000
0001
0000
0000
,  // measure 34
0010
0000
0000
0000
1001
0000
0000
0000
1000
0000
0000
0001
0000
0000
0100
0000
,  // measure 35
0110
0000
0000
0000
0001
0000
1000
0000
0100
0000
1000
0000
0010
0000
0100
0010
,  // measure 36
0100
0000
0020
2000
0000
0000
3030
0000
,  // measure 37
0210
0000
0000
0000
0000
0000
0000
0000
1000
0000
0000
1000
0000
0000
1000
0000
,  // measure 38
2300
0000
3200
0000
,  // measure 39
0302
0000
0000
0000
0000
0000
1000
0000
1000
0000
0000
0010
0000
0000
0100
0000
,  // measure 40
0203
0001
1000
0301
,  // measure 41
0001
1000
0200
0000
0310
0001
0200
0000
,  // measure 42
0310
1000
0002
0000
1003
0100
0020
0000
,  // measure 43
0031
0000
0000
1000
0000
0000
0001
0000
0110
0000
0000
0000
1001
0000
0000
0000
,  // measure 44
0220
0000
0000
0330
,  // measure 45
0010
0001
1000
0010
0100
0000
0001
1000
,  // measure 46
0000
1000
0100
0010
0100
0000
0010
0001
,  // measure 47
0000
1000
0010
0100
0001
1000
0100
1000
,  // measure 48
0000
0000
0001
0000
0010
0000
0100
0000
0010
0000
0000
0001
0000
0000
1000
0000
,  // measure 49
0010
0000
1001
0000
0100
0010
0100
0001
,  // measure 50
0000
1000
0100
0001
0100
0000
0010
0001
,  // measure 51
0000
1000
0010
0100
0001
1000
0100
0010
,  // measure 52
0000
0000
0100
0000
0010
0000
0001
0000
1001
0000
0000
0101
0000
0000
0010
0000
,  // measure 53
0110
0000
1010
0000
0001
0100
0001
1000
,  // measure 54
0000
0010
0001
0010
1000
1000
0001
1000
,  // measure 55
0000
0010
0100
0001
0000
0010
0100
1000
,  // measure 56
0000
0000
0010
0000
1000
0000
0001
0000
1000
0000
0000
0010
0000
0000
1000
0000
,  // measure 57
2100
0000
0000
0000
0001
0000
0000
0000
0010
0000
0000
0001
0000
0000
0100
0000
,  // measure 58
3200
0000
0000
0000
0001
0000
0000
0000
1000
0000
1000
0000
0000
0010
0000
0000
,  // measure 59
0310
0000
1001
0000
1000
0010
0100
0101
,  // measure 60
0000
0000
0001
0000
1000
0000
1100
0000
0000
0000
0000
0010
0001
0000
0001
0000
,  // measure 61
1000
0000
0000
0001
1000
0000
0100
0000
0010
0000
0000
0000
1001
0000
0000
0000
,  // measure 62
0010
0000
0000
0100
0010
0000
0100
0000
0001
0000
0000
0000
1001
0000
0000
0000
,  // measure 63
0001
0000
0000
0010
0001
0000
1000
0000
0100
0000
0000
0000
0011
0000
0000
0000
,  // measure 64
0001
0000
0000
0100
0000
0000
1000
0000
1100
0000
0000
0000
0101
0000
0000
0000
,  // measure 65
1001
0000
1000
0100
0010
0000
0100
0010
,  // measure 66
0000
0000
0100
0000
1000
0000
0001
0000
0100
0000
0000
0001
0000
0000
1000
0000
,  // measure 67
1100
0000
0000
0000
0011
0000
0000
0000
0010
0000
0001
0000
0100
0000
0010
0100
,  // measure 68
0020
0000
0000
0000
0030
0000
0000
0000
1000
0000
0000
0001
0000
0000
0100
0000
,  // measure 69
0110
0000
0000
0000
;

//---------------dance-single - ----------------
#NOTES:
     dance-single:
     :
     Medium:
     5:
     0.342,0.440,0.162,0.202,0.040:
0000
0000
0000
0000
,
0000
0000
0000
0000
,
0000
0000
0000
0000
,
0000
0000
0000
0000
,
2001
0000
0000
0000
,
3020
0000
0230
0000
,
0302
0000
0000
0000
,
0003
0000
0000
0000
,
2002
0000
0000
0000
,
0000
0000
3003
0000
,
0220
0000
0000
0330
,
0010
0100
0010
1000
,
1001
0001
0100
1000
,
0100
0001
0010
0100
,
0010
0001
1000
0100
,
0010
0100
1000
0001
,
0100
0010
1010
0000
,
1000
0001
0010
0001
,
0100
0000
0000
0001
0000
0000
0100
0000
0100
0000
0000
0010
0000
0000
1000
0000
,
2000
0000
3000
0000
,
1001
0000
0001
0000
0100
0000
0010
0100
,
0000
0100
0001
0000
1000
0100
1000
0000
,
0001
0010
1000
0100
,
0001
0000
0010
0000
1000
0000
0001
1000
,
0001
0000
0000
0000
1000
0000
0000
0000
0010
0000
0000
0100
0000
0000
0010
0000
,
0100
0000
0001
0000
1000
0100
0000
0100
,
1000
0000
0001
0000
0100
0010
0100
0010
,
0000
1000
0001
0000
1000
0000
0001
0000
,
0011
0001
2002
3003
,
1010
1000
2200
3300
,
0110
0010
0022
0033
,
0001
0000
1000
0010
1000
0000
0001
0000
,
1001
0000
1000
0010
0100
0000
0001
0100
,
0001
0000
0000
0000
1000
0000
0000
0000
0100
0000
0000
0010
0000
0000
0100
0000
,
0010
0000
0001
0000
1000
0001
1000
2000
,
0000
0000
0001
0002
0000
0000
3003
0000
,
2020
0000
0000
0030
,
0002
0000
0000
3000
,
0200
0000
0000
0003
,
0020
0000
0000
0330
,
0010
0000
1000
0000
0100
0000
0010
0100
,
1000
0000
0100
0000
0010
0000
0001
0010
,
0001
0000
0000
0001
0000
0000
1000
0000
1000
0000
0000
0000
0001
0000
0000
0000
,
2002
0000
3003
0000
,
1000
0010
0000
0100
0001
0000
1000
0100
,
0010
0001
0000
1000
0100
0000
0010
0001
,
0100
0010
0000
0100
0010
0000
0100
0001
,
1000
0000
0001
0000
1000
0100
1000
0000
,
0001
0000
1000
0000
0010
0000
0100
0001
,
0000
1000
0000
0010
1000
0000
0100
0010
,
0000
0100
0000
0010
0001
0000
1000
0001
,
0000
0000
0100
0000
0000
0000
0010
0000
1000
0000
0000
0001
0000
0000
1000
0000
,
0001
0000
0101
0000
0100
0010
1000
0001
,
0000
1000
0100
0011
,
0001
0000
0100
0000
0010
0000
1000
0001
,
0000
0000
0001
0000
1000
0000
0000
0000
0001
0000
0000
1000
0000
0000
0001
0000
,
0100
0000
0010
0000
0100
0000
0010
1000
,
0100
0000
0010
0000
0100
0000
0010
0001
,
1000
0000
0001
0000
1000
0010
0100
0001
,
0000
0100
0001
0000
1000
0010
1000
0000
,
0001
0010
0100
1100
,
1000
0010
0100
0101
,
0001
1000
0100
0110
,
0010
0000
0000
0001
0000
0000
1000
0000
0001
0000
0000
0000
0100
0000
0000
0000
,
1000
0010
0001
0100
,
0010
0000
0000
0000
1000
0000
0000
0000
0001
0000
0000
1000
0000
0000
0001
0000
,
1000
0000
0100
0000
0010
0001
0010
0002
,
0000
0000
0000
0000
0000
0000
0000
0000
1000
0000
0000
1000
0000
0000
1000
0000
,
1003
0000
0000
0000
;

//---------------dance-single - ----------------
#NOTES:
     dance-single:
     :
     Easy:
     4:
     0.267,0.358,0.113,0.364,0.000:
0000
0000
0000
0000
,
0000
0000
0000
0000
,
0000
0000
0000
0000
,
0000
0000
0000
0000
,
2002
0000
0000
0000
,
3000
0000
0000
0000
,
0200
0000
0000
0000
,
0003
0000
0000
0000
,
0020
0000
0000
0000
,
0300
0000
0000
0000
,
2000
0000
0000
0000
,
3030
1000
0001
0100
,
0120
0000
0000
0000
,
1030
0100
0010
0001
,
0200
0000
0000
0000
,
0310
1000
0100
1000
,
0001
1000
0100
0000
,
0010
0001
0100
0010
,
0110
0000
1001
0000
,
0220
0000
0330
0000
,
1001
0000
1000
0100
,
0010
0100
0010
0001
,
0100
0000
0010
0000
,
0100
0000
0001
1000
,
0100
0010
0001
1000
,
0001
0100
0010
0100
,
0002
0000
0010
0000
,
1000
1000
2000
3003
,
1000
0010
0200
0300
,
0010
0100
0002
0003
,
1000
0100
0020
0030
,
0100
0010
0001
0100
,
0010
0001
0100
1000
,
0100
0001
0010
0100
,
0020
0000
1000
1000
,
2030
0000
0002
3003
,
0220
0000
0000
0300
,
2000
0000
0000
0030
,
0200
0000
0000
3000
,
0020
0000
0000
0330
,
0100
0010
0001
0100
,
0010
0100
0001
1000
,
0100
0100
0010
0001
,
2002
3003
0220
0330
,
1000
0001
0100
0010
,
0100
0001
1000
1000
,
2000
0000
3200
0000
,
0302
0000
0023
0000
,
1030
0001
0010
0100
,
0010
0001
0100
0010
,
2000
0000
3200
0000
,
0320
0000
0032
0000
,
1003
0010
0100
0000
,
0001
0010
0100
0000
,
0010
0001
1000
0100
,
0010
0100
1000
0010
,
0100
0010
1000
0000
,
0001
0100
0010
0000
,
0100
0010
1000
0100
,
0010
0000
0100
0000
,
0001
1000
2002
3003
,
0010
0100
0220
0330
,
0010
1000
0202
0303
,
0001
0010
0100
1000
,
0200
0000
0001
0010
,
2000
3300
0100
1000
,
2002
3003
1000
0010
,
0200
0300
0001
1000
,
1001
0000
0000
0000
;

//---------------dance-single - ----------------
#NOTES:
     dance-single:
     :
     Beginner:
     1:
     0.119,0.165,0.065,0.000,0.000:
0000
0000
0000
0000
,
0000
0000
0000
0000
,
0000
0000
0000
0000
,
0000
0000
0000
0000
,
1001
0000
0000
0000
,
0000
0000
0000
0000
,
1000
0000
0000
0000
,
0000
0000
0000
0000
,
0010
0000
0000
0000
,
0000
0000
0000
0000
,
0100
0000
0000
0000
,
0001
0000
1000
0000
,
1001
0000
0001
0000
,
0100
0000
0010
0000
,
0100
0000
0000
0000
,
0001
0000
0000
0000
,
1000
0000
0100
0000
,
1000
0000
0001
0000
,
0100
0000
0001
0000
,
1001
0000
0000
0000
,
1000
0000
0100
0000
,
1000
0000
0000
0000
,
0001
0000
0100
0000
,
0001
0000
0000
0000
,
1000
0000
0100
0000
,
0010
0000
0001
0000
,
0010
0000
0000
0000
,
0100
0000
0000
0000
,
0010
0000
0001
0000
,
1000
0000
0100
0000
,
1000
0000
0010
0000
,
0100
0000
0001
0000
,
1000
0000
0000
0000
,
0001
0000
1000
0000
,
0010
0000
0000
0000
,
0110
0000
0000
0000
,
1001
0000
0000
0000
,
1000
0000
0000
0000
,
0100
0000
0000
0000
,
0010
0000
0000
0000
,
0001
0000
0100
0000
,
0001
0000
0000
0000
,
1000
0000
0010
0000
,
1000
0000
0001
0000
,
1000
0000
0000
0000
,
0001
0000
0010
0000
,
0001
0000
0000
0000
,
1000
0000
0010
0000
,
0100
0000
0010
0000
,
0100
0000
0001
0000
,
1000
0000
0100
0000
,
0110
0000
0000
0000
,
1001
0000
0001
0000
,
0100
0000
0000
0000
,
0010
0000
0100
0000
,
0001
0000
1000
0000
,
0100
0000
0010
0000
,
0100
0000
0000
0000
,
0010
0000
0001
0000
,
1000
0000
0001
0000
,
0100
0000
0000
0000
,
0010
0000
0000
0000
,
1000
0000
0000
0000
,
0001
0000
1000
0000
,
0100
0000
0010
0000
,
0001
0000
0100
0000
,
0010
0000
0100
0000
,
0001
0000
0000
0000
,
1001
0000
0000
0000
;

//---------------dance-double - ----------------
#NOTES:
     dance-double:
     :
     Hard:
     7:
     0.451,0.523,0.259,0.356,0.142:
00000000
00000000
00000000
00000000
,
00000000
00000000
00000000
00000000
,
00000000
00000000
00000000
00000000
,
00000000
00000000
00000000
00000000
,
00010200
00000000
00000000
00000010
00000320
00000000
00000001
00000032
,
00000000
00000000
00001000
00002003
00000000
00000000
00000010
00000020
,
00000000
00000000
00000000
00000000
,
00000000
00000000
00000000
00003030
,
00010200
00000000
00000000
00010000
00000000
00000000
00020000
00000000
00000000
00000000
00000000
00000000
00000000
00000000
00000000
00000000
,
00000000
00000000
00000000
00030300
,
02001000
00000000
00000000
00001000
00000000
00000000
00002000
00000000
00000000
00000000
00000000
00000000
03003000
00000000
00000000
00000000
,
01000000
00010000
10000000
01000000
,
00101000
00000000
00000000
00001000
00000000
00000000
00010000
00000000
00001000
00000000
00000000
00000000
00000100
00000000
00000000
00000000
,
00000010
00001000
00000100
00000010
,
00000001
00000000
00000000
00001000
00000000
00000000
00000100
00000000
00010000
00000000
00000000
00000000
00001000
00000000
00100000
00000000
,
00010000
00000000
00000000
00100000
00000000
00000000
01000000
00000000
00100000
00000000
00000000
00000000
00010000
00000000
10000000
00000000
,
00010000
00000000
00000000
10000000
00000000
00000000
00010000
00000000
02020000
00000000
00000000
00000000
03030000
00000000
00000000
00000000
,
01000000
00000000
00000000
00001000
00000000
00000000
00010000
00000000
00020200
00000000
00000000
00000000
00030300
00000000
00000000
00000000
,
00001100
00000000
00000000
00001000
00000000
00000000
00000100
00000000
00010100
00000000
00000000
00010000
00000000
00000000
00001000
00000000
,
02002000
00000000
00000000
00000000
00003000
00000000
00000000
00000000
03100000
00000000
00000000
10000000
00000000
00000000
01000000
00000000
,
01100000
00000000
00100000
00001000
00010000
00001000
00000100
00000000
,
00000020
00000000
00001000
00000000
00000130
00000010
00010000
00000010
,
00000000
00010000
00001000
00010000
00000000
00001000
01000000
00010000
,
10000000
00000000
00000000
00000000
01000000
00000000
00000000
00000000
00100000
00000000
00000000
00010000
00000000
00000000
00100000
00000000
,
00002000
00000010
00010000
00000010
,
00023000
00000000
00000000
00000000
00100000
00000000
00000000
00000000
00031000
00000000
00010000
00000000
00000000
00001000
00000000
00000000
,
01000000
00000000
01010000
00000000
00010000
10000000
01000000
00100000
,
00000000
01000000
00100000
00010000
00100000
00000000
00101000
00000000
,
00001000
00000000
00000000
00010000
00000000
00000000
00000100
00000000
00000020
00000000
00000000
00000000
00000000
00000000
00000000
00000000
,
00000031
00000000
00000000
00000100
00000000
00000000
00000010
00000000
00002000
00000000
00000000
00000000
00000000
00000000
00000000
00000000
,
00003100
00000000
00000000
00010000
00000000
00000000
00001000
00000000
00020000
00000000
00000000
00000000
00000000
00000000
00000000
00000000
,
01030000
00000000
00000000
00100000
00000000
00000000
00010000
00000000
01010000
00000000
00000000
00000000
10010000
00000000
00000000
00000000
,
11000000
00000000
00010000
00000000
10000000
00100000
01000000
00001000
,
00010000
00000000
00000000
00000000
00001000
00000000
00000000
00000000
00010000
00000000
00000000
00000100
00000000
00000000
00020000
00000000
,
00000200
00000000
00030300
00000000
00000100
00000010
00000100
00002000
,
00000000
00000000
00000100
00000200
00000000
00000000
00003300
00000000
,
00020200
00000000
00000000
00000000
00000300
00000000
00000000
00000000
00001000
00000000
00000000
00001000
00000000
00000000
00001000
00000000
,
00002000
00000000
00033000
00000000
,
02002000
00000000
00000000
00000000
00003000
00000000
00000000
00000000
00010000
00000000
00000000
00010000
00000000
00000000
00010000
00000000
,
00020000
03000000
20000000
30030000
,
00010000
00000000
00000000
00000000
01010000
00000000
00000000
00000000
01000000
00000000
00000000
00001000
00000000
00000000
01000000
00000000
,
00001000
00000000
00000000
00000000
00011000
00000000
00000000
00000000
00010000
00000000
00000000
00000100
00000000
00000000
00010000
00000000
,
00000100
00000000
00000000
00000010
00000000
00000000
00000001
00000000
00000011
00000000
00000000
00000000
00000101
00000000
00000000
00000000
,
00002002
00003000
00000200
00000303
,
00000001
00000100
00000010
00001000
00000100
00010000
00001000
00010000
,
00000000
00001000
00100000
00010000
01000000
00000000
00010000
01000000
,
00000000
00100000
10000000
01000000
00100000
01000000
00100000
00001000
,
00000000
00000000
00010000
00000000
00000100
00000000
00001000
00000000
00000001
00000000
00000000
00001000
00000000
00000000
00000010
00000000
,
00000100
00000010
00001000
00000100
00010000
00001000
00000100
00001000
,
00100000
00010000
00100000
00010000
10000000
01000000
00010000
01000000
,
00100000
00010000
00100000
00001000
00010000
00000100
00000010
00000001
,
00000100
00000000
00000010
00000000
00001000
00000000
00000001
00000000
00000101
00000000
00000000
00001001
00000000
00000000
00001000
00000000
,
00002020
00000000
00003030
00000000
00000001
00000010
00000100
00001000
,
00000000
00000100
00010000
00000000
00001000
01000000
00010000
10000000
,
00000000
00100000
01000000
00010000
00000000
00100000
01000000
00100000
,
00010000
00000000
00000000
00000000
00100000
00000000
00001000
00000000
00010000
00000000
00000000
00000100
00000000
00000000
00001000
00000000
,
00000200
00000000
00000000
00000000
00000001
00000000
00000000
00000000
00000010
00000000
00000000
00000010
00000000
00000000
00010000
00000000
,
00020300
00000000
00000000
00000000
00000100
00000000
00000000
00000000
00100000
00000000
00130000
00000000
00000000
00100000
00000000
00000000
,
20000000
00000000
31000000
00000000
00100000
00001000
00010000
00000100
,
00000000
00000000
00001000
00000000
00000100
00000000
00000010
00000000
00000000
00000000
00000000
00000010
00000001
00000000
00001000
00000000
,
00000100
00000000
00000000
00000100
00010000
00000000
00100000
00000000
10000000
00000000
00000000
00000000
10010000
00000000
00000000
00000000
,
10000000
00000000
00000000
10000000
01000000
00000000
00010000
00000000
00001000
00000000
00000000
00000000
00011000
00000000
00000000
00000000
,
00010000
00000000
00000000
00001000
00000010
00000000
00000001
00000000
00001000
00000000
00000000
00000000
00001001
00000000
00000000
00000000
,
00000201
00000000
00000000
00000010
00000000
00000000
00001000
00000000
00001000
00000000
00000000
00000000
00000310
00000000
00000000
00000000
,
00000010
00010000
00001000
00010000
01000000
00000000
00100000
00010000
,
00000000
00000000
10000000
00000000
00100000
00000000
01000000
00000000
00010000
00000000
00000000
10000000
00000000
00000000
00010000
00000000
,
00220000
00000000
00000000
00000000
00330000
00000000
00000000
00000000
00100000
00000000
00001000
00000000
00010000
00000000
00000100
00001000
,
00000200
00000000
00000000
00000000
00000300
00000000
00000000
00000000
00000011
00000000
00000000
00000001
00000000
00000000
00001000
00000000
,
00001001
00000000
00000000
00000000
;

//---------------dance-double - ----------------
#NOTES:
     dance-double:
     :
     Medium:
     6:
     0.383,0.385,0.146,0.283,0.105:
00000000
00000000
00000000
00000000
,
00000000
00000000
00000000
00000000
,
00000000
00000000
00000000
00000000
,
00000000
00000000
00000000
00000000
,
00012000
00000000
00203000
00000000
,
00320000
00000000
02030000
00000000
,
03200000
00000000
00000000
00000000
,
20300000
00000000
00000000
00000000
,
00010000
00000000
00000000
00010000
00000000
00000000
30020000
00000000
00000000
00000000
00000000
00000000
00000000
00000000
00000000
00000000
,
00000000
00000000
00000000
00000000
,
01000000
00000000
00000000
01000000
00000000
00000000
02030000
00000000
00000000
00000000
00000000
00000000
00000000
00000000
00000000
00000000
,
03010000
00100000
00001000
00010000
,
00011000
00001000
00010000
00000100
,
00000010
00000001
00000100
00000010
,
00001000
00001000
00000100
00001000
,
00000100
00000000
00010000
00000000
00001000
00000000
00100000
00001000
,
00010000
00001000
01001000
01000000
,
01000000
00010000
10010000
10000000
,
10000000
00000000
00000000
10000000
00000000
00000000
00010000
00000000
00010000
00000000
00000000
00100000
00000000
00000000
00100000
00000000
,
00202000
00000000
00303000
00000000
,
00001000
00010000
00001000
00010000
00000100
00000000
00000010
00000000
,
00000001
00000000
00000100
00000000
00000010
00001000
00000010
00001000
,
00000000
00000100
00001000
00000100
00000000
00010000
00000100
00010000
,
00000000
00000000
00000100
00000000
00010000
00000000
00000000
00000000
00001000
00000000
00000000
00100000
00000000
00000000
00010000
00000000
,
01000000
00100000
10000000
01000000
,
00010000
00000000
00000000
00000000
00000100
00000000
00000000
00000000
00000010
00000000
00000001
00000000
00000000
00000010
00000000
00000000
,
00000001
00000000
00000100
00000000
00000010
00001000
00000100
00020000
,
00000000
00000000
00001000
00002000
00000000
00000000
00033000
00000000
,
00001000
00000000
00000000
01000000
00000000
00000000
00001000
00000000
02000000
00000000
00000000
00000000
00000000
00000000
00000000
00000000
,
03010000
00000000
00000000
10000000
00000000
00000000
00010000
00000000
20000000
00000000
00000000
00000000
00000000
00000000
00000000
00000000
,
31000000
00000000
00000000
00100000
00000000
00000000
01000000
00000000
00200000
00000000
00000000
00000000
00000000
00000000
00000000
00000000
,
00301000
00000000
00000000
00100000
00000000
00000000
00001000
00000000
00010000
00000000
00000000
00000000
00010100
00000000
00000000
00000000
,
00002100
00000010
00000001
00000100
,
00003020
00000000
00000000
00000000
00000001
00000000
00000000
00000000
00000100
00000000
00000000
00000100
00000000
00000000
00000100
00000000
,
00000130
00000000
00000110
00000000
00000010
00001000
00000100
00020000
,
00000000
00000000
00001000
00002000
00000000
00000000
00033000
00000000
,
02001000
00000000
00000000
00000000
00000000
00000000
00000000
00000000
00010000
00000000
00000000
00010000
00000000
00000000
00010000
00000000
,
03020000
00000000
20030000
00000000
,
32000000
00000000
00000000
00000000
00000000
00000000
00000000
00000000
00100000
00000000
00000000
00100000
00000000
00000000
00100000
00000000
,
03200000
00010000
01000000
00310000
,
00100000
00000000
00000000
00000000
00101000
00000000
00000000
00000000
00001000
00000000
00000000
00010000
00000000
00000000
00000100
00000000
,
00000010
00000000
00000000
00000000
00000110
00000000
00000000
00000000
00000100
00000000
00000000
00001000
00000000
00000000
00000100
00000000
,
00010000
00000000
00000000
00001000
00000000
00000000
00010000
00000000
00001000
00000000
00000000
00000000
00101000
00000000
00000000
00000000
,
00220000
00300000
20000000
30000000
,
01030000
00010000
00000000
10000000
01000000
00000000
00100000
00010000
,
00000000
00100000
00001000
00010000
00001000
00000000
00010000
00000100
,
00000000
00000010
00000001
00000100
00000010
00000000
00000100
00000010
,
00000000
00000000
00000010
00000000
00001000
00000000
00000100
00000000
00001000
00000000
00000000
00001000
00000000
00000000
00001000
00000000
,
00000200
00000010
00001000
00000010
,
00020300
00001000
00100000
00001000
,
00230000
10000000
01000000
10000000
,
02300000
00000000
00000000
00000000
00100000
00000000
00100000
00000000
03100000
00000000
00000000
01000000
00000000
00000000
00010000
00000000
,
10010000
00000000
11000000
00000000
00100000
00010000
00100000
00010000
,
00000000
00100000
00001000
00000000
00010000
00000100
00000010
00000001
,
00000000
00000010
00000001
00000100
00000000
00000010
00001000
00000100
,
00000000
00000000
00001000
00000000
00000100
00000000
00000000
00000000
00010000
00000000
00000000
00001000
00000000
00000000
00010000
00000000
,
00001000
00000000
00000000
00000000
01001000
00000000
00000000
00000000
01000000
00000000
00000000
00010000
00000000
00000000
01000000
00000000
,
00010000
00000000
10000000
00000000
01000000
00100000
00000000
01000000
,
00100000
00000000
00010000
00000000
00100000
00001000
00100000
00001000
,
00000000
00010000
00001000
00020000
00000000
00000000
00031000
00000000
,
00010000
00000000
00000000
00000100
00000000
00000000
00010000
00000000
00000100
00000000
00000000
00000000
00001000
00000000
00000000
00000000
,
00000001
00000000
00000000
00000100
00000000
00000000
00000001
00000000
00000100
00000000
00000000
00000000
00000010
00000000
00000000
00000000
,
00001000
00000000
00000000
00000100
00000000
00000000
00001000
00000000
00000100
00000000
00000000
00000000
00010000
00000000
00000000
00000000
,
00001000
00000000
00000000
01000000
00000000
00000000
00010000
00000000
01000000
00000000
00000000
00000000
00100000
00000000
00000000
00000000
,
20000000
00010000
01000000
00100000
,
30020000
00000000
00000000
00000000
01000000
00000000
00000000
00000000
00130000
00000000
00000000
00001000
00000000
00000000
00100000
00000000
,
00001000
00000000
00011000
00000000
00010000
00000100
00000010
00000001
,
00000200
00000000
00000000
00000000
00000300
00000000
00000000
00000000
00000010
00000000
00000000
00001000
00000000
00000000
00000010
00000000
,
00001010
00000000
00000000
00000000
;

//---------------dance-double - ----------------
#NOTES:
     dance-double:
     :
     Easy:
     4:
     0.235,0.248,0.065,0.097,0.000:
00000000
00000000
00000000
00000000
,
00000000
00000000
00000000
00000000
,
00000000
00000000
00000000
00000000
,
00000000
00000000
00000000
00000000
,
00012000
00000000
00000000
00000000
,
00100000
00000000
00010000
00000000
,
00203000
00000000
00000000
00000000
,
02300000
00000000
00000000
00000000
,
23000000
00000000
00000000
00000000
,
00100000
00000000
00010000
00000000
,
30200000
00000000
00000000
00000000
,
02300000
00100000
00100000
00100000
,
03100000
00000000
10000000
00010000
,
10000000
00000000
00010000
00000000
,
00100000
00001000
00100000
00000000
,
00001000
00010000
00001000
00000000
,
00010000
00000100
00001000
00000000
,
00000001
00000010
00000001
00001000
,
00000010
00000000
00000100
00000000
,
00000220
00000000
00000330
00000000
,
00000010
00001000
00000100
00001000
,
00000001
00000000
00001000
00000100
,
00010000
00000000
00001000
00000000
,
01000000
00000000
00010000
01000000
,
00010000
10000000
01000000
00100000
,
01000000
00100000
00010000
10000000
,
00010000
00000000
00100000
00000000
,
00001000
00010000
00001000
00000000
,
00010000
00000100
00000010
00000000
,
00000010
00000100
00010000
00000000
,
00001000
00100000
00010000
00000000
,
00100000
00010000
01000000
00100000
,
10000000
01000000
00010000
00100000
,
10000000
00000000
00010000
10000000
,
00010000
00000000
10000000
01000000
,
00200000
00000000
00301000
00000000
,
00021000
00000000
00001000
00000000
,
00030200
00000000
00000000
00000000
,
00000010
00000000
00001000
00000000
,
00000320
00000000
00000000
00000000
,
00000031
00001000
00000010
00001000
,
00000100
00000000
00001000
00000100
,
00010000
00001000
01000000
00100000
,
01000000
00000000
01100000
00000000
,
10010000
00000000
10000000
01000000
,
00100000
00010000
00100000
00001000
,
00010000
00000000
00001000
00010000
,
00000100
00001000
00000010
00000100
,
00000001
00000000
00000010
00000100
,
00000010
00000001
00001000
00000010
,
00000100
00000010
00001000
00000100
,
00010000
00000000
00011000
00000000
,
00011000
00000000
00001000
01000000
,
00001000
00000000
01000000
00100000
,
01000000
00100000
10000000
01000000
,
10000000
00010000
00100000
00010000
,
01000000
00000000
00100000
01000000
,
00100000
00000000
01000000
00010000
,
00100000
00000000
00100000
00001000
,
00010000
00000100
00000010
00000000
,
00000100
00000010
00000001
00000000
,
00000001
00000010
00000100
00000000
,
00000100
00010000
00001000
00000000
,
00001000
00010000
00000100
00010000
,
00001000
00100000
00010000
01000000
,
00100000
00000000
01000000
00100000
,
10000000
00000000
01000000
00100000
,
00010000
00000000
00100000
00001000
,
00011000
00000000
00000000
00000000
;
