#TITLE:This Ain't A Scene, It's An Arms Race;
#SUBTITLE:(Jason Nevin's Rockdance Remix);
#ARTIST:Fall Out Boy;
#TITLETRANSLIT:;
#SUBTITLETRANSLIT:;
#ARTISTTRANSLIT:;
#GENRE:;
#CREDIT:;
#MENUCOLOR:;
#METERTYPE:DDR;
#BANNER:This Aint A Scene It's An Arms Race (Jason Nevin's Rockdance Remix).png;
#BACKGROUND:This Aint A Scene It's An Arms Race (Jason Nevin's Rockdance Remix) (2).png;
#LYRICSPATH:This Ain't A Scene, It's An Arms Race (Jason Nevin's Rockdance Mix).lrc;
#CDTITLE:ddrencorecdtitle.png;
#MUSIC:This Ain't A Scene, It's An Arms Race (Jason Nevin's Rockdance Mix).mp3;
#OFFSET:-0.045;
#SAMPLESTART:87.121;
#SAMPLELENGTH:17.404;
#SELECTABLE:YES;
#LISTSORT:;
#BPMS:0.000=124.000;
#STOPS:;
#BGCHANGES:;
#ATTACKS:;

//---------------dance-single - ----------------
#NOTES:
     dance-single:
     :
     Hard:
     8:
     0.537,0.500,0.328,0.164,0.266: // measure 1
0000
0000
0000
0000
,  // measure 2
0000
0000
0000
0000
,  // measure 3
0000
0000
0000
0000
,  // measure 4
0000
0000
0000
0000
,  // measure 5
1000
0100
0000
0010
0100
0000
1000
0010
,  // measure 6
0001
0000
0000
0000
0010
1000
0000
0000
0100
0000
0000
0000
1001
0000
1000
0000
,  // measure 7
0010
0100
0001
0010
1000
0000
0010
0000
,  // measure 8
1001
0000
0000
0000
0100
0000
0000
0000
0010
1000
0010
1000
0010
0000
0000
0000
,  // measure 9
0100
0001
0010
1000
0010
0001
0100
0010
,  // measure 10
1000
0001
0100
1000
0100
0001
0010
0100
,  // measure 11
1000
0000
0000
0010
0000
0000
0000
0000
0000
0100
0000
0000
0001
0000
0000
0000
0000
0000
1000
0000
0000
0000
0000
0000
0100
0000
0000
0010
0000
0000
0000
0000
0000
0000
0000
0000
0001
0000
0000
0000
1000
0000
0000
0000
0010
0000
0000
0000
,  // measure 12
0100
0001
1000
0100
0000
0000
0010
0000
0000
1001
0000
0000
,  // measure 13
0010
1000
0001
0010
0001
1000
0100
0010
,  // measure 14
1001
0011
1010
1001
,  // measure 15
0010
1000
0100
1000
0001
0010
0001
0100
,  // measure 16
1001
1100
0101
1001
,  // measure 17
0010
0100
0001
0010
0001
1000
0010
0100
,  // measure 18
1001
1010
0011
1001
,  // measure 19
1000
0010
0100
0001
0010
0000
0001
1000
,  // measure 20
1100
0000
0000
0000
0011
0000
0000
0000
0000
0000
0001
1000
0001
1000
0001
1000
,  // measure 21
0001
0000
0100
0010
0000
1000
0000
0001
0000
0000
0000
0000
1000
0010
1000
0010
,  // measure 22
0000
1000
0000
0100
0000
0010
0000
0000
0001
0000
1000
0000
0010
0000
0100
0002
,  // measure 23
0000
0000
1000
0000
1000
0000
1003
0000
0001
0000
0100
0000
0010
0000
1000
0200
,  // measure 24
0000
0010
0010
0310
0001
0000
1001
0000
,  // measure 25
0010
0000
0100
0001
0000
1000
0000
0100
0000
0000
0000
0000
0010
0001
0010
0001
,  // measure 26
0000
1000
0000
0010
0000
0100
0000
0000
0010
0000
1000
0000
0001
0000
0010
0200
,  // measure 27
0000
0000
1000
0000
1000
0000
1300
0000
0010
0000
0100
0000
0001
0000
0100
0020
,  // measure 28
0000
1000
1000
1030
0001
0000
1001
0000
,  // measure 29
0100
0000
0010
0000
1000
0000
0100
0000
1000
0001
0000
0100
0000
0000
0000
0000
,  // measure 30
0001
0100
0010
1000
0001
0010
0100
0001
,  // measure 31
0100
0000
0000
0000
1000
0000
0010
0000
0100
0001
0000
0100
0000
0010
1000
0010
,  // measure 32
1000
0001
0100
0010
1000
0010
0100
0001
,  // measure 33
1000
0000
0000
0000
0010
0000
0100
0001
0100
0010
1000
0001
1000
0010
0100
0000
,  // measure 34
0001
1000
0100
0010
0001
0100
0010
1000
,  // measure 35
0010
1001
0000
1000
0101
0010
1000
0001
,  // measure 36
0010
1100
0000
0010
1001
1000
0010
0101
,  // measure 37
0000
0100
0000
1001
1001
1001
1001
0100
,  // measure 38
0010
1000
0001
0020
0000
0001
0031
1000
,  // measure 39
0101
1100
0110
1001
,  // measure 40
0001
0010
0100
2000
0000
0010
3010
0100
,  // measure 41
1001
0101
1100
0110
,  // measure 42
0010
1000
0001
0020
0000
0100
0130
1000
,  // measure 43
0011
1001
1010
0110
,  // measure 44
0100
0001
0000
0010
0000
0001
1000
0010
,  // measure 45
0000
0000
0100
0000
0000
0000
0001
0000
1000
0000
0010
0100
0010
0100
0010
0100
,  // measure 46
0010
0000
1000
0100
0000
0010
0000
0001
0000
0000
1000
0000
0010
0100
0010
0100
,  // measure 47
0000
0001
0000
1000
0000
0100
0000
0010
0100
0000
1000
0000
0010
0000
0100
0002
,  // measure 48
0000
0000
0010
0000
0010
0000
0013
0000
0001
0000
1000
0000
0010
0000
0100
0020
,  // measure 49
0000
1000
1000
1030
0001
0010
1001
0100
,  // measure 50
0010
0000
1000
0001
0000
0010
0000
0100
0000
0000
0010
0000
0001
1000
0001
1000
,  // measure 51
0000
0010
0000
0100
0000
0001
0000
1000
0100
0000
0010
0000
0100
0000
1000
0020
,  // measure 52
0000
0000
0100
0000
0100
0000
0130
0000
0010
0000
1000
0000
0001
0000
0010
0002
,  // measure 53
0000
0100
0100
0103
0010
1000
0001
0010
,  // measure 54
0200
0000
0010
0000
2000
0000
0000
3300
,  // measure 55
1000
0002
0000
0010
0000
0103
0001
0100
,  // measure 56
0010
2000
0000
0100
0000
3010
1000
0001
,  // measure 57
0100
0020
0000
0100
0000
1030
0010
0100
,  // measure 58
0001
1000
0001
1000
0010
0100
0010
0100
,  // measure 59
0001
0020
0000
0100
0000
0031
0010
0100
,  // measure 60
1000
0020
0000
0100
0000
1030
0010
1000
,  // measure 61
0001
0200
0000
0010
0000
0301
0100
0010
,  // measure 62
1000
0001
1000
0001
0100
0010
0100
0010
,  // measure 63
2002
0000
0000
3003
,  // measure 64
0010
1000
0000
0001
0100
0000
0010
1000
,  // measure 65
0001
0000
0000
0000
;

//---------------dance-single - ----------------
#NOTES:
     dance-single:
     :
     Beginner:
     1:
     0.134,0.242,0.109,0.000,0.000:
0000
0000
0000
0000
,
0000
0000
0000
0000
,
0000
0000
0000
0000
,
0000
0000
0000
0000
,
1000
0000
0001
0000
,
0010
0000
0000
0000
,
0100
0000
1000
0000
,
0001
0000
0000
0000
,
1000
1000
1000
0000
,
0001
0001
0001
0000
,
1000
0000
0100
0000
,
1000
0000
0001
0000
,
0100
0000
0000
0000
,
0010
0010
0010
0010
,
0010
0000
0000
0000
,
0100
0100
0100
0100
,
0100
0000
0000
0000
,
0001
0001
0001
0001
,
0001
0000
0010
0000
,
0100
0000
0000
0000
,
1000
0000
0001
0000
,
0010
0000
0001
0000
,
0100
0000
0010
0000
,
0100
0000
0000
0000
,
0001
0000
1000
0000
,
0010
0000
1000
0000
,
0001
0000
0010
0000
,
0100
0000
0000
0000
,
1001
0000
0000
0000
,
0100
0000
0010
0000
,
1000
0000
0001
0000
,
0010
0000
0001
0000
,
1000
0000
0010
0000
,
0100
0000
0100
0000
,
0010
0000
0100
0000
,
0001
0000
1000
0000
,
0001
0000
0000
0000
,
0010
0000
0000
0000
,
1001
1001
1001
1001
,
0000
0000
0000
0000
,
1001
1001
1001
1001
,
0000
0000
0000
0000
,
0110
0110
0110
0110
,
0000
0000
1000
0000
,
0010
0000
0000
0000
,
0100
0000
0001
0000
,
0010
0000
0001
0000
,
1000
0000
0001
0000
,
0010
0000
0000
0000
,
0001
0000
1000
0000
,
0100
0000
1000
0000
,
0010
0000
0100
0000
,
0001
0000
0010
0000
,
0001
0000
0000
0000
,
0001
0000
0000
0000
,
1000
0000
0000
0000
,
0010
0000
0000
0000
,
0100
0000
0010
0000
,
0100
0000
0000
0000
,
0001
0000
0000
0000
,
1000
0000
0000
0000
,
0100
0000
0010
0000
,
1001
0000
0000
0000
;

//---------------dance-single - ----------------
#NOTES:
     dance-single:
     :
     Easy:
     4:
     0.258,0.271,0.164,0.102,0.000:
0000
0000
0000
0000
,
0000
0000
0000
0000
,
0000
0000
0000
0000
,
0000
0000
0000
0000
,
1000
0000
0010
1000
,
0001
0100
0010
1000
,
0001
0000
0010
0100
,
1000
0000
1001
0000
,
0100
0010
1000
1000
,
0001
0100
0010
0010
,
1000
0000
0001
0000
,
0010
0000
0001
0000
,
1000
0010
0100
0001
,
1000
1000
1000
0110
,
0001
1000
0100
0010
,
0001
0001
0001
0110
,
1000
0010
0100
0001
,
0010
0010
0010
1001
,
0100
0000
0010
0000
,
1001
1001
0000
0000
,
1000
0010
1000
0000
,
0001
0010
0100
0010
,
0002
0000
1003
0010
,
2000
0000
3001
1001
,
0001
0100
0001
0000
,
1000
0100
0010
0100
,
2000
0000
3010
0100
,
0002
0000
0013
1001
,
0200
0000
0000
0300
,
0010
0100
0001
1000
,
0100
0000
1000
0000
,
0010
0100
0001
1000
,
0100
0000
1001
0000
,
0010
0100
0001
1000
,
0000
0010
0000
0000
0100
0000
0010
0000
,
1000
0001
1000
0100
,
0000
0010
0000
0001
1000
0001
1000
0000
,
0001
0100
0010
1000
,
0100
0100
0100
1001
,
0010
0100
0001
1000
,
0001
0001
0001
0110
,
1000
0100
1000
0001
,
0010
0010
0010
1001
,
0100
0000
0010
0000
,
0100
0001
1000
0000
,
0001
0010
0100
0000
,
1000
0010
0100
0001
,
2000
0000
3010
0100
,
0002
0000
0013
1001
,
0010
0001
1000
0000
,
0010
0100
0001
1000
,
0020
0000
0130
0001
,
2000
0000
3001
0000
,
0200
0000
0000
0000
0020
0000
0000
0330
,
0001
1000
0010
1001
,
0100
0010
1000
1001
,
0010
0100
0001
1001
,
0010
0010
0100
0100
,
0010
0001
1000
0110
,
0001
1000
0100
0110
,
0100
1000
0001
0110
,
1000
1000
0001
0001
,
2002
0000
0000
3003
,
1001
0000
0000
0000
;

//---------------dance-single - ----------------
#NOTES:
     dance-single:
     :
     Medium:
     5:
     0.343,0.369,0.109,0.102,0.000:
0000
0000
0000
0000
,
0000
0000
0000
0000
,
0000
0000
0000
0000
,
0000
0000
0000
0000
,
1000
0100
1000
0001
,
0100
0000
0010
1000
0001
0000
0010
0000
,
0001
0000
0010
0100
1000
0000
0001
0000
,
0100
0000
0010
0000
,
1000
0001
1000
0001
1000
0000
0100
0000
,
0010
0100
0010
0100
0010
0000
0001
0000
,
1000
0010
0100
0001
,
1000
0100
0010
0001
1000
0000
0001
0000
,
0010
0001
1000
0010
,
0100
0100
0100
1001
,
0010
0100
0001
0010
,
0001
0001
0001
0110
,
1000
0001
0100
0010
,
1000
1000
1000
0110
,
0001
1000
0000
0010
0000
0000
1000
0001
,
1001
1001
0000
0000
,
0010
0000
1000
0000
0001
0000
0100
0010
,
1000
0000
0001
0000
0010
0001
0010
0001
,
0020
0000
0001
0000
0031
1000
0001
1000
,
0002
0100
0103
1001
,
0100
0000
0010
0000
1000
0000
0001
0100
,
0010
0000
1000
0000
0100
1000
0100
1000
,
0200
0000
0010
0000
0310
0001
0010
0001
,
0020
0001
0031
1001
,
0200
0000
0000
0300
,
0010
0000
1000
0000
0001
0000
0010
0001
,
0100
0000
0010
0000
1000
0100
1000
0001
,
0100
0000
0010
0000
1000
0100
0010
0001
,
0000
0000
0100
0000
0010
1000
0010
0000
,
1000
0000
0100
0000
1000
0000
0001
0100
,
0000
0010
0000
0100
0010
0000
1000
0000
,
0001
0010
0000
0010
0100
0000
0100
1000
,
0000
0001
0000
0100
0010
1000
0001
0000
,
1000
0000
0010
0000
0100
0000
0010
1000
,
0001
0001
0001
0110
,
1000
0000
0001
0000
0010
0000
0001
0100
,
0010
0010
0010
1001
,
0100
0000
0010
0000
1000
0000
0001
1000
,
0001
0001
0001
0110
,
1000
0001
0000
1000
0000
0000
0010
0000
,
0000
0100
0000
0010
1000
0001
0000
0000
,
1000
0000
0100
0000
0010
0000
0001
1000
,
0010
0000
0100
0000
0010
1000
0010
0100
,
0002
0000
0010
0000
0013
0001
0010
0100
,
2000
0010
3010
1001
,
0010
0000
0100
0000
0001
0000
1000
0100
,
0010
0000
0001
0000
1000
0010
1000
0001
,
0200
0000
0001
0000
0301
1000
0010
0100
,
0020
1000
1030
1001
,
0200
0000
0000
0000
0002
0000
0000
0303
,
0001
1000
0000
0010
0000
0010
1000
0000
,
0001
0010
0000
0100
0000
0100
0010
0000
,
0001
1000
0000
0010
0000
0010
1000
0000
,
0001
0100
0001
0100
0010
1000
0010
1000
,
0001
0010
0000
0001
0000
0001
1000
0000
,
0010
1000
0000
0100
0000
0100
0010
0000
,
0001
1000
0000
0100
0000
0100
0010
0000
,
0100
1000
0100
1000
0001
0100
0001
0100
,
2002
0000
0000
0000
0000
0000
0000
3003
,
1001
0000
0000
0000
;

//---------------dance-double - ----------------
#NOTES:
     dance-double:
     :
     Easy:
     3:
     0.192,0.197,0.023,0.039,0.000:
00000000
00000000
00000000
00000000
,
00000000
00000000
00000000
00000000
,
00000000
00000000
00000000
00000000
,
00000000
00000000
00000000
00000000
,
01000000
00000000
00100000
10000000
,
00010000
00100000
00001000
00010000
,
00000100
00010000
00001000
00100000
,
01000000
00000000
00100000
00000000
,
00010000
01000000
00010000
00000000
,
00100000
00001000
00100000
00000000
,
00001000
00010000
00000100
00001000
,
00000100
00000010
00000001
00000000
,
00000100
00000000
00000100
00000000
,
00000010
00010000
00001000
00100000
,
01000000
00000000
01000000
00000000
,
00100000
00001000
00010000
00000010
,
00000100
00000000
00000100
00000000
,
00000010
00010000
00001000
00100000
,
01000000
00000000
01000000
00000000
,
10010000
00000000
00000000
00000000
,
10000000
00010000
00100000
00000000
,
00010000
01000000
00010000
00100000
,
00001000
00000000
00010000
00000100
,
00001000
00000000
00000010
00000000
,
00000100
00000001
00000100
00000000
,
00000010
00001000
00000100
00010000
,
00001000
00000000
00100000
00001000
,
00010000
00000000
00000100
00000000
,
00002002
00000000
00000000
00003003
,
00000001
00000000
00000100
00000010
,
00001000
00000000
00000100
00000000
,
00010000
00000000
00001000
00100000
,
00010000
00000000
01000000
00000000
,
00100000
00000000
10000000
00000000
,
00010000
00000000
00100000
00001000
,
00010000
00000000
00000100
00000000
,
00010000
00000000
00000000
00001000
00010000
00001000
00010000
00000000
,
00000010
00000000
00000010
00000000
,
00000100
00010000
00001000
01000000
,
00100000
00000000
00100000
00000000
,
01000000
00001000
00010000
00000100
,
00000010
00000000
00000010
00000000
,
00000100
00010000
00001000
01000000
,
00100000
00000000
00100000
00000000
,
10010000
00000000
01000000
00000000
,
00010000
00100000
01000000
00000000
,
00100000
00001000
00100000
00010000
,
01000000
00000000
00001000
00010000
,
00000100
00000000
00000010
00000000
,
00000001
00000100
00000010
00000000
,
00000100
00000010
00001000
00000001
,
00000100
00000000
00000010
00001000
,
00000100
00000000
00010000
00000000
,
00002000
00000000
00000000
00000000
00020000
00000000
00000000
00033000
,
00001000
00000000
00100000
00000000
,
00001000
00000000
00010000
00000000
,
00000100
00000000
00001000
00000000
,
00000010
00000100
00000010
00000100
,
00000001
00000000
00001000
00000000
,
00000010
00000000
00010000
00000000
,
00001000
00000000
00100000
00000000
,
00010000
01000000
00010000
01000000
,
00200000
00000000
00000000
00000000
,
10300000
00000000
00000000
00000000
;

//---------------dance-double - ----------------
#NOTES:
     dance-double:
     :
     Hard:
     8:
     0.466,0.450,0.180,0.141,0.227:
00000000
00000000
00000000
00000000
,
00000000
00000000
00000000
00000000
,
00000000
00000000
00000000
00000000
,
00000000
00000000
00000000
00000000
,
00001000
00000000
00010000
00000010
00000100
00000000
00000010
00000000
,
00001000
00000000
00000000
00000000
00000001
00000010
00000000
00000000
00000100
00000000
00000000
00000000
00001001
00000000
00000000
00000000
,
00000010
00000001
00001000
00000010
00010000
00000000
00001000
00000000
,
01000000
00000000
00000000
00000000
00100000
00000000
00000000
00000000
10000000
00010000
10000000
00010000
10000000
00000000
00000000
00000000
,
00100000
00000000
01000000
00001000
00010000
00000000
00000100
00000000
,
00001000
00000000
00000010
00010000
00001000
00000000
00100000
00000000
,
01000000
10000000
01000000
00010000
01000000
00100000
00001000
00000100
,
00000010
00001000
00000001
00000000
00000010
00000000
00001001
00000000
,
00000010
00000002
00000000
00001000
00000003
00000000
00000100
00000010
,
00010000
00001100
00001000
00110000
,
00010000
20000000
00000000
00010000
30000000
00000000
00100000
01000000
,
00001000
00110000
00010000
00001100
,
00001000
00000002
00000000
00001000
00000003
00000000
00000100
00000010
,
00001000
00010100
00010000
00101000
,
00010000
02000000
00000000
00001000
03000000
00000000
01000000
00010000
,
10010000
00000000
00000000
00000000
10010000
00000000
00000000
00000000
00000000
00000000
01000000
00001000
01000000
00001000
01000000
00001000
,
00010000
00000000
00000100
00001000
00000000
00000010
00000000
00000100
00000000
00000000
00000000
00000000
00000000
00000001
00001000
00000001
,
00000000
00000100
00000000
00000010
00000000
00001000
00000000
00000000
00000100
00000000
00010000
00000000
00001000
00000000
00100000
00001000
,
00000000
00000000
00010000
00000000
01000000
00000000
10000000
00000000
00100000
00000000
01000000
00000000
00001000
00000000
00100000
00001000
,
00000000
00010000
00000100
00000001
00000100
00000000
00000010
00000000
,
00000001
00000000
00001000
00000010
00000000
00000100
00000000
00000001
00000000
00000000
00000000
00000000
00000000
00001000
00000010
00001000
,
00000000
00000100
00000000
00010000
00000000
00001000
00000000
00000000
01000000
00000000
00001000
00000000
00010000
00000000
00000100
00010000
,
00000000
00000000
00001000
00000000
00000100
00000000
00000001
00000000
00000010
00000000
00000100
00000000
00001000
00000000
00000010
00010000
,
00000000
00001000
01000000
10000000
01000000
00000000
00100000
00000000
,
10000000
00000000
10000000
00000000
00010000
00000000
00010000
00000000
00100000
00001000
00000000
00011000
00000000
00000000
00000000
00000000
,
00010000
00000100
00001000
00000001
00000100
00000010
00001000
00000100
,
00010000
00000000
00000000
00000000
00001000
00000000
00100000
00000000
00010000
01000000
00000000
00100000
00000000
10000000
00010000
10000000
,
00010000
01000000
00010000
00100000
00001000
01000000
00010000
10000000
,
01000000
00000000
00000000
00000000
00100000
00000000
00001000
00000000
00010000
00000000
00000100
00000000
00000010
00000100
00000000
00000000
,
00010000
00001000
00000100
00000001
00000010
00000100
00001000
00000010
,
00000000
00001001
00000000
00000010
00000100
00000000
00000010
00001000
,
00000010
00010000
00000000
00001000
01000000
00000000
00100000
10000000
,
00000000
00010000
00000000
10010000
10010000
10010000
10010000
00000000
,
01000000
00020000
00000000
00100000
00030000
00000000
00010000
01000000
,
00001000
00110000
00010000
00001100
,
00000100
00020000
00000000
00000010
00030000
00000000
00010000
00000100
,
00001000
00000110
00000001
00001100
,
00000100
00020000
00000000
00001000
00030000
00000000
00010000
01000000
,
00100000
10010000
01000000
01001000
,
00001000
00200000
00000000
00010000
00300000
00100000
01000000
00000000
,
00100000
00000000
00010000
00000000
00000000
00000000
01000000
00000000
00001000
00000000
00010000
00001000
00010000
00001000
00010000
00001000
,
00100000
00000000
00010000
01000000
00000000
00100000
00000000
10000000
00000000
00000000
00000000
00000000
00000000
00100000
10000000
00100000
,
00000000
01000000
00000000
00010000
00000000
00100000
00000000
00010000
01000000
00000000
00001000
00000000
00010000
00000000
00000100
00001000
,
00000000
00000000
00000010
00000000
00001000
00000000
00000001
00000000
00000010
00000000
00000100
00000000
00001000
00000000
00000010
00010000
,
00000000
00001000
01000000
00100000
00010000
00100000
01000000
00001000
,
00010000
00000000
00000100
00010000
00000000
00001000
00000000
00100000
00000000
00000000
00000000
00000000
00000000
01000000
10000000
01000000
,
00000000
00100000
00000000
00010000
00000000
01000000
00000000
00001000
00100000
00000000
00010000
00000000
01000000
00000000
00001000
00010000
,
00000000
00000000
00000100
00000000
00001000
00000000
00000010
00000000
00010000
00000000
00001000
00000000
00100000
00000000
00010000
01000000
,
00000000
00010000
00100000
00001000
00000100
00000010
00000100
00001000
,
00200000
00000000
01000000
00000000
00020000
00000000
00000000
00330000
,
00010000
20000000
00000000
00100000
00000000
30100000
01000000
00010000
,
00100000
00002000
00000000
00010000
00000000
00013000
00000100
00000010
,
00000001
00002000
00000000
00000010
00000000
00003010
00001000
00000001
,
00000100
00001000
00010000
00100000
10000000
01000000
00010000
00001000
,
00000010
00000002
00000000
00000100
00000000
00000103
00000010
00001000
,
00000100
00020000
00000000
00001000
00000000
00031000
01000000
00100000
,
10000000
00020000
00000000
00100000
00000000
00130000
00001000
00010000
,
00001000
00000100
00000001
00000010
00001000
00010000
01000000
10000000
,
20020000
00000000
00000000
00000000
00000000
00000000
00000000
30030000
,
10000000
00100000
00000000
01000000
00010000
00000000
00100000
00001000
,
00010000
00000000
00000000
00000000
;

//---------------dance-double - ----------------
#NOTES:
     dance-double:
     :
     Medium:
     6:
     0.356,0.375,0.094,0.039,0.000:
00000000
00000000
00000000
00000000
,
00000000
00000000
00000000
00000000
,
00000000
00000000
00000000
00000000
,
00000000
00000000
00000000
00000000
,
01000000
00100000
10000000
00010000
,
00100000
00000000
00001000
00010000
00000100
00000000
00001000
00000000
,
00000010
00000000
00001000
00000001
00000010
00000000
00000100
00000000
,
00001001
00000000
00001000
00000000
,
00000010
00000100
00000010
00000100
00000010
00000000
00001000
00000000
,
00000100
00010000
00000100
00010000
00000100
00000000
00010000
00000000
,
00001000
00010000
00001000
00000000
00010000
00000100
00010000
00000000
,
00000100
00001000
00000010
00000100
00000001
00000000
00001000
00000000
,
00000010
00000000
00000100
00000000
00000001
00000000
00001000
00000010
,
00000100
00000001
00001000
00000110
,
00000010
00000000
00010000
00000000
00001000
00000000
00100000
00010000
,
01000000
00100000
10000000
10010000
,
00010000
00000000
01000000
00000000
00001000
00000000
00010000
00000100
,
00001000
00000100
00010000
00011000
,
00001000
01000000
00000000
00100000
00000000
00000000
00010000
01000000
,
00100000
10010000
00000000
00000000
,
00010000
00100000
01000000
10000000
01000000
00000000
00100000
00000000
,
00010000
01000000
00100000
00000000
10000000
00010000
01000000
00010000
,
00100000
00000000
00001000
00000000
00010000
00000100
00001000
00000010
,
00000100
00000010
00001000
00000001
,
00000010
00000001
00000010
00000100
00001000
00000000
00000010
00000000
,
00000100
00000001
00000010
00000000
00000100
00001000
00000010
00010000
,
00001000
00000000
00100000
00000000
00001000
00010000
00001000
01000000
,
00100000
10000000
00010000
00100000
,
20020000
00000000
00000000
30030000
,
01000000
00000000
00010000
00000000
00100000
00000000
00100000
01000000
,
10000000
00100000
01000000
00010000
,
00100000
00001000
00010000
00001000
00100000
00001000
00010000
00000100
,
00001000
00000000
00000010
00000000
00000100
00000001
00000100
00000000
,
00000010
00000000
00001000
00000000
00000001
00000100
00000010
00001000
,
00000000
00000100
00000000
00000100
00010000
00000000
00010000
00001000
,
00100000
00010000
00000000
00010000
01000000
00000000
01000000
00100000
,
00000000
10000000
00000000
10010000
00100000
01000000
10010000
00000000
,
00100000
00000000
01000000
00000000
00010000
00000000
00100000
00001000
,
00010000
00000100
00001000
00000101
,
00000010
00000000
00001000
00000000
00000100
00000000
00010000
00001000
,
00100000
00010000
01000000
10100000
,
01000000
00000000
00010000
00000000
00100000
00000000
00001000
00010000
,
00000010
00000100
00000001
00001100
,
00000010
00000001
00000000
00001000
00000000
00000010
00000100
00000000
,
00000000
00000001
00000000
00001000
00000100
00010000
00000000
00000000
,
00001000
00010000
00001000
00100000
00010000
00000000
01000000
00000000
,
00100000
10000000
00010000
00100000
00010000
01000000
00100000
10000000
,
00010000
00000000
00100000
00000000
00010000
00100000
00001000
00010000
,
00000100
00001000
00000010
00000100
,
00000001
00000010
00000100
00001000
00000010
00000000
00000100
00000000
,
00000010
00001000
00000100
00010000
00001000
00100000
00001000
00010000
,
00000100
00000000
00001000
00000000
00000010
00000100
00000001
00001000
,
00000100
00000010
00000001
00001000
,
00000020
00000000
00000000
00000000
00002000
00000000
00000000
00003030
,
00000010
00000100
00000000
00000010
00000000
00001000
00000100
00000000
,
00010000
00000100
00000000
00001000
00000000
00000010
00000100
00000000
,
00000001
00001000
00000000
00000100
00000000
00010000
00001000
00000000
,
00100000
00010000
00100000
00010000
10000000
01000000
10000000
01000000
,
00100000
00010000
00000000
01000000
00000000
00100000
10000000
00000000
,
00010000
00100000
00000000
01000000
00000000
00100000
00010000
00000000
,
01000000
00001000
00000000
00010000
00000000
00000100
00001000
00000000
,
00000010
00000100
00000010
00000100
00000001
00001000
00000001
00001000
,
00000020
00000000
00000000
00000000
00000000
00000000
00000000
00000030
,
00001001
00000000
00000010
00001000
,
00000100
00000000
00000000
00000000
;
