#TITLE:The Rise of Emo;
#SUBTITLE:;
#ARTIST:Mothball Z;
#TITLETRANSLIT:;
#SUBTITLETRANSLIT:;
#ARTISTTRANSLIT:;
#GENRE:;
#CREDIT:;
#MENUCOLOR:;
#METERTYPE:DDR;
#BANNER:The Rise of Emo-bn.png;
#BACKGROUND:The Rise of Emo-bg.png;
#LYRICSPATH:;
#CDTITLE:ddrencorecdtitle.png;
#MUSIC:The Rise of Emo.mp3;
#OFFSET:-0.024;
#SAMPLESTART:36.751;
#SAMPLELENGTH:10.492;
#SELECTABLE:YES;
#LISTSORT:;
#BPMS:0.000=183.000;
#STOPS:;
#BGCHANGES:;
#ATTACKS:;

//---------------dance-single - ----------------
#NOTES:
     dance-single:
     :
     Challenge:
     10:
     0.822,1.000,0.789,0.045,0.462: // measure 1
0000
0000
0000
0000
,  // measure 2
0000
0000
0000
0000
,  // measure 3
0000
0000
0000
0000
,  // measure 4
0000
0000
0000
0000
,  // measure 5
1001
0000
1100
0000
0110
0000
0010
0001
,  // measure 6
1000
0001
0100
0000
0010
0000
1000
0000
0010
0000
0000
0000
0110
0000
0000
0000
,  // measure 7
0101
0000
1001
0000
1100
0000
0100
0100
,  // measure 8
0010
0000
0000
0000
0001
0000
0000
0000
1000
0000
0000
0000
0010
0000
0100
0001
,  // measure 9
1000
0000
0100
0000
0010
0001
0010
0000
0110
0000
0000
0000
0100
0000
1000
0001
,  // measure 10
1000
0000
0000
1001
0000
0000
0101
0000
,  // measure 11
0000
0000
0100
0000
0010
1000
0010
0000
0110
0000
0100
0000
0001
0000
1000
0000
,  // measure 12
1100
0000
0100
0000
0001
0000
0000
0000
0010
0000
0000
0000
1000
0001
1000
0001
,  // measure 13
1000
0000
0000
0011
,  // measure 14
0000
0000
0000
0000
,  // measure 15
1100
0000
0000
1001
,  // measure 16
0001
0000
0001
0000
0100
0000
0010
1000
0010
1000
0010
0000
0000
0100
0001
0000
,  // measure 17
1001
0000
0100
1001
0000
0100
1001
0000
,  // measure 18
0000
0000
0001
0000
0000
0000
0000
0000
0001
0000
0000
0000
1000
0100
0010
0001
,  // measure 19
1000
0000
0001
1010
0000
0001
1010
0000
,  // measure 20
0110
0000
0100
0000
0001
0000
1000
0000
0001
0010
0001
0010
0001
0000
1000
0000
,  // measure 21
0010
0100
0001
1000
0001
0010
0100
1000
,  // measure 22
1001
0000
0000
1000
0010
0000
0000
0010
0100
0000
0000
0100
0001
0000
0001
1000
,  // measure 23
0100
1000
0001
0100
0001
1000
0010
0100
,  // measure 24
0001
0000
1000
0000
0001
0000
1000
0000
0001
0010
0001
0010
0100
1000
0100
1000
,  // measure 25
0001
0000
0100
0000
0010
0000
1000
0000
0001
0010
0100
0000
1000
0000
0001
0100
,  // measure 26
0010
0000
0010
0000
0100
0000
0100
0001
1000
0100
0010
0000
0100
0000
1000
0002
,  // measure 27
2000
0000
0000
0000
,  // measure 28
0000
0000
3003
0000
,  // measure 29
0001
0000
1000
0100
0010
0000
0100
0000
1000
0000
0001
0000
1000
0010
1000
0000
,  // measure 30
1010
0000
0000
0000
0110
0000
0000
0000
0100
0000
0100
0001
1000
0000
0001
0000
,  // measure 31
1001
0000
0000
0000
1100
0000
0000
0000
0010
0000
0100
1000
0100
0000
0000
0000
,  // measure 32
1100
0000
1001
0000
0101
0000
0100
0100
,  // measure 33
0010
0000
1000
0001
0100
0000
0001
0000
1000
0000
0100
0000
0010
0001
0010
0000
,  // measure 34
0110
0000
0000
0000
1100
0000
0000
0000
1000
0000
1000
0001
0100
0000
0010
0000
,  // measure 35
1010
0000
0000
0000
0101
0000
0000
0000
0001
0000
1000
0010
1000
0000
0000
0000
,  // measure 36
1001
0000
0000
0000
0001
0000
0010
0100
1000
0000
0001
0000
1000
0000
0001
0000
,  // measure 37
0011
0100
0000
0011
0100
0000
0011
0100
,  // measure 38
1000
0001
1000
0000
0000
0000
1000
0001
1000
0000
0000
0000
1000
0001
1000
0000
,  // measure 39
1010
0100
0000
1010
0100
0000
1010
0100
,  // measure 40
0001
0100
0001
0000
0000
0000
0001
0100
0001
0000
0000
0000
0001
0100
0001
0000
,  // measure 41
1001
0000
0000
1000
0100
0000
0010
0000
0001
0000
0001
0000
1000
0000
0010
0000
,  // measure 42
1000
0001
1000
0000
0000
0000
1000
0001
1000
0000
0000
0000
1000
0001
1000
0000
,  // measure 43
1100
0010
0000
1100
0010
0000
1100
0010
,  // measure 44
0001
1000
0001
0000
0000
0000
0001
1000
0001
0000
0000
0000
0001
1000
0001
0000
,  // measure 45
1001
0000
0100
1001
0000
0010
1001
0000
,  // measure 46
1010
0100
0000
1010
0100
0001
1000
0100
,  // measure 47
0011
0000
0100
0011
0000
1000
0011
0000
,  // measure 48
0100
1000
0001
0000
0000
0000
0001
1000
0010
0000
0010
0100
0001
0100
0010
0000
,  // measure 49
1010
0000
0100
1010
0000
0001
1010
0000
,  // measure 50
1001
0010
0000
1001
0010
1000
0001
0010
,  // measure 51
1100
0000
0001
1100
0000
0010
1100
0000
,  // measure 52
1000
0001
1000
0000
0010
0000
1000
0001
1000
0000
0010
0000
1000
0001
1000
0000
,  // measure 53
1001
0011
0110
1100
,  // measure 54
1001
0000
0001
0000
0100
0000
0010
0000
0100
0000
0001
0000
1000
0000
0100
0010
,  // measure 55
0001
1000
0001
0000
0100
0000
1000
0000
0100
0000
0010
0000
0100
0000
0001
0000
,  // measure 56
0100
0100
0100
0010
1000
0001
0010
0100
,  // measure 57
1000
0001
0010
0000
0110
0000
1100
0000
,  // measure 58
1001
0000
0000
0000
1010
0000
0000
0000
0101
0000
0100
0010
1000
0000
0001
0000
,  // measure 59
1001
0101
1010
1001
,  // measure 60
0001
0010
0001
0000
0010
0000
0100
0000
1000
0000
1000
0001
0100
0000
0010
0000
,  // measure 61
0110
1010
1001
0011
,  // measure 62
0110
0000
0000
0000
1100
0000
0000
0000
1001
0000
0001
1000
0100
0000
0010
0000
,  // measure 63
0110
0011
1001
1010
,  // measure 64
0101
0000
1000
0000
0000
0000
0101
0000
1000
0000
0000
0000
0001
0100
0001
1000
,  // measure 65
0100
0010
0100
0000
0000
0000
0100
0010
0100
0000
0000
0000
0100
0010
0100
0000
,  // measure 66
1000
0001
1000
0001
1000
0001
1000
0001
1000
0000
0001
0100
0010
1000
0010
1000
,  // measure 67
0010
0100
0010
0000
0010
0100
0010
0000
0100
0001
1000
0000
1000
0001
1000
0001
,  // measure 68
1000
0000
0001
0010
0001
0010
0001
0010
0001
0000
0010
0100
1000
0001
1000
0001
,  // measure 69
0100
0000
0010
0000
1000
0000
0100
0000
0010
0000
1000
0000
0001
1000
0001
1000
,  // measure 70
0001
0000
0100
0000
0010
0000
1000
0000
0001
1000
0001
0000
0010
0000
0000
0000
,  // measure 71
0000
0000
0100
0000
1000
0000
0001
0000
1000
0000
0010
0100
0000
0000
0001
0000
,  // measure 72
1000
0000
0100
0000
0010
0000
0001
0000
1000
0001
1000
0000
0010
0000
0000
0000
,  // measure 73
0110
0000
0100
0000
0001
1000
0001
1000
0001
0000
1000
0100
1000
0100
1000
0100
,  // measure 74
0010
0000
0001
0000
1000
0000
0010
0000
0100
0001
0100
0000
0001
0000
0000
0000
,  // measure 75
0000
0000
1000
0000
0100
0000
0010
0000
0001
0000
1000
0001
0000
0000
0100
0000
,  // measure 76
0010
0000
1000
0000
0010
0000
0100
0000
0001
1000
0001
0000
0010
0000
0000
0000
,  // measure 77
0100
1000
0100
0000
1000
0000
0001
1000
0001
0000
1000
0010
1000
0000
0010
0100
,  // measure 78
0001
0000
1000
0000
0100
0000
1000
0000
0001
0100
0001
0000
1000
0000
0000
0000
,  // measure 79
0020
0000
0000
0000
,  // measure 80
2030
0000
0000
0000
,  // measure 81
0000
3002
0000
0000
,  // measure 82
0000
0000
0000
0000
,  // measure 83
0000
0003
0000
0000
;

//---------------dance-single - ----------------
#NOTES:
     dance-single:
     :
     Hard:
     9:
     0.671,0.700,0.278,0.045,0.193:
0000
0000
0000
0000
,
0000
0000
0000
0000
,
0000
0000
0000
0000
,
0000
0000
0000
0000
,
1000
1000
0001
0001
,
0100
0010
0100
0000
0001
0000
1000
0000
0100
0000
0000
0000
0010
0000
0000
0000
,
0001
0000
1000
0000
0010
0000
0001
0010
,
0100
0000
0001
0000
1000
0000
0100
0010
,
0001
0000
1000
0000
0001
0100
0001
0000
1000
0000
0000
0000
0010
0000
0100
0000
,
0101
0000
0000
1001
0000
0000
1100
0000
,
0000
0000
0100
0000
0010
0001
0010
0000
0100
0000
1000
0000
0001
0000
0100
0000
,
0110
0000
0010
0000
1000
0000
0000
0000
1000
0000
0000
0001
0010
0001
1000
0000
,
0010
0000
0000
0101
,
0000
0000
0000
0000
,
1001
0000
0000
1100
,
0100
0000
1000
0000
0100
0000
1000
0000
0001
0100
0001
0000
0000
1000
0010
0000
,
0100
0000
0001
1001
0000
1000
1100
0000
,
0000
0000
0100
0000
0000
0000
0000
0000
0010
0000
0000
0000
0001
1000
0010
1000
,
0001
0000
1000
1010
0000
0010
0110
0000
,
0100
0001
1000
0001
1000
0100
0010
0100
,
1000
0010
0100
0010
1000
0001
0010
0100
,
0010
0000
0000
0010
1000
0000
0000
1000
0100
0000
0000
0100
0001
0000
0100
0000
,
0010
1000
0001
0010
0001
1000
0010
0100
,
0001
0000
1000
0000
0001
0000
1000
0000
0001
0000
0100
0000
0010
1000
0010
1000
,
0010
0100
0001
1000
0100
0010
0100
1000
,
0010
0001
0010
0100
0001
1000
0010
1000
,
2002
0000
0000
0000
,
0000
0000
3003
0000
,
1000
0100
1000
0001
0100
0010
1000
0010
,
0100
0000
0001
0000
0010
0000
0100
0000
1000
0000
0001
0100
0000
0000
0010
0000
,
1000
0001
0010
0001
1000
0100
1000
0001
,
0100
0010
1000
0001
0010
0100
0001
0001
,
0100
0010
0001
1000
0001
0100
0010
1000
,
0001
0000
0010
0000
0001
0000
0100
0000
0010
0000
1000
0001
0000
0000
1000
0000
,
0010
0100
0001
1000
0100
0010
0001
0010
,
0100
0000
1000
0000
0001
0000
0100
0001
0100
0000
1000
0000
0100
0000
0001
0000
,
1001
0000
0000
0011
0000
0000
0110
0000
,
0100
1000
0100
0000
0000
0000
1000
0100
1000
0000
0000
0000
0100
1000
0100
0000
,
1000
0000
0000
1001
0000
0000
0101
0000
,
1000
0010
1000
0000
0000
0000
0010
1000
0010
0000
0000
0000
1000
0010
1000
0000
,
0001
0000
0000
1001
0000
0000
1100
0000
,
0010
0001
0010
0000
0000
0000
0001
0010
0001
0000
0000
0000
0010
0001
0010
0000
,
0100
0000
0000
1100
0000
0000
1001
0000
,
0001
0100
0001
0000
0000
0000
0100
0001
0100
0000
0000
0000
0001
0100
0001
0000
,
1000
0000
0010
0110
0000
0100
0101
0000
,
0001
1000
0000
1000
0100
0000
0010
0001
,
1000
0000
0001
0101
0000
0001
1001
0000
,
1000
0100
1000
0000
0000
0000
0001
0010
0001
0000
1000
0000
0010
0000
0100
0000
,
0001
0000
1000
1010
0000
0010
0110
0000
,
0100
0001
0000
0001
1000
0000
0100
0010
,
0001
0000
1000
1010
0000
1000
1001
0000
,
0001
0000
0100
0010
0000
1000
0001
0000
,
0010
0100
1000
0100
0010
0001
1000
0001
,
0100
1000
0010
0001
,
1000
0001
1000
0000
0010
0000
0000
0000
0010
0000
0000
0000
0010
0000
0000
0000
,
0010
0100
0010
0000
0100
0000
0100
0100
,
0001
1000
0100
0010
0001
0010
0100
1000
,
0010
0000
0100
0000
0001
0000
0010
0000
0001
0000
0100
0010
0100
0000
0010
0000
,
1000
0001
0010
0100
1000
0001
0100
0010
,
1000
0001
1000
0000
0001
0000
0010
0000
0100
0000
1000
0001
1000
0000
0010
0000
,
0100
0001
0100
0010
1000
0001
1000
0100
,
0010
0000
0001
0000
0010
0000
0100
0000
1000
0000
0001
0100
0001
0000
0100
0000
,
0010
1000
0010
0100
0001
0010
0001
1000
,
0100
0000
0000
0011
0000
0000
1000
0001
,
0100
0010
0100
0000
0000
0000
0010
0100
0010
0000
0000
0000
0100
0010
0100
0000
,
0010
1000
0010
1000
0010
1000
0001
0010
,
0001
0100
0001
0100
0010
1000
0001
1000
,
0001
0010
0100
0010
0100
1000
0001
0100
,
0001
0000
1000
0000
0100
0000
0001
0000
1000
0000
0100
0000
0010
0001
0010
0001
,
0000
1000
0001
0100
0010
0100
0001
0000
,
0000
0000
1000
0000
0100
0000
0010
0000
0001
0000
1000
0010
0000
0000
0100
0000
,
0000
0010
1000
0010
0100
0001
1000
0000
,
1001
0000
0001
1000
0100
0010
0001
0100
,
0000
0010
1000
0010
0100
0001
1000
0000
,
0000
0000
0100
0000
0010
0000
0001
0000
1000
0000
0010
0100
0000
0000
0001
0000
,
0000
1000
0100
1000
0001
0100
0010
0000
,
0100
0010
1000
0100
0010
0001
1000
0010
,
0000
0100
0001
0100
0010
1000
0001
0000
,
0020
0000
0000
0000
,
0032
0000
0000
0000
,
0000
2003
0000
0000
,
0000
0000
0000
0000
,
0000
3000
0000
0000
;

//---------------dance-single - ----------------
#NOTES:
     dance-single:
     :
     Medium:
     6:
     0.382,0.469,0.054,0.018,0.031:
0000
0000
0000
0000
,
0000
0000
0000
0000
,
0000
0000
0000
0000
,
0000
0000
0000
0000
,
1000
0001
1000
0001
,
0010
0100
1000
0001
1000
0000
0010
0000
,
0100
0001
0010
0100
,
1000
0001
0001
0001
,
1000
0000
0010
0100
0010
0000
1000
0000
,
1001
0000
0000
0000
,
0001
0010
0001
0010
0100
0000
1000
0000
,
1001
0000
0001
0000
0001
0000
1000
0010
,
1000
0000
0000
1001
,
0000
0000
0000
0000
,
1010
0000
0000
0101
,
0001
0000
0000
0000
1000
0000
0100
0000
0010
0000
0001
0000
0000
1000
0000
0000
,
0001
0000
1000
0010
0000
0100
0001
0000
,
0000
1000
0000
0000
1000
0000
0001
0100
,
0010
0000
0100
0010
0000
1000
0010
0000
,
0100
0000
0001
1000
0001
0000
0010
0000
,
0100
0000
1000
0100
1000
0000
0001
0000
,
0100
0000
0000
0100
0010
0000
0000
0010
0100
0000
0000
0100
0010
0000
0000
0000
,
1000
1000
0001
0001
,
0010
0000
0100
0000
1000
0001
1000
0001
,
1000
0000
0010
0000
,
0100
0000
0001
0000
,
2002
0000
0000
3003
0000
0000
0000
0000
,
0000
0000
0000
0000
,
1000
0100
1000
0001
,
0100
0000
0000
0000
0010
0000
0000
0000
1000
0000
0000
0001
0000
0000
1000
0000
,
0001
0100
0010
0100
,
0001
0000
0010
0000
0100
0000
1000
0001
,
1000
0001
0010
0100
,
1000
0000
0000
0000
0001
0000
0000
0000
0100
0000
0000
0010
0000
0000
0100
0000
,
0010
1000
0001
0010
,
0100
0000
0010
0000
0001
1000
0001
1000
,
0001
0000
0000
0100
0000
0000
0010
0000
,
1000
0000
0000
0001
0000
0000
1000
0000
,
0100
0000
0000
0010
0000
0000
0001
0000
,
1000
0000
0000
0010
0000
0000
1000
0000
,
0010
0000
0000
0100
0000
0000
0001
0000
,
1000
0000
0000
0001
0000
0000
1000
0000
,
0100
0000
0000
0010
0000
0000
0001
0000
,
1000
0000
0000
1000
0000
0000
1000
0000
,
0001
0000
0100
0001
0000
0100
0001
0000
,
1000
0000
0000
1000
0000
0000
1000
0000
,
0100
0000
0010
0100
0000
0010
0100
0000
,
0010
0000
0000
0000
0001
1000
0001
0000
,
1000
0000
0010
1000
0000
0010
1000
0000
,
0001
0000
0000
0001
0000
0000
0001
0000
,
0010
0000
0100
0010
0000
0100
0010
0000
,
0001
0000
0100
0001
0000
0100
0001
0000
,
1000
0010
0100
0010
,
1000
0000
0001
0000
,
0100
0100
0100
0100
,
0100
0000
0010
0000
0010
0000
0010
1000
,
0010
1000
0001
0010
,
0001
0000
1000
0000
0001
0000
0100
0001
,
0100
0010
1000
0010
,
0100
0001
0100
0000
0001
1000
0001
0000
,
1000
0100
0010
0001
,
1000
0000
0001
0000
0100
0000
0010
0100
,
0010
0100
0001
1000
,
0100
0000
0000
0100
0000
0000
0010
0000
,
0001
0000
0000
0001
0000
0000
0001
0000
,
1000
0010
0100
0010
,
1000
0001
0010
0001
,
0100
0010
1000
0001
,
1000
0010
0100
0000
0010
0100
0001
0000
,
1000
0000
0000
0001
0000
0000
1000
0000
,
0010
0000
0000
0000
,
0100
0000
0000
0001
,
1000
0100
0010
0000
0001
1000
0001
0000
,
1000
0000
0000
0010
0000
0000
0100
0000
,
0001
0000
0000
0000
,
0010
0000
0000
0100
,
1000
0100
1000
0000
0001
1000
0001
0000
,
0100
0000
0000
0010
0000
0000
1000
0000
,
0001
0000
0000
0000
,
0010
0000
0000
0100
,
0000
0000
0000
1000
0000
0000
0000
0000
0010
0000
0000
0000
0000
0000
0000
0000
;

//---------------dance-single - ----------------
#NOTES:
     dance-single:
     :
     Easy:
     5:
     0.291,0.479,0.054,0.143,0.000:
0000
0000
0000
0000
,
0000
0000
0000
0000
,
0000
0000
0000
0000
,
0000
0000
0000
0000
,
1000
0001
1000
0001
,
0010
0100
1000
0001
,
1000
0001
1000
0010
,
1000
0010
0100
0001
,
1000
0100
0010
0000
,
0110
0000
0000
0000
,
0000
0010
0001
0000
,
1001
1000
1000
0010
,
0100
0000
0000
0110
,
0000
0000
0000
0000
,
0101
0000
0000
1001
,
1000
1000
0100
0010
,
0001
1000
0000
0010
,
0000
0000
0100
0001
,
1000
0100
0000
0010
,
0001
1000
0001
0010
,
0100
1000
0001
0100
,
0020
0230
0320
0230
,
0301
1000
0100
1000
,
0010
0100
0001
1000
,
0100
0000
0000
0000
,
0000
0000
0000
0000
,
0110
0000
0000
0000
,
0000
0000
0000
0000
,
0010
0001
1000
0001
,
0100
0010
1000
0000
,
0001
1000
0100
1000
,
0001
0100
0010
0000
,
0100
0001
0010
0100
,
1000
0001
1000
0000
,
0010
0100
0001
0100
,
0010
1000
0001
0001
,
0010
0000
0000
0010
,
0100
0000
0000
0100
,
1000
0000
0000
1000
,
0001
0000
0000
0001
,
0100
0010
1000
0001
,
0010
0000
0000
0010
,
0001
0000
0000
0001
,
0100
0000
0000
0100
,
0010
1000
0000
1000
,
0001
0000
0000
0001
,
0010
0100
0000
0100
,
1000
0000
0001
0100
,
0010
1000
0000
1000
,
0100
0000
0000
0010
,
0001
1000
0000
1000
,
0010
0010
0010
0010
,
0100
0001
1000
0100
,
1000
0000
0001
0000
,
0100
0010
0100
0010
,
1000
0001
1000
0001
,
0010
0100
1000
0100
,
0010
0001
1000
0000
,
0001
0100
0001
1000
,
0010
0100
0001
0000
,
1000
0100
0010
0100
,
1000
0001
0010
0000
,
0100
1000
0001
1000
,
0010
0000
0000
0010
,
0100
0000
0000
0100
,
0001
0001
0001
1000
,
0100
0100
0010
0001
,
1000
0010
0010
0100
,
0001
1000
0001
1000
,
0200
0000
0000
0000
,
0320
0000
0000
0000
,
0032
0000
0000
0000
,
0000
2003
0000
0000
,
3020
0000
0000
0000
,
0230
0000
0000
0000
,
0302
0000
0000
0000
,
0000
0023
0000
0000
,
0230
0000
0000
0000
,
2300
0000
0000
0000
,
3002
0000
0000
0000
,
0000
0203
0000
0000
,
0000
0000
0000
0000
,
0000
0300
0000
0000
;

//---------------dance-single - ----------------
#NOTES:
     dance-single:
     :
     Beginner:
     3:
     0.156,0.252,0.027,0.000,0.000:
0000
0000
0000
0000
,
0000
0000
0000
0000
,
0000
0000
0000
0000
,
0000
0000
0000
0000
,
1000
0000
0001
0000
,
0100
0100
0100
0000
,
0010
0000
0100
0000
,
0001
0000
1000
0000
,
0001
0000
0000
0000
,
1001
0000
0000
0000
,
1000
0000
0000
0000
,
0001
0000
1000
0000
,
0100
0000
0000
0100
,
0000
0000
0000
0000
,
1000
0000
0000
1000
,
1000
0000
0001
0000
,
0100
0000
0000
0000
,
0010
0000
1000
1000
,
1000
0000
0000
0000
,
0001
0000
1000
0000
,
0100
0000
0010
0000
,
0100
0000
1000
0000
,
0001
0001
0001
0000
,
1000
0000
0010
0000
,
0100
0000
0000
0000
,
0000
0000
0000
0000
,
0110
0000
0000
0000
,
0100
0000
0001
0000
,
1000
0000
0100
0000
,
1000
0000
0001
0000
,
0010
0000
0001
0000
,
0100
0000
0010
0000
,
1000
0000
0010
0000
,
0100
0000
0001
0000
,
1000
0000
0100
0000
,
1000
0000
0010
0000
,
0100
0000
0000
0000
,
0001
0000
0000
0000
,
1000
0000
0000
0000
,
0100
0000
0000
0000
,
1000
0000
0001
0000
,
0010
0000
0000
0000
,
0100
0000
0000
0000
,
1000
0000
0000
0000
,
1001
0000
0000
0000
,
1000
0000
0000
0000
,
0100
0000
0000
0000
,
0010
0000
0001
0000
,
0100
0000
0000
0000
,
0010
0000
0000
0000
,
1000
0000
0000
0000
,
0001
0000
0000
0000
,
1000
0000
0001
0000
,
0010
0000
0000
0000
,
0001
0000
0001
0000
,
1000
0000
1000
0000
,
0010
0000
0100
0000
,
0001
0000
1000
0000
,
0100
0000
0010
0000
,
0001
0001
0001
0001
,
0001
0000
0100
0000
,
0010
0000
1000
0000
,
0001
0000
0010
0000
,
0100
0000
0000
0000
,
1000
0000
0000
0000
,
0010
0000
0010
0000
,
0100
0000
0100
0000
,
0001
0000
1000
0000
,
0100
0000
0010
0000
,
0001
0000
0000
0000
,
1000
0000
0000
0000
,
0010
0000
0000
0000
,
0000
0100
0000
0000
,
0001
0000
0000
0000
,
1000
0000
0000
0000
,
0100
0000
0000
0000
,
0000
0010
0000
0000
,
0001
0000
0000
0000
,
1000
0000
0000
0000
,
0001
0000
0000
0000
,
0000
0100
0000
0000
;

//---------------dance-double - ----------------
#NOTES:
     dance-double:
     :
     Challenge:
     10:
     0.771,1.000,0.699,0.045,0.444:
00000000
00000000
00000000
00000000
,
00000000
00000000
00000000
00000000
,
00000000
00000000
00000000
00000000
,
00000000
00000000
00000000
00000000
,
10000000
00000000
00100000
00000000
01000000
00000000
00010000
10000000
,
01000000
00100000
00001000
00000000
00010000
00000000
00000100
00000000
00001000
00000000
00000000
00000000
00000010
00000000
00000000
00000000
,
00000100
00000000
00000001
00000000
00001000
00000000
00000100
00010000
,
00000100
00000000
00000000
00000000
00001000
00000000
00000000
00000000
00000001
00000000
00000000
00000000
00000100
00000000
00000010
00001000
,
00000010
00000000
00000100
00000000
00000001
00001000
00000001
00000000
00001000
00000000
00000000
00000000
00000100
00000000
00010000
00001000
,
00010000
00000000
00000000
00011000
00000000
00000000
00011000
00000000
,
00000000
00000000
00001000
00000000
01000000
00010000
01000000
00000000
00100000
00000000
10000000
00000000
00000000
00000000
10000000
00000000
,
11000000
00000000
01000000
00000000
00100000
00000000
00000000
00000000
00001000
00000000
00010000
00000000
00001000
00010000
00001000
00010000
,
00000100
00000000
00000000
00001100
,
00000000
00000000
00000000
00000000
,
11000000
00000000
00000000
10010000
,
00010000
00000000
00010000
00000000
01000000
00000000
00100000
10000000
00100000
10000000
00010000
00000000
00000000
00100000
00001000
00000000
,
00011000
00000000
00100000
00011000
00000000
00100000
00011000
00000000
,
00000000
00000000
00000100
00000000
00000000
00000000
00000000
00000000
00000100
00000000
00000000
00000000
00001000
00000100
00000010
00000001
,
00000100
00000000
00000010
00000101
00000000
00000010
00000101
00000000
,
00000010
00000000
00001000
00000001
00000010
00000000
00000100
00000000
00001000
00000001
00001000
00000000
00000010
00000000
00000100
00000000
,
00000010
00001000
00000100
00010000
00001000
01000000
00100000
10000000
,
01000000
00000000
00000000
01000000
00010000
00000000
00000000
00010000
00001000
00000000
00000000
00001000
00000010
00000000
00000001
00000010
,
00000001
00000001
00001000
00001000
00000010
00000010
00000100
00000100
,
00000010
00000000
00001000
00000000
00000010
00000000
00001000
00000000
00000100
00001000
00000100
00001000
00000100
00010000
00000100
00010000
,
00001000
00000000
01000000
00000000
00100000
00000000
10000000
00000000
01000000
00100000
01000000
00000000
00100000
00000000
00001000
00010000
,
00001000
00000000
00010000
00000000
00000010
00000000
00000100
00000001
00000100
00000010
00000100
00000000
00000010
00000000
00001000
00000002
,
00002000
00000000
00000000
00000003
00000000
00000000
00003000
00000000
,
00000000
00000000
00000000
00000000
,
10000000
00000000
01000000
00100000
00010000
00000000
10000000
00000000
00010000
00000000
00100000
00000000
00001000
00010000
00001000
00000000
,
00010000
00000000
00000100
00000000
00001000
00000000
00000010
00000000
00000100
00000000
00000001
00000010
00000001
00000000
00001000
00000000
,
00001010
00000101
00001010
00001100
,
00010100
00000000
00011000
00000000
01001000
00000000
01000000
00100000
,
10000000
00000000
00010000
00100000
01000000
00000000
10000000
00000000
00010000
00000000
01000000
00000000
00100000
10000000
00100000
00000000
,
01000000
00000000
00010000
00000000
00100000
00000000
01000000
00000000
00100000
00000000
00001000
00010000
00001000
00000000
00000010
00000000
,
00000011
00000110
00010100
00011000
,
01001000
00000000
00000000
00000000
01010000
00000000
01000000
00100000
10000000
00000000
00010000
00000000
10000000
00000000
00010000
00000000
,
00110000
00000000
00000000
00101000
00000000
00000000
00011000
00000000
,
00010000
00001000
00010000
00000000
00000000
00000000
00010000
00001000
00010000
00000000
00000000
00000000
00010000
00001000
00010000
00000000
,
00011000
00000000
00000000
00010010
00000000
00000000
00000110
00000000
,
00000100
00000001
00000100
00000000
00000000
00000000
00000100
00000001
00000100
00000000
00000000
00000000
00000100
00000001
00000100
00000000
,
00000101
00000000
00000000
00001001
00000000
00000000
00010100
00000000
,
00010000
00001000
00010000
00000000
00000000
00000000
00010000
00001000
00010000
00000000
00000000
00000000
00010000
00001000
00010000
00000000
,
00011000
00000000
00000000
01001000
00000000
00000000
01010000
00000000
,
01000000
00100000
01000000
00000000
00000000
00000000
01000000
00100000
01000000
00000000
00000000
00000000
01000000
00100000
01000000
00000000
,
01001000
00000000
00010000
01001000
00000000
00010000
01001000
00000000
,
00101000
00000000
00000000
00101000
00000000
00010000
00001000
00000010
,
00000011
00000000
00001000
00000011
00000000
00001000
00000011
00000000
,
00000001
00001000
00000010
00000000
00000000
00000000
00000100
00000001
00000100
00000000
00000010
00001000
00000010
00000100
00000001
00000000
,
00001001
00000000
00000100
00001001
00000000
00000100
00001001
00000000
,
00001100
00000000
00000000
00001100
00000000
00000100
00010000
00001000
,
00011000
00000000
00100000
00011000
00000000
00100000
00011000
00000000
,
00001000
01000000
00001000
00000000
00010000
00000000
00000100
00001000
00000100
00000000
00010000
00000000
00001000
01000000
00001000
00000000
,
01001000
01010000
01100000
10100000
,
10010000
10000000
01000000
00000000
00100000
00000000
00010000
00000000
,
00001000
00000100
00000010
00000001
,
00000010
00000000
00000100
00000000
00001000
00000000
00010000
00100000
,
01000000
11000000
10010000
01010000
,
01100000
00000000
00000000
00000000
10100000
00000000
00000000
00000000
01010000
00000000
00010000
10000000
01000000
00000000
00100000
00000000
,
00001000
00011000
00010100
00001010
,
00001000
00000100
00000010
00000000
00000001
00000000
00001000
00000000
00000010
00000000
00000100
00001000
00010000
00000000
00100000
00000000
,
01000000
01010000
10010000
11000000
,
00110000
00000000
00000000
00000000
00101000
00000000
00000000
00000000
00011000
00000000
00001000
00010000
00000010
00000000
00000100
00000000
,
00000001
00001001
00001100
00000110
,
00000011
00000000
00000100
00000000
00000000
00000000
00000011
00000000
00000100
00000000
00000000
00000000
00000001
00000010
00000001
00001000
,
00000010
00000100
00000010
00000000
00000000
00000000
00000010
00000100
00000010
00000000
00000000
00000000
00000010
00000100
00000010
00000000
,
00001000
00000100
00001000
00000100
00001000
00000100
00001000
00000100
00001000
00000000
00000100
00010000
00001000
00010000
00001000
00010000
,
00001000
01000000
00001000
00000000
00001000
01000000
00001000
00000000
01000000
00100000
10000000
00000000
00010000
00100000
00010000
00100000
,
00010000
00000000
10000000
00010000
10000000
00010000
10000000
00010000
10000000
00000000
00010000
01000000
00001000
00010000
00001000
00010000
,
00000100
00000000
00001000
00000000
00000010
00000000
00000100
00000000
00001000
00000000
00000010
00000000
00000100
00000001
00000100
00000001
,
00001000
00000000
00000100
00000000
00001000
00000000
00000010
00000000
00000100
00000001
00000100
00000000
00000010
00000000
00000000
00000000
,
00000000
00000000
00001000
00000000
00000100
00000000
00000010
00000000
00000001
00000000
00001000
00000010
00000000
00000000
00000100
00000000
,
00000010
00000000
00001000
00000000
00000001
00000000
00000010
00000000
00000100
00001000
00000100
00000000
00000010
00000000
00000000
00000000
,
00000011
00000000
00000001
00000000
00001000
00000100
00001000
00000100
00010000
00000000
00001000
00010000
00001000
00010000
00001000
00010000
,
00001000
00000000
01000000
00000000
00010000
00000000
00100000
00000000
01000000
10000000
01000000
00000000
10000000
00000000
00000000
00000000
,
00000000
00000000
00010000
00000000
01000000
00000000
00100000
00000000
10000000
00000000
00100000
01000000
00000000
00000000
00010000
00000000
,
10000000
00000000
00010000
00000000
01000000
00000000
00100000
00000000
01000000
00010000
01000000
00000000
00100000
00000000
00000000
00000000
,
10000000
00010000
10000000
00010000
00100000
00000000
00001000
00010000
00001000
00000000
00010000
00001000
00010000
00000000
00001000
00010000
,
00000100
00000000
00001000
00000000
00000001
00000000
00000100
00000000
00000010
00001000
00000010
00000000
00000100
00000000
00000000
00000000
,
00000020
00000000
00000000
00000000
,
00020030
00000000
00000000
00000000
,
00000000
00002000
00000000
00000000
,
00000000
00000000
00000000
00000000
,
00000000
00033000
00000000
00000000
;

//---------------dance-double - ----------------
#NOTES:
     dance-double:
     :
     Hard:
     9:
     0.722,0.774,0.394,0.027,0.264:
00000000
00000000
00000000
00000000
,
00000000
00000000
00000000
00000000
,
00000000
00000000
00000000
00000000
,
00000000
00000000
00000000
00000000
,
10000000
00000000
00010000
00000000
01000000
00000000
00100000
01000000
,
00001000
00010000
00000100
00000010
00000001
00000000
00000010
00000000
,
00000100
00000000
00001000
00000000
00010000
00000000
00100000
01000000
,
10000000
00000000
10000000
00000000
10000000
00000000
10000000
00100000
,
01000000
00100000
10000000
00010000
00100000
00000000
00000000
00000000
,
00011000
00000000
00000000
00011000
00000000
00000000
00011000
00000000
,
00000000
00010000
00000100
00001000
00000010
00000100
00000010
00001000
,
00000100
00000000
00000010
00000000
00000001
00000000
00000000
00000000
00000001
00000000
00000000
00000000
00000100
00000010
00000100
00000010
,
00001000
00000000
00000000
00001100
,
00000000
00000000
00000000
00000000
,
00011000
00000000
00000000
01010000
,
01000000
00000000
01000000
00000000
00100000
00000000
10000000
00010000
10000000
00010000
10000000
00000000
00000000
00010000
00100000
00000000
,
01000000
00000000
10000000
10010000
00000000
00010000
01010000
00000000
,
00000000
00000000
01000000
00000000
00000000
00000000
00000000
00000000
00001000
00000000
00000000
00000000
00010000
00000100
00010000
00000100
,
00001000
00000000
00000100
00001100
00000000
00001000
00001010
00000000
,
00000010
00000000
00000100
00000001
00000100
00000000
00000010
00000000
00001000
00000000
00000100
00000000
00000010
00000000
00000100
00000000
,
00010000
00001000
01000000
00100000
10000000
01000000
00100000
00001000
,
00000010
00000000
00000000
00000010
00000001
00000000
00000000
00000001
00001000
00000000
00000000
00001000
00000010
00000000
00000100
00000001
,
00000100
00000010
00001000
00000100
00000010
00000001
00001000
00000010
,
00010000
00000000
00001000
00000000
00010000
00000000
00001000
00000000
00100000
00000000
00001000
00000000
00100000
00010000
00100000
00010000
,
00100000
01000000
10000000
00100000
01000000
10000000
01000000
00100000
,
10000000
01000000
00100000
00001000
00100000
00010000
01000000
00001000
,
00011000
00000000
00000000
00000000
,
00000000
00000000
00000000
00000000
,
10000000
00000000
00010000
00000000
01000000
00000000
00100000
00000000
10000000
00000000
00010000
00000000
00100000
00001000
00100000
00000000
,
01000000
00000000
10000000
00000000
00010000
00000000
01000000
00000000
00100000
00000000
01000000
00001000
01000000
00000000
00001000
00000000
,
00010000
00000100
00000010
00000001
00000100
00001000
00010000
00100000
,
01000000
00010000
10000000
01000000
00100000
00001000
01000000
01000000
,
00100000
00000000
10000000
00000000
00010000
00000000
00100000
00000000
00001000
00000000
00000010
00000000
00000100
00001000
00000100
00000000
,
00001000
00000000
00000100
00000000
00000010
00000000
00000001
00000000
00000100
00000000
00000010
00010000
00000010
00000000
00000100
00000000
,
00000001
00001000
00000100
00000010
00000100
00001000
00010000
00100000
,
01000000
00000000
10000000
00000000
00010000
00000000
01000000
00001000
00010000
00000000
00001000
00000000
00010000
00000000
00001000
00000000
,
00011000
00000000
00000000
00010100
00000000
00000000
00001100
00000000
,
00000100
00000010
00000100
00000000
00000000
00000000
00000010
00000100
00000010
00000000
00000000
00000000
00000100
00000010
00000100
00000000
,
00001100
00000000
00000000
00011000
00000000
00000000
01001000
00000000
,
01000000
00100000
01000000
00000000
00000000
00000000
00100000
01000000
00100000
00000000
00000000
00000000
01000000
00100000
01000000
00000000
,
01010000
00000000
00000000
00011000
00000000
00000000
00001100
00000000
,
00000010
00000001
00000010
00000000
00000000
00000000
00000001
00000010
00000001
00000000
00000000
00000000
00000010
00000001
00000010
00000000
,
00001100
00000000
00000000
00011000
00000000
00000000
01001000
00000000
,
10000000
00100000
10000000
00000000
00000000
00000000
00100000
10000000
00100000
00000000
00000000
00000000
10000000
00100000
10000000
00000000
,
10010000
00000000
00010000
10010000
00000000
10000000
10010000
00000000
,
11000000
00000000
00000000
00110000
00000000
00000000
00001100
00000000
,
00001001
00000000
00001000
00001001
00000000
00000001
00001001
00000000
,
00001000
00000010
00001000
00000000
00000000
00000000
00000010
00000000
00001000
00000000
00000100
00000000
00010000
00001000
00010000
00000000
,
00011000
00000000
00001000
00011000
00000000
00010000
00011000
00000000
,
01001000
00000000
00000000
01100000
00000000
00000000
10100000
00000000
,
10010000
00000000
00010000
10010000
00000000
10000000
10010000
00000000
,
10000000
01000000
10000000
00000000
00001000
00000000
10000000
01000000
10000000
00000000
00001000
00000000
10000000
01000000
10000000
00000000
,
00010000
01000000
00100000
10000000
01000000
00100000
00001000
00010000
,
00000100
00000010
00000001
00000100
00000010
00000001
00000010
00001000
,
00000100
00010000
00000100
00000000
00100000
00000000
00010000
00000000
01000000
00000000
10000000
00000000
01000000
00000000
00100000
00000000
,
10000000
01000000
00010000
00001000
00000010
00000001
00001000
00001000
,
00000100
00001000
00000001
00000100
00000010
00001000
00000100
00010000
,
00000100
00000000
00001000
00000000
00000010
00000000
00000100
00000000
00000001
00000000
00000010
00000100
00010000
00000000
00001000
00000000
,
00010000
00001000
01000000
00100000
10000000
00100000
01000000
00010000
,
10000000
01000000
00100000
00000000
00001000
00000000
00010000
00000000
00000100
00000000
00010000
00001000
00100000
00000000
00001000
00000000
,
00010000
00000010
00000100
00000001
00001000
00000100
00000010
00000001
,
00001000
00000000
00000010
00000000
00000100
00000000
00001000
00000000
00010000
00000000
00100000
01000000
00010000
00000000
10000000
00000000
,
01000000
00100000
01000000
10000000
00010000
01000000
00100000
10000000
,
10010000
00000000
00000000
00000000
00000000
00000000
10010000
00000000
00000000
00000000
00000000
00000000
10000000
01000000
00100000
00001000
,
00100000
00001000
00100000
00000000
00000000
00000000
00001000
00100000
00001000
00000000
00000000
00000000
00100000
00001000
00100000
00000000
,
00001000
00010000
00001000
00010000
00001000
00010000
00000100
00001000
,
00000010
00000100
00000010
00000100
00000001
00001000
00000100
00010000
,
00000100
00010000
00001000
00010000
00001000
01000000
00100000
10000000
,
00010000
00000000
10000000
00000000
01000000
00000000
00010000
00000000
10000000
00000000
01000000
00000000
00100000
00010000
00100000
00010000
,
10000000
00100000
01000000
00010000
00100000
01000000
10000000
00000000
,
00000000
00000000
00010000
00000000
01000000
00000000
00010000
00000000
10000000
00000000
01000000
00100000
00000000
00000000
00001000
00000000
,
01000000
00100000
10000000
01000000
00100000
01000000
10000000
00000000
,
10010000
00000000
00010000
00000000
00100000
00001000
00100000
00001000
00100000
00000000
00001000
00010000
00001000
00010000
00001000
00010000
,
00000100
00001000
00000010
00000100
00000001
00000010
00000001
00000000
,
00000000
00000000
00001000
00000000
00000010
00000000
00000100
00000000
00000001
00000000
00001000
00000100
00000000
00000000
00010000
00000000
,
00000010
00000100
00000010
00001000
00000001
00000010
00000100
00000000
,
00001000
00000100
00001000
00000000
00000100
00000000
00010000
00001000
00010000
00000000
00001000
01000000
00001000
00000000
01000000
00010000
,
10000000
00100000
01000000
00100000
10000000
00010000
00100000
00000000
,
02000000
00000000
00000000
00000000
,
03002000
00000000
00000000
00000000
,
00000000
00020000
00000000
00000000
,
00000000
00000000
00000000
00000000
,
00000000
00033000
00000000
00000000
;

//---------------dance-double - ----------------
#NOTES:
     dance-double:
     :
     Medium:
     6:
     0.368,0.469,0.054,0.000,0.022:
00000000
00000000
00000000
00000000
,
00000000
00000000
00000000
00000000
,
00000000
00000000
00000000
00000000
,
00000000
00000000
00000000
00000000
,
00010000
00000000
00001000
00000000
00010000
00000000
00001000
00010000
,
00001000
01000000
00100000
10000000
,
01000000
00100000
00010000
10000000
,
00100000
00000000
01000000
00000000
00010000
00000000
10000000
01000000
,
00100000
00001000
00010000
00000100
,
00001100
00000000
00000000
00001100
00000000
00000000
00001100
00000000
,
00000000
00000100
00000010
00000000
00000001
00000000
00001000
00000000
,
00000010
00000100
00000001
00000000
00000001
00000000
00001000
00000100
,
00001000
00000000
00000000
00001100
,
00000000
00000000
00000000
00000000
,
00011000
00000000
00000000
10010000
,
10000000
00000000
00100000
00000000
10000000
00000000
00000000
00000000
00100000
00000000
01000000
00000000
00000000
00100000
00000000
00000000
,
01000000
00000000
00010000
10000000
00000000
10000000
01000000
00000000
,
00000000
00100000
00000000
00000000
00100000
00000000
00100000
00001000
,
00010000
00000000
00001000
00010000
00000000
00010000
00000100
00000000
,
00001000
00000000
00000001
00000100
00000001
00000000
00000100
00000000
,
00000010
00000000
00001000
00000000
00000001
00000000
00000010
00000100
,
00001000
00000000
00000000
00001000
00000100
00000000
00000000
00000100
00001000
00000000
00000000
00001000
00000100
00000000
00000000
00000000
,
00001000
00000000
00000001
00000100
00000001
00000000
00000100
00000000
,
00000010
00000000
00001000
00000000
00000100
00000000
00010000
00001000
,
00010000
00001000
01000000
00100000
,
10000000
01000000
00100000
01000000
,
10000000
00000000
00000000
00000000
,
00000000
00000000
00000000
00000000
,
10000000
00000000
00010000
00000000
01000000
00000000
00100000
10000000
,
00100000
01000000
00001000
00100000
,
00010000
10000000
01000000
00100000
,
01000000
10000000
00100000
01000000
,
00001000
00000000
00010000
00000000
00000100
00000000
00001000
00000100
,
00001000
00000100
00000010
00000001
,
00001000
00000010
00000100
00000010
,
00001000
00000000
00000100
00000000
00010000
00001000
00010000
00001000
,
00010000
00000000
00000000
00001000
00000000
00000000
01000000
00000000
,
00100000
00000000
00000000
00100000
00000000
00000000
00100000
00000000
,
10000000
00000000
00000000
01000000
00000000
00000000
00100000
00000000
,
00001000
00000000
00000000
00001000
00000000
00000000
00001000
00000000
,
00010000
00000000
00000000
00000100
00000000
00000000
00001000
00000000
,
00000001
00000000
00000000
00000001
00000000
00000000
00000001
00000000
,
00000100
00000000
00000000
00000010
00000000
00000000
00001000
00000000
,
00000100
00000000
00000000
00000100
00000000
00000000
00000100
00000000
,
00001000
00000000
00000100
00010000
00000000
00010000
00001000
00000000
,
00100000
00010000
00000000
00010000
10000000
00000000
00100000
00000000
,
01000000
00000000
00010000
10000000
00000000
10000000
01000000
00000000
,
00100000
00000000
00000000
00010000
10000000
00000000
00100000
00000000
,
01000000
00000000
00010000
00100000
00000000
00001000
00010000
00000000
,
00001000
00000000
00000000
00001000
00000000
00000000
00001000
00000000
,
00010000
00000000
00000100
00001000
00000000
00001000
00000001
00000000
,
00000100
00000000
00000010
00001000
00000000
00001000
00000100
00000000
,
00001000
00000100
00000010
00000001
,
00000100
00000000
00000010
00000000
,
00001000
00001000
00000100
00000100
,
00010000
00010000
00001000
00001000
,
01000000
01000000
00100000
10000000
,
00010000
00000000
00100000
00000000
01000000
00000000
00100000
00010000
,
00100000
01000000
10000000
00010000
,
01000000
00000000
00100000
00000000
10000000
00000000
00010000
10000000
,
00010000
00100000
00001000
00100000
,
00010000
00000000
01000000
00000000
00001000
00000000
00010000
00001000
,
00010000
00000100
00001000
00000001
,
00000100
00000000
00000000
00000010
00000000
00000000
00000100
00000000
,
00000001
00000000
00000000
00000001
00000000
00000000
00000001
00000000
,
00000000
00001000
00000100
00001000
,
00000010
00000100
00000010
00001000
,
00000100
00010000
00001000
01000000
,
00100000
10000000
00100000
00000000
10000000
00100000
00000000
01000000
,
00010000
00000000
00000000
10000000
00000000
00000000
01000000
00000000
,
00100000
00000000
00000000
00000000
,
00001000
00000000
00000000
00010000
,
00000000
00000000
00000010
00000000
,
00000100
00000000
00000000
00000001
00000000
00000000
00001000
00000000
,
00000100
00000000
00000000
00000000
,
00010000
00000000
00000000
00001000
,
00000000
00000000
01000000
00000000
,
00100000
00000000
00000000
10000000
00000000
00000000
00010000
00000000
,
00100000
00000000
00000000
00000000
,
00000000
00000000
00000000
00001000
,
00000000
00000000
00000000
00010000
00000000
00000000
00000000
00000000
00000100
00000000
00000000
00000000
00000000
00000000
00000000
00000000
;

//---------------dance-double - ----------------
#NOTES:
     dance-double:
     :
     Easy:
     4:
     0.268,0.473,0.027,0.143,0.000:
00000000
00000000
00000000
00000000
,
00000000
00000000
00000000
00000000
,
00000000
00000000
00000000
00000000
,
00000000
00000000
00000000
00000000
,
10000000
10000000
00010000
00010000
,
00100000
00000000
00010000
00000000
,
01000000
00000000
00001000
00000000
,
00010000
00000000
00000000
00000000
,
00000100
00001000
00000001
00000000
,
00001001
00000000
00000000
00000000
,
00000000
00000010
00001000
00000000
,
00001010
00000010
00000010
00010000
,
00001000
00000000
00000000
00001000
,
00000000
00000000
00000000
00000000
,
00100000
00000000
00000000
00100000
,
01000000
01000000
10000000
00010000
,
01000000
00100000
00000000
01000000
,
00000000
00000000
00010000
10000000
,
01000000
00100000
00000000
00001000
,
00010000
00000000
00000100
00000000
,
00001000
00000001
00000100
00000001
,
00002000
00003200
00020300
00032000
,
00013000
00000100
00001000
00000001
,
00000100
00000010
00001000
00000100
,
00010000
00000000
00000000
00000000
,
00001000
00000000
00000000
00000000
,
00011000
00000000
00000000
00000000
,
00000000
00000000
00000000
00000000
,
00001000
00100000
00010000
10000000
,
00100000
01000000
00010000
00000000
,
10000000
01000000
00100000
00010000
,
01000000
00001000
00010000
00000000
,
00000100
00001000
00000001
00000100
,
00000010
00000100
00000001
00000000
,
00001000
00000100
00000010
00000100
,
00001000
00000001
00000100
00000100
,
00000010
00000000
00000000
00000010
,
00001000
00000000
00000000
00001000
,
00000100
00000000
00000000
00000100
,
00010000
00000000
00000000
00010000
,
00001000
00010000
00001000
00100000
,
01000000
00000000
00000000
01000000
,
10000000
00000000
00000000
10000000
,
00010000
00000000
00000000
00010000
,
01000000
00100000
00000000
01000000
,
00001000
00000000
00010000
00000000
,
00000100
00001000
00000000
00001000
,
00000001
00000000
00000100
00000000
,
00000010
00001000
00000000
00001000
,
00000100
00000000
00010000
00000000
,
00001000
00100000
00000000
00100000
,
00010000
00000000
10000000
00000000
,
00100000
01000000
00100000
10000000
,
00010000
00000000
00100000
00000000
,
00001000
00000000
00010000
00000000
,
00000100
00000000
00001000
00000000
,
00000001
00001000
00000001
00000100
,
00000010
00001000
00000100
00000000
,
00001000
00000100
00000010
00000001
,
00001000
00000010
00000100
00000000
,
00000010
00001000
00000100
00010000
,
00001000
01000000
00100000
00000000
,
10000000
01000000
00100000
00010000
,
10000000
00000000
00000000
10000000
,
00100000
00000000
00000000
00100000
,
01000000
00010000
01000000
00001000
,
00010000
00001000
00010000
00000100
,
00001000
00000001
00000100
00000001
,
00000010
00000100
00000010
00000100
,
00002000
00000000
00000000
00000000
,
00003200
00000000
00000000
00000000
,
00020300
00000000
00000000
00000000
,
00000000
00032000
00000000
00000000
,
02003000
00000000
00000000
00000000
,
03200000
00000000
00000000
00000000
,
20300000
00000000
00000000
00000000
,
00000000
32000000
00000000
00000000
,
03200000
00000000
00000000
00000000
,
00302000
00000000
00000000
00000000
,
00023000
00000000
00000000
00000000
,
00000000
00030020
00000000
00000000
,
00000000
00000030
00000000
00000000
;
