#TITLE:The One That Got Away;
#SUBTITLE:;
#ARTIST:Katy Perry;
#TITLETRANSLIT:;
#SUBTITLETRANSLIT:;
#ARTISTTRANSLIT:;
#GENRE:Teenage Dream;
#CREDIT:;
#MENUCOLOR:;
#METERTYPE:DDR;
#BANNER:The One That Got Away-bn.png;
#BACKGROUND:The One That Got Away-bg.png;
#LYRICSPATH:The One That Got Away-lrc.lrc;
#CDTITLE:DDREncore2.png;
#MUSIC:The One That Got Away.mp3;
#OFFSET:-0.014;
#SAMPLESTART:73.459;
#SAMPLELENGTH:13.881;
#SELECTABLE:YES;
#LISTSORT:;
#BPMS:0.000=134.000;
#STOPS:;
#BGCHANGES:;
#ATTACKS:;

//---------------dance-single - [Ness]----------------
#NOTES:
     dance-single:
     [Ness]:
     Hard:
     7:
     0.497,0.452,0.202,0.361,0.032: // measure 1
0000
0000
0000
0000
,  // measure 2
0000
0000
0000
0000
,  // measure 3
0001
0010
1000
0100
,  // measure 4
0001
0011
1000
1010
,  // measure 5
0001
0100
1000
0010
,  // measure 6
0001
0101
1000
1100
,  // measure 7
0001
1000
0010
0000
0100
0000
0101
0000
,  // measure 8
0100
0001
0000
0000
0001
0010
0000
0000
0010
0100
0000
0000
1100
0000
0001
0000
,  // measure 9
0200
0000
0301
0000
2000
0000
3100
0010
,  // measure 10
0002
0000
1003
0000
0020
0000
1030
0001
,  // measure 11
0100
0010
0100
0001
0100
0010
1000
0000
,  // measure 12
0010
0100
0001
0200
0000
0000
0301
0000
,  // measure 13
0010
0100
1000
0100
0010
0100
0000
1000
,  // measure 14
0100
0010
0001
0020
0000
0000
0130
1000
,  // measure 15
0001
0100
0001
0100
1000
0100
0000
0000
,  // measure 16
0001
0010
0000
0000
0010
0001
0000
0000
0001
1000
0000
0000
1000
0000
0100
0000
,  // measure 17
0010
0011
0100
1001
,  // measure 18
0010
1000
0000
0001
0000
0100
0000
1001
,  // measure 19
0002
0000
0010
0000
1003
0100
0010
0001
,  // measure 20
2000
0000
0010
0000
3001
0100
0010
1000
,  // measure 21
0002
0000
0100
0000
1003
0001
0010
0100
,  // measure 22
2000
0000
0100
0000
3001
0100
0010
1000
,  // measure 23
0001
0000
0200
0010
0310
0000
2000
0100
,  // measure 24
3100
0000
0020
0001
0031
0000
2000
0001
,  // measure 25
3001
0101
1000
1100
,  // measure 26
0001
0100
0000
0010
0000
1000
0000
0001
,  // measure 27
0010
0001
2000
0000
3001
0100
0010
1000
,  // measure 28
0002
0000
1000
0000
0013
0001
1000
0100
,  // measure 29
0020
0000
0100
0000
0031
1000
0010
0100
,  // measure 30
0002
0000
1000
0000
0103
0001
1000
0010
,  // measure 31
0100
0000
0002
0010
0013
0000
2000
0010
,  // measure 32
3010
0000
0002
0100
0103
0000
2000
0100
,  // measure 33
3100
0000
1100
0000
0001
0000
0101
0001
,  // measure 34
0010
0000
0110
0000
0100
1000
0001
0000
,  // measure 35
2001
0000
0010
0000
0001
0000
3010
1000
,  // measure 36
0001
0010
0001
0010
1000
0010
1000
0010
,  // measure 37
0002
0000
0010
0000
1000
0000
0013
0001
,  // measure 38
1000
0010
1000
0010
0001
0010
0001
0010
,  // measure 39
2000
0000
0100
0000
0001
0000
3100
1000
,  // measure 40
0001
0100
0001
0100
1000
0100
1000
0100
,  // measure 41
0002
0100
1000
0103
,  // measure 42
0001
0010
0000
0110
0000
0100
0000
1000
,  // measure 43
0020
0000
1000
0000
0130
0010
1000
0001
,  // measure 44
0020
0000
0100
0000
0031
0100
0010
1000
,  // measure 45
0002
0000
0010
0000
1003
0001
0100
0010
,  // measure 46
2000
0000
0100
0000
3010
1000
0100
0010
,  // measure 47
0001
0000
0200
0001
0301
0000
2000
0010
,  // measure 48
3010
0000
0002
0010
0013
0000
2000
0100
,  // measure 49
3100
0000
0101
0000
1000
0000
0011
0010
,  // measure 50
0001
0000
1000
0000
0001
0100
0001
0000
,  // measure 51
1001
0000
0000
0000
;

//---------------dance-single - [Ness]----------------
#NOTES:
     dance-single:
     [Ness]:
     Medium:
     5:
     0.378,0.345,0.340,0.170,0.000:
0000
0000
0000
0000
,
0000
0000
0000
0000
,
1000
0001
0010
0011
,
0010
0100
1000
1001
,
1000
0010
0100
0110
,
0100
0001
1000
1001
,
0001
0010
0001
1001
,
1000
0100
1000
1001
,
0001
0010
0100
1001
,
1000
0010
0100
1001
,
0002
1000
1003
1001
,
2000
0001
3001
1001
,
0020
0100
0130
1001
,
0200
0010
0310
1001
,
2000
0100
3100
0011
,
0020
0001
0031
1100
,
0002
0100
0103
1010
,
2000
0010
3010
0101
,
0001
0100
0001
0000
0010
0000
0100
0000
,
1000
0010
0100
0001
,
1000
0100
1000
0000
0010
0000
0100
0000
,
0001
0010
0100
1000
,
0001
1000
0001
0000
0010
0000
0100
0000
,
1000
0001
1000
0000
0010
0000
0100
0000
,
1001
0010
0001
0010
,
1000
0010
1000
0000
0001
0000
1000
0000
,
1001
1000
0001
1001
,
0001
0010
0001
0000
0010
0000
0100
0000
,
1000
0010
0100
0001
,
1000
0010
1000
0000
0010
0000
0100
0000
,
1001
0100
0001
0010
,
1001
0100
0001
0010
,
1001
0100
0001
0010
,
0001
0010
0001
0000
1000
0000
0100
0000
,
2200
0000
0000
3300
,
0001
1000
0001
1000
0001
1000
0001
0000
,
0202
0000
0000
0303
,
1000
0001
1000
0001
1000
0001
1000
0000
,
0022
0000
0000
0033
,
1000
0001
1000
0001
1000
0001
1000
0000
,
2020
0000
0000
3030
,
0001
0010
0100
1000
,
1001
0010
0001
0100
,
1001
0010
0001
0100
,
1001
0010
0001
0100
,
0001
0010
0001
0000
0010
0000
0100
0000
,
1001
0010
1000
0100
,
1001
0010
1000
0100
,
0010
1000
0010
0000
0001
0000
0010
0000
,
0100
1000
0001
0000
0100
0000
0100
0000
,
1001
0000
0000
0000
;

//---------------dance-single - [Ness]----------------
#NOTES:
     dance-single:
     [Ness]:
     Easy:
     4:
     0.299,0.292,0.021,0.021,0.000:
0000
0000
0000
0000
,
0000
0000
0000
0000
,
1000
0100
1000
0100
,
1000
0010
1000
0010
,
0100
0001
0100
0001
,
0010
0001
0010
0001
,
0010
0100
0010
0100
,
1000
1000
1000
1000
,
1000
0010
0100
0001
,
0010
0001
0100
0001
,
1000
0010
1000
0010
,
0100
0001
0010
0001
,
1000
0001
1000
0001
,
0010
0100
1000
0100
,
0010
0001
1000
0001
,
0100
0100
0100
0100
,
0100
0010
1000
0100
,
0010
0010
0010
0010
,
0001
1000
0001
1000
,
0010
0010
0010
0010
,
1000
0001
1000
0001
,
0010
0001
0100
0010
,
2000
0100
0100
3100
,
0002
0100
0100
0103
,
0001
0010
0100
1000
,
0010
1000
0010
0100
,
1001
1000
1000
1000
,
0010
0001
0010
1000
,
0001
0010
0001
0010
,
1000
0010
0001
0010
,
0001
0100
1000
0100
,
0001
0100
1000
0100
,
0001
0010
0100
1000
,
0001
1000
0010
0100
,
0001
0001
0001
0001
,
0010
0100
0010
0100
,
1000
1000
1000
1000
,
0010
0100
0010
0100
,
0001
0001
0001
0001
,
0010
0100
0010
0100
,
1000
1000
1000
1000
,
0010
0010
0010
0010
,
1000
0100
0010
0001
,
0010
0100
1000
0001
,
1000
0010
0100
0001
,
0010
0100
1000
0001
,
0010
0001
0100
1000
,
0100
0001
0010
0100
,
1000
0001
1000
0010
,
0100
0001
1000
0001
,
1001
0000
0000
0000
;

//---------------dance-single - Blank----------------
#NOTES:
     dance-single:
     Blank:
     Beginner:
     1:
     0.120,0.133,0.074,0.000,0.000:
0000
0000
0000
0000
,
0000
0000
0000
0000
,
0010
0000
0000
0000
,
1000
0000
0000
0000
,
0001
0000
0000
0000
,
0100
0000
0000
0000
,
0010
0000
0100
0000
,
0001
0000
1000
0000
,
0001
0000
0000
0000
,
0000
0000
0000
0000
,
0010
0000
0000
0000
,
0100
0000
0000
0000
,
1000
0000
0000
0000
,
0001
0000
0000
0000
,
0100
0000
0010
0000
,
1000
0000
0001
0000
,
1000
0000
0000
0000
,
1001
0000
0000
0000
,
0110
0000
0000
0000
,
1000
0000
1000
0000
,
1000
0000
0000
0000
,
0001
0000
0001
0000
,
0001
0000
0001
0000
,
1000
0000
1000
0000
,
0100
0000
0000
0000
,
1001
0000
0000
0000
,
0110
0000
0000
0000
,
1000
0000
1000
0000
,
1000
0000
0000
0000
,
0001
0000
0001
0000
,
0001
0000
0001
0000
,
1000
0000
1000
0000
,
0100
0000
0000
0000
,
0010
0000
0010
0000
,
0010
0000
0000
0000
,
0100
0100
0100
0100
,
0000
0000
0000
0000
,
0100
0100
0100
0100
,
0000
0000
0000
0000
,
0100
0100
0100
0100
,
0000
0000
0000
0000
,
1001
0000
0000
0000
,
0110
0000
0000
0000
,
1000
0000
1000
0000
,
1000
0000
0000
0000
,
0001
0000
0001
0000
,
0001
0000
0001
0000
,
1000
0000
1000
0000
,
0100
0000
0000
0000
,
0010
0000
0010
0000
,
1001
0000
0000
0000
;

//---------------dance-double - [Ness]----------------
#NOTES:
     dance-double:
     [Ness]:
     Hard:
     7:
     0.439,0.425,0.330,0.244,0.032:
00000000
00000000
00000000
00000000
,
00000000
00000000
00000000
00000000
,
00000001
00000010
00001000
00011000
,
00010000
00100000
10000000
10010000
,
10000000
01000000
00010000
00011000
,
00001000
00000100
00000001
00001001
,
00000001
00000010
00000100
00000000
00001000
00000000
00000110
00000000
,
00000100
00000001
00000000
00000000
00000001
00000100
00000000
00000000
00000100
00001000
00000000
00000000
00000100
00000000
00000010
00000000
,
00010000
00001000
00100000
00110000
,
10000000
10010000
01000000
01010000
,
01000000
00100000
10000000
00100000
01000000
00100000
10000000
00000000
,
00100000
01000000
00010000
02000000
00000000
00000000
03010000
00000000
,
00100000
00001000
00010000
00001000
00100000
00001000
00000000
00010000
,
00000100
00010000
00001000
00010000
00000000
00000000
00011000
00000000
,
00010000
00000100
00001000
00000000
00000010
00000000
00000100
00000000
,
00000001
00000010
00000000
00000000
00000010
00000001
00000000
00000000
00000001
00000100
00000000
00000000
00000010
00000000
00001000
00000000
,
00000100
00011000
01000000
00010000
,
10000000
00100000
00000000
01000000
00000000
00010000
00000000
10010000
,
00020000
00100000
00031000
00011000
,
00002000
00000100
00003001
00001001
,
00000002
00000100
00000013
00000011
,
00000020
00000100
00000031
00000110
,
00000100
00000000
00010000
00002000
00000000
00003000
01000000
00020000
,
00000000
00030000
10000000
00200000
00000000
00300000
10000000
01000000
,
10000000
00010000
00100000
10010000
,
10000000
00100000
00000000
01000000
00000000
00010000
00000000
10010000
,
00020000
01000000
00130000
01100000
,
00200000
00001000
00310000
00011000
,
00000200
00001000
00000310
00001010
,
00000020
00000001
00000130
00000101
,
00000001
00000000
00001000
00000200
00000000
00000300
00010000
00002000
,
00000000
00003000
01000000
00020000
00000000
00030000
10000000
01000000
,
00000000
00000000
11000000
00000000
00010000
00000000
10000000
00010000
,
00100000
00000000
00001000
00000000
00010000
00001000
00010000
00000000
,
00021000
00000000
00000100
00000000
00001000
00000000
00030100
00001000
,
00000010
00000001
00000010
00000001
00000010
00000001
00000010
00000001
,
00000010
00000000
00001000
00000000
00000100
00000000
00000001
00000100
,
00001000
00010000
00001000
00010000
00001000
00010000
00001000
00010000
,
00100000
00000000
01000000
00000000
10000000
00000000
00010000
01000000
,
10000000
01000000
10000000
01000000
10000000
01000000
10000000
01000000
,
00010000
10000000
00100000
10010000
,
10000000
00100000
00000000
10000000
00000000
01000000
00000000
10010000
,
00020000
00100000
00031000
00011000
,
00002000
00000100
00003001
00001001
,
00000002
00000100
00000013
00000011
,
00000020
00000100
00000031
00000110
,
00000100
00000000
00010000
00002000
00000000
00003000
00100000
00020000
,
00000000
00030000
10000000
02000000
00000000
03000000
10000000
00100000
,
01000000
00000000
00001000
00000000
00010000
00000000
00011000
00010000
,
00000010
00000000
00000100
00000000
00000001
00001000
00000001
00000000
,
00001001
00000000
00000000
00000000
;

//---------------dance-double - [Ness]----------------
#NOTES:
     dance-double:
     [Ness]:
     Medium:
     5:
     0.363,0.372,0.149,0.266,0.000:
00000000
00000000
00000000
00000000
,
00000000
00000000
00000000
00000000
,
00100000
00001000
00010000
00001000
,
01000000
00010000
10000000
00000000
,
00010000
00100000
00001000
00010000
,
00000010
00001000
00000001
00000000
,
00000100
00000010
00000100
00000000
,
00001001
00000101
00001100
00000101
,
00000100
00000100
00000010
00000010
,
00010000
00010000
00001000
00001000
,
01000000
00010000
10000000
00010000
,
00100000
01000000
10000000
00000000
,
00100000
10000000
00010000
01000000
,
00001000
00010000
00001000
00000000
,
00010000
00000100
00000010
00000000
,
00001001
00000101
00001100
00000101
,
00000100
00000100
00000010
00000010
,
00010000
00001000
01000000
00010000
,
02010000
00010000
03010000
10000000
,
02000000
10000000
13000000
00010000
,
00200000
00001000
00301000
00010000
,
00000020
00001000
00001030
00000001
,
00000020
00000130
00000200
00010300
,
00002000
01003000
02000000
03010000
,
10000000
01000000
00100000
01100000
,
00001000
00010000
00000000
00001000
00000000
00010000
00000000
00001000
,
00020000
00000010
00030010
00000100
,
00000002
00000010
00000013
00000100
,
00020000
00000100
00030100
00010000
,
00002000
01000000
01003000
00010000
,
20000000
30100000
00200000
01300000
,
02000000
03010000
00020000
00130000
,
00001000
00010000
00000100
00001100
,
00000100
00000000
00000010
00000000
00000100
00000010
00000100
00000000
,
00000210
00000010
00000010
00000310
,
00000001
00001000
00000001
00001000
00000001
00001000
00000001
00000000
,
00000100
00000100
00000100
00000100
,
00000001
00001000
00000001
00001000
00000001
00001000
00000001
00000000
,
00001000
00001000
00000100
00000100
,
00010000
00001000
00010000
00001000
00010000
00001000
00010000
00000000
,
00001000
01000000
00010000
00100000
,
01000000
00100000
00000000
01000000
00000000
00100000
00000000
01000000
,
20000000
01000000
31000000
10000000
,
00020000
01000000
01030000
00010000
,
00200000
00001000
00301000
00010000
,
00000020
00001000
00001030
00000100
,
00000020
00000031
00000200
00000310
,
00002000
00003100
00020000
00031000
,
01000000
00010000
00100000
01100000
,
00100000
00000000
01000000
00000000
10000000
00010000
10000000
00000000
,
10010000
00000000
00000000
00000000
;

//---------------dance-double - [Ness]----------------
#NOTES:
     dance-double:
     [Ness]:
     Easy:
     2:
     0.178,0.213,0.032,0.032,0.000:
00000000
00000000
00000000
00000000
,
00000000
00000000
00000000
00000000
,
00100000
00000000
00001000
00000000
,
00010000
00000000
00000100
00000000
,
00001000
00000000
00000010
00000000
,
00000001
00000000
00000010
00000000
,
00001000
00000000
00000100
00000000
,
00010000
00010000
00001000
00001000
,
01000000
00000000
00010000
00000000
,
10000000
00000000
01000000
00000000
,
00100000
00000000
00100000
00000000
,
00001000
00000000
00010000
00000000
,
00000010
00000000
00000010
00000000
,
00010000
00000000
00001000
00000000
,
01000000
00000000
00100000
00000000
,
10000000
10000000
01000000
01000000
,
00100000
00000000
00001000
00000000
,
00010000
00000000
00000100
00000000
,
00001001
00000000
00000001
00000000
,
00001000
00000001
00001000
00000001
,
00001000
00000000
00000010
00000000
,
00010000
00001000
00010000
00001000
,
00010000
00000000
00000100
00000000
,
00010000
00000000
00001000
00000000
,
02000000
00000000
00000000
00000000
,
03100000
00000000
10000000
00000000
,
01000000
00000000
00100000
00000000
,
00001000
00010000
00001000
00010000
,
00000010
00000000
00000100
00000000
,
00000001
00001000
00000001
00001000
,
00000001
00000000
00000010
00000000
,
00000100
00000000
00010000
00000000
,
00002000
00000000
00000000
00000000
,
01003000
00000000
00010000
00000000
,
10010000
00000000
00000000
00000000
,
00010000
00010000
00010000
00010000
,
00100000
00000000
00000000
00000000
,
01000000
01000000
01000000
01000000
,
00100000
00000000
00000000
00000000
,
00001000
00001000
00001000
00001000
,
00010000
00000000
00000000
00000000
,
00000100
00000000
00000010
00000000
,
00000001
00000000
00000000
00000000
,
00000100
00000010
00000100
00000010
,
00010000
00000000
00001000
00000000
,
01000000
00010000
01000000
00010000
,
10000000
00000000
01000000
00000000
,
00010000
00000000
01000000
00000000
,
20000000
00000000
00000000
00000000
,
30010000
00000000
01000000
00000000
,
10010000
00000000
00000000
00000000
;
