#TITLE:The One That Got Away;
#SUBTITLE:(Valentin Mix);
#ARTIST:Natasha Bedingfield;
#TITLETRANSLIT:;
#SUBTITLETRANSLIT:;
#ARTISTTRANSLIT:;
#GENRE:;
#CREDIT:;
#MENUCOLOR:;
#METERTYPE:DDR;
#BANNER:The One That Got Away (Valentin Mix)-bn.png;
#BACKGROUND:The One That Got Away (Valentin Mix)-bg.png;
#LYRICSPATH:The One That Got Away (Valentin Mix)-lrc.lrc;
#CDTITLE:DDREncore2.png;
#MUSIC:The One That Got Away (Valentin Mix).mp3;
#OFFSET:-1.810;
#SAMPLESTART:19.210;
#SAMPLELENGTH:14.560;
#SELECTABLE:YES;
#LISTSORT:;
#BPMS:0.000=66.530,4.000=133.050,163.000=66.525,171.000=133.050;
#STOPS:128.000=0.451
;
#BGCHANGES:;
#ATTACKS:;

//---------------dance-single - ----------------
#NOTES:
     dance-single:
     :
     Hard:
     7:
     0.446,0.440,0.280,0.168,0.068: // measure 1
0000
0000
0000
0000
,  // measure 2
1000
0010
2020
3030
,  // measure 3
0001
0010
0001
0000
0022
0000
0033
0000
,  // measure 4
1000
0100
1000
0100
0010
0000
0001
0100
,  // measure 5
0001
0100
0010
0000
1001
0000
0000
1000
,  // measure 6
0020
0000
0100
0000
1030
0000
0001
1000
,  // measure 7
0010
0000
1000
0200
0000
0000
0310
0001
,  // measure 8
0000
0101
0000
1000
0000
0001
0000
0000
,  // measure 9
1001
0000
0110
0000
0000
0001
0010
0100
,  // measure 10
1001
0000
1000
0010
1000
0100
0010
0001
,  // measure 11
0000
0001
0100
0001
0100
0000
0001
0010
,  // measure 12
0001
0000
0010
0100
0000
1000
0000
1001
,  // measure 13
0000
1000
0001
1000
0100
0000
0010
0001
,  // measure 14
0100
0000
0001
0010
0000
0011
0000
0010
,  // measure 15
0000
0100
0000
1000
0001
0000
0100
0010
,  // measure 16
1000
1000
0010
0010
0100
0001
0010
0200
,  // measure 17
0000
1000
0000
0310
0100
0000
1001
1000
,  // measure 18
0010
0000
1000
0100
0010
0001
0100
0010
,  // measure 19
0000
1000
0010
0100
0001
0000
1000
0001
,  // measure 20
0010
0000
0100
1000
0010
0200
0000
0000
,  // measure 21
0301
0000
0000
0000
0010
0000
0000
0000
0100
0000
0000
0000
1000
0000
0000
0000
0000
0000
0001
0000
0000
1000
0000
0000
,  // measure 22
0010
0000
1000
0001
0000
0100
0010
1000
,  // measure 23
0100
0000
1000
0010
0000
1000
0010
0100
,  // measure 24
0001
0000
0010
0002
0000
0000
1003
0100
,  // measure 25
0001
0100
1000
1001
,  // measure 26
0001
0010
0100
1000
,  // measure 27
0001
1000
0001
0000
0100
0000
0010
0000
,  // measure 28
1000
0000
0000
0010
0100
0000
0001
0000
0100
0000
0000
0000
0100
0000
0000
0000
,  // measure 29
0010
1000
0001
0000
0010
0001
1000
0000
,  // measure 30
0100
1000
0010
0000
0100
0000
0001
0000
,  // measure 31
1000
0001
0010
0000
0100
0000
1000
0000
,  // measure 32
1001
0000
1000
0100
1001
0000
0001
0010
,  // measure 33
1001
0000
0000
0000
0000
0000
0000
0000
0000
0000
0000
0000
0001
0000
0000
1000
,  // measure 34
0000
0000
0010
0000
1000
0000
0000
0100
0000
0000
0010
0000
0001
0000
0000
0100
,  // measure 35
0000
0000
0001
0000
0010
0000
0000
0100
0000
0000
0100
0000
1000
0000
0000
0001
,  // measure 36
0000
0000
0100
0000
0001
0000
0000
1000
0000
0000
0010
0000
1000
0000
0000
0001
,  // measure 37
0000
0000
0010
0000
0100
0000
0000
0100
0000
0000
1000
0000
0010
0000
1000
0000
,  // measure 38
0100
0000
1000
0000
1000
0000
0010
0001
,  // measure 39
0100
0000
0001
0000
0001
0000
0010
1000
,  // measure 40
0100
0000
0010
0001
0100
0000
0001
0000
,  // measure 41
1000
0200
0300
2001
,  // measure 42
0010
3010
0000
0210
,  // measure 43
0001
0301
0000
1002
,  // measure 44
1000
1000
1003
2001
,  // measure 45
0001
0000
0000
0000
0001
0000
0000
0000
3001
0000
0000
0000
0210
0000
0000
0010
,  // measure 46
0000
0000
0310
0000
1002
0000
0000
1000
0000
0000
1003
0000
0010
0000
0000
0100
,  // measure 47
0000
0010
1001
0000
0001
0100
0010
0000
,  // measure 48
1000
0001
0010
0100
1000
0001
0000
0100
,  // measure 49
0010
1000
0100
0000
1000
0010
0100
0000
,  // measure 50
0001
1000
0000
0100
0000
0110
0000
0010
,  // measure 51
0100
1000
0001
0000
0100
0010
1000
0000
,  // measure 52
0001
0100
0000
1001
0000
0001
0000
1000
,  // measure 53
0010
0100
0001
0000
1000
0100
0010
0010
,  // measure 54
0001
0001
1000
0100
1000
0002
0000
1000
,  // measure 55
0000
0000
0103
0000
0110
0000
0000
0101
0000
0000
1001
0000
0100
0000
0000
0000
,  // measure 56
1000
0010
0100
0001
0010
0200
0000
1300
,  // measure 57
0100
0010
0001
0000
1000
0001
0100
0000
,  // measure 58
0010
0000
0000
1000
0000
0000
0010
0000
0000
0200
0000
0000
0000
0000
0000
0000
0000
0000
0301
0000
0000
0000
0010
0000
,  // measure 59
0000
0000
0100
0000
0000
0000
1000
0000
0000
0000
0000
0000
1000
0000
0000
0001
0000
0000
0011
0000
0000
0000
0000
0000
,  // measure 60
0001
1000
0000
0010
0100
0001
0101
0000
,  // measure 61
0010
1000
0000
0010
0100
0001
1001
0000
,  // measure 62
0010
0000
1100
0000
0010
0000
0101
1000
,  // measure 63
0000
0001
0000
1000
0010
0100
1001
0000
,  // measure 64
0100
1010
0110
2002
,  // measure 65
0000
0000
0000
3003
;

//---------------dance-single - ----------------
#NOTES:
     dance-single:
     :
     Medium:
     5:
     0.332,0.362,0.208,0.016,0.000:
0000
0000
0000
0000
,
1000
0001
1001
0000
,
0010
0001
0100
0001
,
1000
0010
0100
0000
,
0100
0001
0010
0000
,
0010
0100
1000
0010
,
0100
0010
1000
0000
,
1001
0010
1000
0001
,
1001
0110
0000
0000
,
1001
0000
1000
0000
0001
0000
0100
0010
,
0000
0010
0000
1000
0100
0000
1000
0000
,
0001
0000
0010
0001
0000
0001
0000
1000
,
0000
0001
0000
0100
0001
0000
0100
0000
,
0010
0000
0010
1000
0000
0100
0000
0010
,
0000
0001
0000
1000
0000
0000
0100
0000
,
1000
0001
1000
0000
0010
0000
0100
0001
,
0000
1000
0000
0001
0000
0000
0010
0000
,
1001
0000
0100
0000
1000
0000
0001
0100
,
0000
0100
0001
0000
1000
0000
0010
0000
,
0100
0000
0001
0100
0001
0000
1000
0000
,
0100
0010
0110
0000
,
0001
0000
1000
0001
0000
0001
0100
0000
,
0010
0000
0010
0100
0000
0000
0001
0000
,
1000
0000
1000
0001
0000
0000
0100
0000
,
0010
0000
0100
0000
,
1001
0010
0001
0100
,
1000
0010
0001
0100
,
0010
1000
0010
0000
1000
0000
0100
0000
,
0010
0001
0010
0000
0001
0000
0100
0000
,
1001
0010
1000
0100
,
0001
0010
1000
0100
,
0010
0000
0001
0100
0010
0000
1000
0100
,
0010
0000
0000
0001
,
1000
0001
0101
1000
,
0001
1000
1100
0010
,
1000
0100
0110
0010
,
0001
0100
0110
1001
,
0010
0001
0100
1001
,
0010
1000
0100
1001
,
0001
1001
1000
0010
,
0100
0010
0000
1001
,
1000
0001
0000
1001
,
0001
1000
0000
1000
,
0100
0010
0001
0000
1000
0000
0001
0000
,
0100
0010
1000
0000
0001
0000
0100
0000
,
0100
0001
0010
0000
0100
1000
0010
0000
,
0100
0000
1001
0000
0010
0001
0010
0000
,
0100
0000
1000
0000
0010
1000
0000
1000
,
0000
0100
0010
0000
0001
0000
0100
0000
,
0010
1000
0000
1000
0000
0100
0000
0010
,
0000
0001
0100
0000
0001
0010
0001
0000
,
0100
0010
0000
0010
0000
1000
0000
0100
,
0000
0010
0000
0000
0001
0000
1000
0001
,
1000
0000
0010
0000
0100
0010
0000
0010
,
0000
0100
0000
0000
0001
0010
0100
0000
,
1000
0001
0100
0010
,
0110
0000
1001
0000
1000
0100
0010
0000
,
0001
0100
0010
1001
,
0110
1001
1000
0100
,
0010
0100
0000
0100
1000
0000
0001
0000
,
1000
0010
0000
0000
0100
0000
0001
0000
,
1000
0100
0000
0000
0001
0000
1000
0100
,
0000
0000
0010
0000
0001
0000
1000
0001
,
0100
0000
0001
1000
0010
0100
2002
0000
,
0000
0000
0000
3003
;

//---------------dance-single - ----------------
#NOTES:
     dance-single:
     :
     Easy:
     3:
     0.210,0.233,0.216,0.032,0.000:
0000
0000
0000
0000
,
0100
0000
1001
0000
,
0100
0000
1001
0000
,
0001
0000
0010
0000
,
0100
0000
1000
0000
,
0010
0100
0001
0000
,
0001
1000
0010
0000
,
1001
0000
0000
0000
,
0110
0000
0000
0000
,
1000
0000
0001
0000
,
1000
0010
1001
0000
,
0001
0000
1000
0000
,
0001
0010
1001
0000
,
0010
0000
1000
0010
,
0100
0001
1000
0000
,
0001
0000
1000
0000
,
0200
0000
0300
0000
,
1000
0000
0001
0000
,
1000
0010
0100
0100
,
0001
0000
1000
0000
,
1001
0110
1001
0000
,
1000
0000
0001
0000
,
0010
0001
0100
0000
,
0001
0000
1000
0000
,
0010
1000
0100
0000
,
1001
0000
0100
0000
,
0010
0001
0100
0010
,
1000
0000
0100
0000
,
0010
0100
1000
0000
,
0010
0000
1000
0000
,
0100
0010
0001
0000
,
1000
0010
0100
0001
,
1001
0000
0000
1000
,
0000
0001
0010
0001
,
0000
1000
0100
1000
,
0000
0001
0100
0001
,
0010
0100
0000
1001
,
0000
1000
0000
0101
,
0000
0100
0000
1010
,
0000
0011
0000
1001
,
0000
0000
0000
0110
,
0000
0000
0000
1001
,
0000
0000
0000
0010
,
0010
1000
1000
0010
,
0010
0100
0100
0001
,
0000
1000
0000
0100
,
0100
1001
0000
1001
,
0000
1000
0000
0010
,
0100
0001
0000
0001
,
0000
1000
0000
0100
,
1000
0010
0000
1000
,
0010
0100
0000
0100
,
0001
0010
0000
0001
,
0000
0100
0000
0020
,
0000
0030
0000
1001
,
0000
0100
0000
0010
,
1000
0100
0010
0001
,
0000
1000
0000
1001
,
0110
1001
0000
0100
,
1000
0010
0000
0100
,
0001
0010
0000
0110
,
0000
0000
1001
0000
,
0000
0001
0000
0100
,
0000
0010
0000
2002
,
0000
0000
0000
3003
;

//---------------dance-single - ----------------
#NOTES:
     dance-single:
     :
     Beginner:
     1:
     0.106,0.155,0.176,0.016,0.000:
0000
0000
0000
0000
,
0100
0000
0000
0000
,
0001
0000
0000
0000
,
1000
0000
0000
0000
,
0010
0000
0000
0000
,
1000
0000
0000
0000
,
0100
0000
0000
0000
,
0010
0000
0000
0000
,
0001
0000
0000
0000
,
1001
0000
0000
0000
,
0100
0000
0000
0000
,
1001
0000
0000
0000
,
0010
0000
0000
0000
,
1001
0000
0000
0000
,
0010
0000
0000
0000
,
1001
0000
0000
0000
,
0100
0000
0000
0000
,
0110
0000
0000
0000
,
1000
0000
0000
0000
,
0110
0000
0000
0000
,
0001
0000
1000
0000
,
0110
0000
0000
1000
,
0000
0000
0000
0000
,
0110
0000
0000
0000
,
0001
0000
0000
0000
,
1000
0000
0000
0000
,
0000
0000
0000
0000
,
0100
0000
0000
0000
,
0000
0000
0000
0000
,
0001
0000
0000
0000
,
0000
0000
0000
0000
,
0010
0000
0010
0000
,
0010
0000
0000
1001
,
0000
0000
0000
0000
,
0000
0000
0000
1001
,
0000
0000
0000
0000
,
0000
0000
0000
0100
,
0100
0000
0000
0100
,
0100
0000
0000
0001
,
0000
0010
0000
1000
,
0000
0000
0000
1001
,
0000
0000
0000
0000
,
0000
0000
0000
0010
,
0000
0010
0000
0100
,
0000
0100
0000
1001
,
0000
1001
0000
0100
,
0000
1001
0000
1001
,
0000
0000
0000
0100
,
0000
0000
0000
1001
,
0000
0000
0000
0010
,
0000
0000
0000
1001
,
0000
0000
0000
1000
,
0000
0000
0000
1001
,
0000
0000
0000
0001
,
0000
0000
0000
0110
,
0000
0000
0000
1000
,
0000
0000
0000
0110
,
0000
0000
0000
0001
,
0000
1000
0000
0110
,
0000
0000
0000
1000
,
0000
0000
0000
0010
,
0000
0000
0010
0000
,
0000
0000
0000
0001
,
0000
1000
0000
2002
,
0000
0000
0000
3003
;

//---------------dance-double - ----------------
#NOTES:
     dance-double:
     :
     Hard:
     8:
     0.480,0.465,0.319,0.160,0.068:
00000000
00000000
00000000
00000000
,
00000100
00001000
00000100
00001000
00000020
00000000
00000030
00000100
,
00000001
00000100
00000001
00001000
00000020
00000000
00001030
00000000
,
00000100
00010000
00000100
00001000
00000200
00000000
00010300
00001000
,
00010000
01000000
00100000
00000000
00002000
00000000
01003000
00010000
,
01000000
00000000
01000000
00100000
00000000
00100000
10000000
00000000
,
00010000
00000000
00100000
00001000
00000000
00001000
00010000
00000000
,
00021000
00030100
00002100
00003010
,
00000100
00000001
00000000
00001000
00000000
00000100
00000010
00000001
,
00001001
00000000
00001000
00000100
00010000
00001000
00010000
01000000
,
00000000
01000000
00100000
01000000
00100000
00010000
10000000
00100000
,
01000000
00000000
01000000
00010000
00000000
00100000
00000000
01000000
,
00000000
00100000
00001000
00010000
00001000
00000010
00000100
00001000
,
00000010
00000000
00000100
00000001
00000000
00000101
00000000
00001000
,
00000000
00000100
00000000
00001100
00000000
00000100
00010000
00001000
,
01000000
01000000
00010000
00010000
10000000
10000000
00100000
01100000
,
00000000
10010000
00000000
00120000
00000000
00000000
01030000
00010000
,
01010000
00000000
00100000
10000000
01000000
00010000
00000000
01000000
,
00000000
00100000
00001000
00010000
00001000
00000000
00010000
00000100
,
00001000
00000000
00000010
00000100
00000000
00000001
00000000
00000000
,
00000010
00000000
00000000
00000000
00000100
00000000
00000000
00000000
00001000
00000000
00000000
00000000
00001001
00000000
00000000
00000000
00000000
00000000
00000001
00000000
00000000
00000100
00000000
00000000
,
00000010
00000000
00010000
00001000
00000000
00100000
00001000
00100000
,
00010000
00000000
01000000
00100000
00000000
10000000
01000000
00100000
,
00001000
00000000
00010000
00000100
00000000
00001000
00000010
00000100
,
00000002
00000013
00000011
00001001
,
00000101
00000000
00000001
00000100
00001000
00000000
00010000
00100000
,
10000000
00000000
01000000
00010000
00001000
00000000
00000010
00000001
,
00001000
00000000
00000000
00000100
00001000
00000000
00000100
00000000
00010000
00000000
00000000
00000000
00001000
00000000
01000000
00000000
,
00010000
00000000
10000000
00100000
01000000
00000000
00010000
00000000
,
11000000
00000000
10000000
01000000
00010000
00000000
00001000
00000010
,
00000001
00000000
00000100
00001000
00010000
00000000
00100000
10000000
,
10020000
01030000
02010000
03001000
,
00021000
00000000
00000000
00000000
00001000
00000000
00000000
00001000
00000000
00000000
00031000
00000000
00011000
00000000
00000000
00000100
,
00000000
00000000
00000100
00000000
00000010
00000000
00000000
00000010
00000000
00000000
00000001
00000000
00000100
00000000
00000000
00000001
,
00000000
00000000
00001000
00000000
00000100
00000000
00000000
00010000
00000000
00000000
00001000
00000000
01000000
00000000
00000000
00100000
,
00000000
00000000
00100000
00000000
10000000
00000000
00000000
10000000
00000000
00000000
01000000
00000000
00100000
00000000
00000000
00001000
,
00000000
00000000
00010000
00000000
00000100
00000000
00000000
00001000
00000000
00000000
00000010
00000000
00000100
00000000
00000001
00000000
,
00000010
00000000
00001000
00010000
01000000
10000000
00100000
00010000
,
00001000
00000000
00000100
00000001
00000010
00001000
00010000
01000000
,
10000000
00000000
10000000
01000000
00010000
00000000
00010000
01000000
,
10000000
01000000
00010000
00000000
00001000
00000000
00021000
00000000
,
00000100
00030010
00000000
00012000
,
01000000
00103000
00000000
00021000
,
00001000
00001000
00031000
00012000
,
00010000
00000000
00000000
00000000
00010000
00000000
00000000
00000000
00013000
00000000
00000000
00000000
00021000
00000000
00000000
00000100
,
00000000
00000000
00030100
00000000
00012000
00000000
00000000
01000000
00000000
00000000
01003000
00000000
01001000
00000000
00000000
00011000
,
00000000
00001100
00011000
00000000
00001000
00100000
00110000
00000000
,
00100000
00010000
01000000
00100000
10000000
01000000
00000000
10000000
,
00100000
00010000
00001000
00000000
00010000
00000100
00000010
00000000
,
00000001
00000100
00000000
00000001
00000000
00000101
00000000
00000100
,
00000010
00001000
00000100
00000000
00010000
00001000
00011000
00000000
,
00001000
01000000
00000000
00010000
01000000
00100000
10000000
00000000
,
01000000
00100000
00000000
00001000
00010000
00000100
00001000
00001000
,
00000010
00000010
00000100
00000100
00000001
00000200
00000000
00000001
,
00000000
00001000
00000300
00000000
00000101
00000001
00001000
00000000
,
00000100
00001000
00000100
00000001
00000000
00000101
00000000
00000100
,
00001000
00010000
01000000
00000000
01000000
10000000
00010000
00000000
,
01000000
00000000
00000000
00100000
00000000
00000000
00000000
00000000
00000000
10000000
00000000
00000000
00010000
00000000
00000000
00000000
00000000
00000000
10000000
00000000
00000000
00000000
00100000
00000000
,
00000000
00000000
01000000
00000000
00000000
00000000
00010000
00000000
00000000
00000000
00000000
00000000
00100000
00000000
00000000
00001000
00000000
00000000
00010000
00000000
00000000
00000000
00000000
00000000
,
00000100
00001000
00000000
00000010
00000001
00000010
00010000
00000000
,
00001000
01000000
00000000
10000000
01000000
00100000
10100000
00000000
,
10000000
00010000
10010000
00000000
00100000
00000000
00011000
00001000
,
00010000
00000000
00001100
00001000
00000010
00000100
00000101
00000100
,
00000001
00000010
00000110
00000010
00000100
00010000
00022000
00000000
,
00000000
00000000
00000000
00033000
;

//---------------dance-double - ----------------
#NOTES:
     dance-double:
     :
     Medium:
     6:
     0.359,0.388,0.367,0.144,0.012:
00000000
00000000
00000000
00000000
,
01000000
00010000
01010000
00000000
,
00010000
00100000
00010000
00000000
10000000
00000000
01000000
00000000
,
00100000
00001000
00011000
00000000
,
00010000
00000100
00001000
00000000
00000010
00000000
00000100
00000000
,
00000001
00000010
00000100
00000000
,
00001000
00000100
00001000
00000000
00000010
00000000
00000100
00000000
,
00001001
00000000
00000100
00000000
,
00011000
00000000
00000000
00000000
,
10010000
00000000
00010000
00000000
00100000
00000000
00001000
00010000
,
00000000
00010000
00001000
00000000
00000100
00000000
00000010
00000000
,
00001001
00000000
00001000
00000100
00000000
00000100
00000000
00010000
,
00000000
00001000
00010000
00000000
00011000
00000000
00100000
00000000
,
01100000
00000000
01000000
10000000
00000000
10000000
00000000
00100000
,
00000000
10000000
00000000
00010000
00000000
00000000
00100000
00000000
,
00001000
00000000
00010000
00000000
00000100
00000010
00000000
00000110
,
00000000
00001100
00000000
00001100
00000000
00000000
00000010
00000000
,
00001001
00000000
00000001
00000000
00001000
00000001
00000000
00001000
,
00000000
00000100
00010000
00000000
00001000
00000000
01000000
00000000
,
10010000
00000000
10000000
00010000
00000000
00010000
00000000
00000000
,
00100000
00001000
00010000
00000010
,
00001001
00000000
00001000
00000001
00000000
00000100
00000001
00000000
,
00001000
00000000
00000100
00001000
00000000
00000000
00000100
00000000
,
00011000
00000000
00100000
00001000
,
00010000
00001000
01000000
00100000
,
10000000
00100000
10000000
00000000
01000000
00000000
00010000
00000000
,
00001000
00000100
00000001
00000000
,
00000010
00000010
00000100
00000100
,
00001000
00000001
00001000
00000000
00000010
00000000
00001001
00000000
,
00000001
00000100
00000001
00000000
00000010
00000000
00001000
00000000
,
00010000
00100000
10000000
00000000
,
22000000
33000000
02020000
03030000
,
10010000
00000000
00000000
00012000
,
00013000
00000200
00001300
00002000
,
00003010
00000200
00000301
00000002
,
00000013
00000200
00010300
00020000
,
00031000
00000000
02000000
00000000
03100000
00000000
00100000
10000000
,
00100000
00000000
00010000
00000000
00001000
00000000
00000100
00000001
,
00000100
00000001
00000010
00000022
,
00000033
00002200
00003300
00001001
,
00001001
00000010
00000000
00000110
,
00000100
00010000
00000000
00011000
,
00001000
01000000
00000000
10010000
,
00010000
10000000
00100000
10010000
,
10000000
00000000
00000000
00000000
00010000
00000000
00000000
00000000
00100000
00000000
00000000
00000000
00001000
00000000
00000000
00001000
,
00000000
00000000
00001000
00000000
00010000
00000000
00000000
00010000
00000000
00000000
00010000
00000000
00000100
00000000
00000000
00001000
,
00000000
00000100
00001001
00000000
00000010
00000100
00001001
00000000
,
00001000
00000000
00000010
00000000
00010000
00001000
00000000
00001000
,
00010000
01000000
00100000
10010000
,
00010000
01000000
00000000
01000000
00000000
00001000
00000000
00010000
,
00001000
00011000
00000010
00000110
,
00000100
00000001
00000000
00000001
00000000
00000010
00000000
00000001
,
00000000
00001000
00000000
00000000
00000010
00000000
00010000
00000000
,
00001000
00000000
01000000
00100000
00000000
01100000
00000000
01010000
,
00000000
01010000
00000000
00000000
00100000
00000000
10010000
00000000
,
10000000
00000000
00010000
10000000
00000000
00010000
00000000
01000000
,
00001000
00010000
00000100
00001001
,
00000001
00001000
00000000
00001000
00000000
00000000
00000010
00000000
,
00010000
00001000
00100000
10010000
,
00010000
10000000
00000000
01000000
10000000
00000000
00010000
00000000
,
01000000
00010000
00000000
00000000
01000000
00000000
00011000
00000000
,
00000000
00001100
00010000
00000110
,
00000010
00000110
00000100
00001001
,
00000001
00001001
00000010
00022000
,
00000000
00000000
00000000
00033000
;

//---------------dance-double - ----------------
#NOTES:
     dance-double:
     :
     Easy:
     3:
     0.216,0.207,0.280,0.032,0.000:
00000000
00000000
00000000
00000000
,
00000100
00000000
00000110
00000000
,
00000010
00000000
00001001
00000000
,
00000100
00000000
00011000
00000000
,
00100000
00000000
01010000
00000000
,
00010000
00000000
00100000
00000000
,
01000000
00000000
10000000
00000000
,
10010000
00000000
00100000
00000000
,
10010000
00000000
01000000
00000000
,
00010000
00100000
01000000
00000000
,
00100000
00001000
00010000
00000000
,
00010000
00000010
00000100
00000000
,
00000010
00010000
00001000
00000000
,
00001000
00000000
00100000
00000000
,
01000000
00100000
00001000
00000000
,
00010000
00000000
00000010
00000000
,
00000100
00000010
00010000
00000000
,
00011000
00000000
00000100
00000000
,
00000100
00001000
00000010
00000000
,
00001001
00000000
00000100
00000000
,
00000010
00000000
00010000
00000000
,
00011000
00000000
00000100
00000000
,
00011000
00000000
00100000
00000000
,
00200000
00000000
01300000
00000000
,
02000000
00000000
03100000
00000000
,
10010000
00000000
01000000
00000000
,
00010000
00100000
00001000
00010000
,
00000010
00000000
00001000
00000000
,
00000001
00000010
00000001
00000010
,
00000100
00000000
00010000
00000000
,
00001000
00000000
00001000
00000000
,
01100000
00000000
10010000
00000000
,
01100000
00000000
00000000
10000000
,
00000000
00010000
00100000
00010000
,
00000000
01000000
00001000
01000000
,
00000000
00001000
00010000
00001000
,
00100000
00001000
00000000
00011000
,
00000000
00000100
00000000
00001100
,
00000000
00000010
00000000
00000110
,
00000000
00001001
00000000
00000101
,
00000000
00000000
00000000
00001001
,
00000000
00000000
00000000
00011000
,
00000000
00000000
00000000
00001000
,
00001000
01000000
01000000
00010000
,
00010000
10000000
10000000
00010000
,
00000000
00100000
00000000
01000000
,
01000000
10010000
00000000
10010000
,
00000000
00100000
00000000
00100000
,
00001000
00010000
00000000
00011000
,
00000000
00000100
00000000
00000100
,
00001000
00000001
00000000
00001001
,
00000000
00001000
00000000
00000010
,
00010000
00001000
00000000
00011000
,
00000000
01000000
00000000
01000000
,
00001000
00011000
00000000
00011000
,
00000000
00000000
00100000
00000000
,
00010000
01000000
00000000
10010000
,
00000000
01000000
00000000
00001000
,
00010000
00001000
00000000
00011000
,
00010000
00000000
00000100
00000010
,
00000000
00000010
00000000
00001001
,
00000000
00000110
00000000
00001100
,
00000000
00000100
00010000
00000100
,
00000000
00011000
00000000
02002000
,
00000000
00000000
00000000
03003000
;
