#TITLE:The New World;
#SUBTITLE:;
#ARTIST:Ian Tescee;
#TITLETRANSLIT:;
#SUBTITLETRANSLIT:;
#ARTISTTRANSLIT:;
#GENRE:;
#CREDIT:;
#MENUCOLOR:;
#METERTYPE:DDR;
#BANNER:The New World-bn.png;
#BACKGROUND:black.png;
#LYRICSPATH:;
#CDTITLE:ddrencorecdtitle.png;
#MUSIC:The New World.mp3;
#OFFSET:0.182;
#SAMPLESTART:45.500;
#SAMPLELENGTH:12.000;
#SELECTABLE:YES;
#LISTSORT:;
#BPMS:0.000=60.983,32.000=121.965,142.000=60.983,150.500=91.474;
#STOPS:;
#BGCHANGES:0.000=The New World.avi=1.000=1=0=0,
151.500=The New World-bg.png=0.100=1=1=1,
160.000=black.png=1.000=0=0=1,
99999=-nosongbg-=1.000=0=0=0 // don't automatically add -songbackground-
;
#ATTACKS:;

//---------------dance-single - ----------------
#NOTES:
     dance-single:
     :
     Challenge:
     9:
     0.571,0.672,0.099,0.178,0.785: // measure 1
0000
0000
0000
0000
,  // measure 2
0000
0000
0000
0000
,  // measure 3
1001
0000
0000
1001
0000
0000
0001
0000
1000
0000
0000
1000
0000
0000
0010
0000
0100
0000
0000
0100
0000
0000
0001
0000
0010
0000
0000
0100
0000
0000
0010
0000
,  // measure 4
1001
0000
0000
1001
0000
0000
0100
0000
0010
0000
0000
0001
0000
0000
1000
0000
0100
0000
0000
1000
0000
0000
0010
0000
0100
0000
0000
0001
0000
0000
0100
0000
,  // measure 5
1001
0000
0010
0100
0000
0000
0001
0000
0100
0000
0001
0100
0000
0000
0010
0000
0100
0000
0001
0100
0000
0000
0001
0000
0001
0000
0010
0100
0000
0000
1000
0000
,  // measure 6
0010
0000
1000
0100
0000
0000
0010
0000
0001
0000
1000
0001
0000
0000
0100
0010
0100
0000
0000
0000
0001
0000
0000
0000
1000
0000
0000
0000
0010
0000
0100
0000
,  // measure 7
0001
0000
0010
0100
0000
0000
1000
0000
0001
0000
1000
0100
0000
0000
0010
0000
0001
0000
0100
1000
0000
0000
0100
0000
0001
0000
0010
1000
0000
0000
0010
0000
,  // measure 8
0001
0000
1000
0001
0000
0000
0100
0000
0010
0000
1000
0100
0000
0000
0010
0001
1000
0000
0000
1000
0000
0000
0010
0100
0001
0000
1000
0000
0100
0000
0000
0000
,  // measure 9
1001
0000
1000
0001
0000
0010
0100
0010
0001
0000
0001
1000
0000
0001
0100
0001
,  // measure 10
0100
0000
0001
1000
0000
0100
1000
0100
1000
0000
0010
1000
0000
0100
0010
0100
,  // measure 11
0010
0000
0001
1000
0000
0001
0100
0010
0100
0000
0010
1000
0000
0100
1000
0100
,  // measure 12
0010
0000
0001
0000
0100
0000
0100
0100
,  // measure 13
0100
0000
0010
1000
0000
0100
0010
0001
1000
0000
0001
0100
0000
0001
1000
0100
,  // measure 14
0010
0000
0100
1000
0000
0001
0100
0001
1000
0000
0001
0010
0000
0001
1000
0010
,  // measure 15
0100
0000
0001
0100
0000
0001
1000
0001
1000
0000
0100
0010
0000
0100
1000
0100
,  // measure 16
0010
0001
0010
0001
2000
0000
0000
0000
3010
0000
0100
0001
2000
0000
0000
0000
,  // measure 17
3100
0000
0010
0100
1000
0001
0000
1000
0100
0000
0010
0001
1000
0000
0001
1000
,  // measure 18
0001
0000
1000
0100
1000
0000
0001
1000
0001
0000
1000
0100
0010
0000
0100
0010
,  // measure 19
0100
0000
0010
0001
0010
0000
0001
1000
0001
0000
0100
0001
0100
0000
0100
0010
,  // measure 20
0100
0000
0100
0001
1000
0000
1000
0100
1000
0000
0100
0010
0001
0000
0010
0100
,  // measure 21
1000
0000
0001
1000
0100
0000
1000
0010
0200
0000
0000
0000
0001
0000
0000
0000
,  // measure 22
1000
0301
0020
1000
,  // measure 23
0001
0000
0000
0000
1030
0000
0000
0000
0100
0000
1000
0100
1000
0000
0100
1000
,  // measure 24
0100
0000
0010
0100
0010
0000
0001
0010
0001
0000
0000
1000
0010
0000
1000
0001
,  // measure 25
1000
0000
0001
0100
0001
0000
0010
0100
0010
0000
0000
0100
1000
0000
0100
0010
,  // measure 26
0100
1000
0100
0010
0100
0000
1000
0000
0001
0000
0000
0001
0100
0000
0010
0100
,  // measure 27
0001
0000
1000
0000
0100
0000
0000
0000
0010
0000
0000
0001
1000
0000
0001
0100
,  // measure 28
0010
0100
0001
0100
0010
0000
1000
0000
0100
0000
0000
0010
0100
0000
1000
0100
,  // measure 29
1000
0000
0001
0000
0100
0000
0000
0000
0110
0000
0000
0100
0001
0000
1000
0100
,  // measure 30
0010
0100
1000
0100
0010
0000
0100
0000
1000
0000
0000
0001
1000
0000
0010
1000
,  // measure 31
0001
0000
0010
0000
0100
0000
0000
0000
1000
0000
0000
0001
1000
0000
0010
1000
,  // measure 32
0100
1000
0010
1000
0100
0000
0010
0000
0001
0000
0000
0100
0010
0000
0100
0001
,  // measure 33
1000
0000
0100
0000
0010
0000
0000
0000
1100
0000
0000
1000
0001
0000
0100
0010
,  // measure 34
1000
0001
0100
0010
1000
0000
0001
0000
0010
0000
0000
0010
0100
0000
1000
0100
,  // measure 35
0010
0001
1000
0100
0010
0000
0001
0000
1000
0000
0000
0000
1001
0000
0000
1000
,  // measure 36
0001
0000
0010
0001
1000
0000
0010
0000
0210
0000
0302
0000
0000
0000
2003
0000
,  // measure 37
3020
2030
0000
3200
0320
0032
0000
2003
,  // measure 38
3020
0230
0000
0302
2003
3200
0000
0000
,  // measure 39
0000
0000
0000
0000
,  // measure 40
0000
0000
0000
0000
,  // measure 41
0300
0000
0000
0000
;

//---------------dance-single - ----------------
#NOTES:
     dance-single:
     :
     Medium:
     6:
     0.310,0.356,0.158,0.237,0.074:
0000
0000
0000
0000
,
0000
0000
0000
0000
,
1000
1000
1000
1000
,
0001
0001
0001
0001
,
0100
0000
0010
1000
0100
0000
0010
0001
,
0100
0000
0001
1000
0020
0000
0000
0000
,
0130
0100
0001
0001
1000
0100
0010
0001
,
1000
0000
0010
0100
0002
0000
0000
0000
,
1003
0000
0000
1000
0000
0000
0010
0000
0100
0000
0000
0100
0000
0000
0001
0000
,
1000
0000
0000
1000
0000
0000
0100
0000
0010
0000
0000
0010
0000
0000
0001
0000
,
1000
0000
0000
0001
0000
0000
0001
0000
0100
0000
0000
0010
0000
0000
0010
0000
,
2000
0000
0000
0000
,
3001
0000
0000
0001
0000
0000
0010
0000
0100
0000
0000
0100
0000
0000
1000
0000
,
0001
0000
0000
0001
0000
0000
0100
0000
0010
0000
0000
0010
0000
0000
1000
0000
,
0001
0000
0000
0001
0000
0000
0010
0000
0100
0000
0000
0100
0000
0000
1000
0000
,
0002
0103
0100
1001
,
0001
0000
0000
1000
0001
0000
0000
0000
1001
0000
0000
0000
0010
0000
0000
0000
,
0001
0000
0000
0000
1000
0000
0000
0000
1000
0000
0000
0000
0001
0000
0000
0001
,
1000
0000
0000
0000
0010
0000
0000
0000
0010
0000
0000
0000
0100
0000
0000
0100
,
0001
0000
1000
0000
0010
0100
0001
0010
,
0100
1000
0000
0000
2002
0000
3003
0000
,
0010
0001
1000
0000
0010
0000
0010
0000
,
0100
0001
1000
0000
2002
0000
3003
0000
,
1000
0001
0100
0000
0010
0000
0010
0000
,
1000
0100
1000
0000
1100
0000
1001
0000
,
0001
1000
0100
1000
0001
0000
0001
0000
,
0010
0001
1000
0000
0010
0000
0010
0000
,
0100
0001
1000
0100
0010
0000
0010
0000
,
0100
1000
0001
0000
0220
0000
0330
2002
,
0000
3003
0101
0000
0001
0001
1000
0001
,
1000
0100
1000
0000
0010
0000
0010
0000
,
0100
0001
1000
0100
1000
0000
1000
0000
,
0010
1000
0001
0000
0022
0000
0033
0220
,
0000
0330
1002
0000
1000
0000
1000
0000
,
0010
0010
0013
0000
0100
0000
2002
0000
,
3003
0202
0000
0303
2001
0001
0000
0100
,
0010
0001
0000
3001
0010
1000
0000
1000
,
0010
0001
0000
1000
0100
0220
0000
0000
,
0000
0000
0000
0000
,
0000
0000
0000
0000
,
0330
0000
0000
0000
;

//---------------dance-single - ----------------
#NOTES:
     dance-single:
     :
     Easy:
     4:
     0.188,0.237,0.059,0.099,0.000:
0000
0000
0000
0000
,
0000
0000
0000
0000
,
0010
0010
1000
0001
,
0010
0010
0001
1000
,
0120
1000
0100
0130
,
0001
0000
1000
0000
0200
0000
0000
0300
,
0120
0001
0100
0130
,
1000
0001
0200
0000
,
0310
1000
0100
1000
,
0001
0100
0001
0000
,
0100
0100
0010
1000
,
0002
0000
0003
0000
,
0010
0010
0100
1000
,
0001
1000
0010
0000
,
0100
0100
0001
0001
,
2000
3010
0000
0101
,
0000
0001
0000
1100
,
0000
0010
1000
0100
,
0001
0100
1000
0010
,
0100
0001
0010
0010
,
0001
1000
1001
0000
,
0010
0100
1000
0000
,
0010
1000
0100
0000
,
1000
0001
0010
0010
,
0100
0100
2000
0000
,
0010
0001
3010
0000
,
1000
0000
0002
0000
,
0010
1000
0013
0000
,
0001
0000
0000
0000
1000
0000
0000
0010
,
0000
0100
0001
0001
,
1000
0000
0010
0000
,
0100
0001
1000
0000
,
0100
0000
0000
0000
0010
0000
0000
0001
,
0000
0100
0010
0010
,
1000
0001
0010
0100
,
0000
1000
0000
0000
0001
0100
0000
0100
,
0000
0010
0000
0010
0000
1000
0000
0001
,
0000
0010
0000
0100
0000
2002
0000
0000
,
0000
0000
0000
0000
,
0000
0000
0000
0000
,
3003
0000
0000
0000
;

//---------------dance-single - ----------------
#NOTES:
     dance-single:
     :
     Beginner:
     1:
     0.113,0.158,0.030,0.059,0.000:
0000
0000
0000
0000
,
0000
0000
0000
0000
,
0010
0000
0000
0000
,
0010
0000
0000
0000
,
0010
0010
0010
0010
,
0010
0010
0010
0000
,
0100
0100
0100
0100
,
0100
0100
0100
0000
,
1001
0000
0010
0000
,
0001
0000
1000
0000
,
0001
0000
0100
0000
,
0001
0000
0000
0000
,
1000
0000
0100
0000
,
1000
0000
0010
0000
,
0100
0000
0001
0000
,
1000
1000
0000
1000
,
0000
0001
0000
0100
,
0000
0010
0010
0010
,
0010
0010
0010
0010
,
0000
0100
0100
0100
,
0100
0100
0100
0000
,
0001
0001
0001
0000
,
1000
0000
0010
0000
,
0100
0100
0100
0100
,
0100
0100
0200
0000
,
0000
0300
0001
0000
,
0000
0000
1000
0000
,
0000
0000
1000
0000
,
0000
0000
2002
0000
,
0000
3003
0000
0000
,
0000
0000
0010
0000
,
0001
0000
1000
0000
,
0010
0000
2002
0000
,
0000
3003
0000
0000
,
0001
0000
1000
2000
,
0000
0000
3000
0000
;

//---------------dance-double - ----------------
#NOTES:
     dance-double:
     :
     Challenge:
     9:
     0.501,0.533,0.049,0.148,0.696:
00000000
00000000
00000000
00000000
,
00000000
00000000
00000000
00000000
,
01100000
00000000
00000000
01100000
00000000
00000000
10000000
00000000
00010000
00000000
00000000
00010000
00000000
00000000
00100000
00000000
00001000
00000000
00000000
00001000
00000000
00000000
00010000
00000000
00000100
00000000
00000000
00001000
00000000
00000000
00000010
00000000
,
00000100
00000000
00000000
00000100
00000000
00000000
00000001
00000000
00000010
00000000
00000000
00000010
00000000
00000000
00000100
00000000
00001000
00000000
00000000
00000000
00000100
00000000
00000000
00000000
00001000
00000000
00000000
00000000
00000010
00000000
00001000
00000000
,
00000100
00000000
00000000
00000100
00000000
00000000
00010000
00000000
00001000
00000000
00000000
01000000
00000000
00000000
00010000
00000000
10000000
00000000
00000000
01000000
00000000
00000000
00100000
00000000
00001000
00000000
00000000
00010000
00000000
00000000
00000010
00000000
,
00000100
00000000
00000000
00000001
00000000
00000000
00000010
00000000
00000100
00000000
00000000
00010000
00000000
00000000
00001000
00000000
01000000
00000000
00000000
00000000
00010000
00000000
00000000
00000000
10000000
00000000
00000000
00000000
01000000
00000000
10000000
00000000
,
00100000
00000000
00000000
10000000
00000000
00000000
00010000
00000000
00100000
00000000
00000000
00001000
00000000
00000000
00010000
00000000
00000010
00000000
00000000
00001000
00000000
00000000
00000001
00000000
00000010
00000000
00000000
00000100
00000000
00000000
00010000
00000000
,
00001000
00000000
00000000
01000000
00000000
00000000
00010000
00000000
00100000
00000000
00000000
00001000
00000000
00000000
00010000
00000000
00000100
00000000
00000000
00000100
00000000
00000000
00001000
00000100
00010000
00000000
00001000
00000000
00011000
00000000
00000000
00000000
,
00010000
00000000
00001000
00010000
00000000
00001000
00100000
00001000
00100000
00000000
00010000
01000000
00000000
00010000
01000000
00100000
,
01000000
00000000
00100000
10000000
00000000
00010000
10000000
00100000
10000000
00000000
00010000
00100000
00000000
00001000
00010000
00001000
,
00010000
00000000
00000100
00001000
00000000
00000010
00001000
00000010
00001000
00000000
00000100
00000010
00000000
00000001
00000010
00000001
,
00000020
00000000
00000000
00000000
,
00000130
00000000
00001000
00000100
00000000
00010000
00001000
00010000
00001000
00000000
01000000
00010000
00000000
10000000
01000000
10000000
,
01000000
00000000
00100000
00010000
00000000
00100000
00001000
00100000
00001000
00000000
00010000
00000010
00000000
00010000
00001000
00010000
,
00001000
00000000
01000000
00001000
00000000
00010000
00001000
00010000
00001000
00000000
00010000
00000100
00000000
00010000
00001000
00010000
,
00000010
00001000
00000010
00001000
00000100
00000000
00000000
00000000
00000010
00000000
00000001
00000100
00000001
00000000
00000000
00000000
,
00001000
00000000
00000100
00001000
00000100
00010000
00000000
00000100
00010000
00000000
00001000
00000000
00010000
00000000
00000000
00010000
,
00100000
00000000
00000000
00100000
10000000
00000000
00000000
10000000
01000000
00000000
00000000
01000000
10000000
00000000
00000000
10000000
,
00010000
00000000
00000000
00010000
01000000
00000000
00000000
01000000
00001000
00000000
00000000
00001000
00010000
00000000
00000000
00010000
,
00000100
00000000
00000000
00000100
00000010
00000000
00000000
00000010
00001000
00000000
00000000
00001000
00010000
00000000
00000000
00010000
,
00100000
00000000
00000000
00100000
01000000
00000000
00000000
01000000
00010000
00000000
00000000
01000000
00100000
00000000
00000000
10000000
,
00010000
00000000
00000000
00100000
00001000
00000000
00000000
00010000
00000010
00000000
00000000
00010000
00000100
00000000
00000000
00001000
,
00000001
00000000
00000000
00000100
00000010
00000000
00000000
00010000
00001000
00000000
00000000
00100000
00010000
00000000
00000000
01000000
,
00100000
00000000
00000000
10000000
01000000
00000000
00000000
00100000
01000000
00000000
00000000
00100000
00001000
00000000
00000000
00010000
,
00000100
00000000
00000000
00001000
00000100
00000000
00000000
00010000
00002000
00000000
00000000
00000000
00013000
00000000
00000100
00001000
,
00000100
00000010
00000100
00001000
00000100
00000000
00000010
00000000
00000002
00000000
00000000
00000000
00001003
00000000
00000010
00001000
,
00000100
00000000
00010000
00000000
00001000
00000000
00000000
00000000
02000000
00000000
00000000
00000000
03100000
00000000
10000000
00010000
,
00100000
00010000
10000000
00010000
00100000
00000000
00001000
00000000
00020000
00000000
00000000
00000000
00031000
00000000
01000000
00001000
,
01000000
00000000
00010000
00000000
00100000
00000000
00000000
00000000
00002000
00000000
00000000
00000000
00013000
00000000
00000100
00010000
,
00001000
00010000
00000100
00010000
00001000
00000000
00010000
00000000
00000200
00000000
00000000
00000000
00001300
00000000
00000010
00000100
,
00000001
00000000
00001000
00000000
00000100
00000000
00000000
00000000
00020000
00000000
00000000
00000000
00031000
00000000
00100000
00010000
,
00100000
01000000
00100000
00010000
00100000
00000000
01000000
00000000
20000000
00000000
00000000
00000000
30010000
00000000
01000000
00010000
,
00100000
00000000
00001000
00000000
00010000
00000000
00000000
00000000
00000100
00000000
00000000
00001000
00000001
00000000
00000010
00000100
,
00001000
00000100
00000010
00000100
00001000
00000000
00000001
00000000
00000100
00000000
00000000
00000010
00001000
00000000
00000100
00010000
,
00001000
00010000
00000100
00010000
00001000
00000000
01000000
00000000
00020000
00000000
00000000
00000000
10030000
00000000
00000000
00100000
,
01000000
00000000
00010000
00100000
00010000
00000000
01000000
00000000
02010000
00000000
00010000
00000000
00000000
00000000
00001000
00000000
,
00100000
00001000
00000000
03100000
01000000
00002000
00000000
00100000
,
00010000
00003200
00000000
00000301
00001000
00002002
00000000
00000000
,
00000000
00000000
00000000
00000000
,
00000000
00000000
00000000
00000000
,
00003003
00000000
00000000
00000000
;

//---------------dance-double - ----------------
#NOTES:
     dance-double:
     :
     Medium:
     6:
     0.277,0.356,0.069,0.079,0.020:
00000000
00000000
00000000
00000000
,
00000000
00000000
00000000
00000000
,
00000001
00000000
00000100
00000010
00001000
00000000
00000100
00010000
,
00001000
00000000
01000000
00010000
10000000
00000000
01000000
00100000
,
00010000
00000000
00001000
00010000
00000100
00000000
00001000
00000010
,
00000100
00000000
00000001
00001000
00000200
00000000
00000000
00000000
,
00010300
00000000
00000100
00010000
00001000
00000000
00100000
00001000
,
00010000
00000000
00000010
00001000
00000200
00000000
00000000
00000300
,
00001001
00000000
00000001
00000000
00001000
00000100
00001000
00000100
,
00001000
00000000
00000100
00000000
00010000
00001000
00010000
00001000
,
00100000
00000000
00010000
00000000
01000000
00100000
10000000
00000000
,
00010000
00010000
00100000
00100000
,
01000000
00000000
00100000
00000000
00001000
00010000
00001000
00010000
,
00000100
00000000
00001000
00000000
00000010
00000100
00000010
00000100
,
00000001
00000000
00001000
00000000
00000100
00010000
00000100
00000000
,
00011000
00100000
00100000
00010000
,
00010000
00000000
00000000
00000000
10000000
00000000
00000000
00000000
10000000
00000000
00000000
00000000
00100000
00000000
00000000
00100000
,
01000000
00000000
00000000
00000000
00010000
00000000
00000000
00000000
00010000
00000000
00000000
00000000
00100000
00000000
00000000
00100000
,
00001000
00000000
00000000
00000000
00010000
00000000
00000000
00000000
00000100
00000000
00000000
00000000
00010000
00000000
00000000
00010000
,
00001000
00000000
00000000
00000000
00100000
00000000
00000000
00000000
00010000
00000000
00000000
00000000
01000000
00000000
00000000
01000000
,
00100000
00000000
10000000
00010000
01100000
00000000
01000000
00000000
,
00010000
10000000
01000000
00000000
00100000
00000000
00001000
00000000
,
00010000
00000100
00001000
00000000
00000100
00000000
00000010
00000000
,
00000001
00000100
00000010
00000000
00001000
00000000
00000100
00000000
,
00010000
00001000
00100000
00000000
01000000
00000000
00000000
00000000
,
10000000
00010000
01000000
00001000
00010000
00000000
00010000
00000000
,
00001000
00000000
00010000
00000100
,
00001000
00000100
00000010
00000100
00001000
00000000
00000001
00000000
,
00000100
00000000
00000000
00000000
00000010
00000000
00000000
00001000
,
00000000
00000100
00010000
00010000
,
00001000
00001000
01000000
00010000
,
00100000
01000000
10000000
00010000
01000000
00000000
00001000
00000000
,
00010000
00010000
00010000
00000000
00001000
00000000
00100000
00000000
,
00001000
00010000
00001000
00010000
00000100
00000000
00001000
00000000
,
00000010
00000100
00000001
00001000
00000001
00000000
00002200
00000000
,
00003300
00022000
00000000
00033000
01010000
00100000
00000000
00010000
,
00100000
10000000
00000000
10000000
01000000
00100000
00000000
00010000
,
01000000
00010000
00000000
01000000
00100000
20020000
00000000
00000000
,
00000000
00000000
00000000
00000000
,
00000000
00000000
00000000
00000000
,
30030000
00000000
00000000
00000000
;

//---------------dance-double - ----------------
#NOTES:
     dance-double:
     :
     Easy:
     4:
     0.168,0.198,0.030,0.020,0.000:
00000000
00000000
00000000
00000000
,
00000000
00000000
00000000
00000000
,
00010000
00001000
00010000
00001000
,
00100000
00001000
00100000
00001000
,
00010000
00001000
00010000
00001000
,
00010000
00000010
00010000
00000010
,
00010000
00001000
00010000
00001000
,
01000000
00001000
00010000
00000100
,
00011000
00001000
00010000
00010000
,
00001000
00001000
00100000
00000000
,
01000000
01000000
10000000
00010000
,
10000000
00000000
10000000
00000000
,
00100000
00100000
01000000
01000000
,
00010000
00100000
00010000
00100000
,
00001000
00001000
00010000
00010000
,
00000100
00000100
00000000
00000010
,
00000000
00000001
00000000
00001000
,
00000000
00000010
00000010
00001000
,
00000000
00000100
00000000
00010000
,
00000000
00001000
00000000
01000000
,
01000000
00000000
00010000
00000000
,
00100000
00000000
01000000
00000000
,
10000000
00010000
10000000
00000000
,
01000000
00000000
00100000
00000000
,
00001000
00000000
00010000
00000000
,
00001000
00001000
00001000
00000000
,
00010000
00000100
00010000
00000000
,
00000100
00000100
00000010
00000000
,
00000001
00001000
00000001
00000000
,
00000001
00000100
00000010
00000000
,
00001000
00001000
00000100
00000000
,
00010000
00001000
00010000
00000000
,
00001000
00100000
00010000
00000000
,
00100000
00100000
01000000
00000000
,
10000000
00010000
10000000
00000000
,
00100000
00000000
00100000
00000000
01100000
01000000
00000000
01000000
,
00000000
00010000
00000000
00010000
00000000
00100000
00000000
00001000
,
00000000
00010000
00000000
00000100
00000000
00022000
00000000
00000000
,
00000000
00000000
00000000
00000000
,
00000000
00000000
00000000
00000000
,
00033000
00000000
00000000
00000000
;

//---------------dance-single - ----------------
#NOTES:
     dance-single:
     :
     Hard:
     8:
     0.436,0.454,0.494,0.168,0.291:
0000
0000
0000
0000
,
0000
0000
0000
0000
,
1001
0000
0000
1001
0000
0000
0000
0000
0001
0000
0000
0001
0000
0000
0000
0000
0100
0000
0000
0100
0000
0000
0000
0000
0010
0000
0000
0010
0000
0000
0000
0000
,
1001
0000
0000
1001
0000
0000
0000
0000
0100
0000
0000
0100
0000
0000
0000
0000
0001
0000
0000
0001
0000
0000
0000
0000
0010
0000
0000
0010
0000
0000
0000
0000
,
0110
0000
0000
0100
0000
0000
0100
0000
0001
0000
0000
0001
0000
0000
0001
0000
0010
0000
0000
0010
0000
0000
0010
0000
0100
0000
0000
0100
0000
0000
0100
0000
,
1000
0000
0000
0001
0000
0000
1000
0000
0100
0000
0000
1000
0000
0000
0001
0000
0200
0000
0000
0000
0000
0000
0000
0000
0000
0000
0000
0000
0300
0000
0000
0000
,
0101
0000
0000
0001
0000
0000
0001
0000
0010
0000
0000
0010
0000
0000
0010
0000
0100
0000
0000
0100
0000
0000
0100
0000
1000
0000
0000
1000
0000
0000
0010
0000
,
0100
0000
0000
0100
0000
0000
0001
0000
1000
0000
0000
0001
0000
0000
0010
0000
0200
0000
0000
0000
0000
0000
0000
0000
0000
0000
0000
0000
0300
0000
0000
0000
,
0110
0000
0001
0100
0000
0000
0001
0000
1001
0000
0001
1000
0000
0000
0001
0000
,
0011
0000
0001
0010
0000
0000
0001
0000
1001
0000
0001
1000
0000
0000
0100
0000
,
1100
0000
0100
1000
0000
0000
0010
0000
0110
0000
0010
0100
0000
0000
0001
0000
,
2000
3200
0302
0023
,
1030
0000
0100
1000
0000
0000
0001
0000
0001
0000
0100
0001
0000
0000
1000
0000
,
1000
0000
0010
1000
0000
0000
0001
0000
0001
0000
0010
0001
0000
0000
1000
0000
,
1000
0000
0001
1000
0000
0000
0001
0000
1001
0000
0000
0000
0000
0000
1000
0001
,
1000
0000
0001
0100
0002
0000
0000
0000
0003
0000
0010
0000
0120
0000
0000
0000
,
0030
0000
0100
0000
1001
0000
0000
1000
0001
0000
1000
0000
1001
0000
0000
0000
,
0101
0210
1000
0001
,
0310
1020
0100
0001
,
1000
0000
0130
0000
0001
0100
0010
1000
,
0200
0000
0020
0000
0000
0000
0330
0000
1002
0000
0000
0000
0013
0000
0000
0001
,
1000
0000
0001
0000
1000
0000
0000
0000
2001
0000
0000
0000
3010
0000
0000
1000
,
0001
0000
1000
0000
0001
0000
0000
0000
0101
0000
0000
0001
1000
0000
0000
0100
,
1000
0000
0000
0010
0100
0000
0000
0001
1000
0000
0000
0001
0010
0000
0100
0000
,
1100
0000
0001
0000
0101
0000
1000
0000
1001
0000
0000
0000
0100
0000
0001
0100
,
0001
1000
0100
0000
0110
0000
0110
0000
,
0110
0000
1000
0000
0101
0000
0000
0000
1001
0000
0000
0000
0010
0000
1000
0001
,
1000
0001
0100
0000
0101
0000
1100
0000
,
1001
0000
0010
0000
1001
0000
0000
0000
1100
0000
0000
0000
0001
0000
0100
0001
,
0100
0010
1000
0000
0110
0000
1001
0000
,
0011
0000
0100
0000
1100
0000
0000
0000
1001
0000
0000
0000
1000
0000
0001
0100
,
0010
0100
0001
0000
1001
0000
0011
0000
,
1001
0000
0100
0000
1001
0000
0000
0000
0101
0000
0000
0000
1000
0000
0100
1000
,
0100
0000
0010
0000
0001
0000
0000
0000
1001
0000
0000
0000
0010
0000
0001
0100
,
0001
1000
0100
0000
0110
0000
1001
0000
,
1000
1100
0000
0001
2001
0010
0000
0100
,
0001
0100
0000
0001
0010
0001
0000
0100
,
0010
0100
0000
3002
1000
0200
0000
0000
,
0000
0000
0000
0000
,
0000
0000
0000
0000
,
0303
0000
0000
0000
;

//---------------dance-double - ----------------
#NOTES:
     dance-double:
     :
     Hard:
     8:
     0.430,0.553,0.583,0.336,0.232:
00000000
00000000
00000000
00000000
,
00000000
00000000
00000000
00000000
,
00110000
00000000
00000000
00110000
00000000
00000000
00000000
00000000
00011000
00000000
00000000
00011000
00000000
00000000
00000000
00000000
00010100
00000000
00000000
00010100
00000000
00000000
00000000
00000000
00001010
00000000
00000000
00001010
00000000
00000000
00000000
00000000
,
00000110
00000000
00000000
00000110
00000000
00000000
00000000
00000000
00001001
00000000
00000000
00001001
00000000
00000000
00001000
00000000
00000200
00000000
00000000
00000000
00000000
00000000
00000000
00000000
00000000
00000000
00000000
00000000
00000000
00000000
00000000
00000000
,
00010300
00000000
00000000
00010000
00000000
00000000
00011000
00000000
00001000
00000000
00000000
00001000
00000000
00000000
01001000
00000000
01000000
00000000
00000000
01000000
00000000
00000000
01100000
00000000
00100000
00000000
00000000
00100000
00000000
00000000
10100000
00000000
,
10000000
00000000
00000000
10000000
00000000
00000000
11000000
00000000
01000000
00000000
00000000
01000000
00000000
00000000
01000000
00000000
20000000
00000000
00000000
00000000
00000000
00000000
00000000
00000000
00000000
00000000
00000000
00000000
00000000
00000000
00000000
00000000
,
30100000
00000000
00000000
00100000
00000000
00000000
01000000
00100000
00010000
00000000
00000000
00010000
00000000
00000000
00110000
00000000
00001000
00000000
00000000
00001000
00000000
00000000
00011000
00000000
00000100
00000000
00000000
00000100
00000000
00000000
00010100
00000000
,
00001000
00000000
00000000
01000000
00000000
00000000
10010000
00000000
10000000
00000000
00000000
01000000
00000000
00000000
00100000
00000000
00020000
00000000
00000000
00000000
00000000
00000000
00000000
00000000
00000000
00000000
00000000
00000000
00000000
00000000
00000000
00000000
,
00130000
00000000
00000000
00010000
00000000
00000000
00110000
00000000
00100000
00000000
00000000
01000000
00000000
00000000
11000000
00000000
,
10000000
00000000
00000000
00010000
00000000
00000000
01010000
00000000
01000000
00000000
00000000
00001000
00000000
00000000
00011000
00000000
,
00010000
00000000
00000000
00000100
00000000
00000000
00001100
00000000
00001000
00000000
00000000
00000010
00000000
00000000
00000110
00000000
,
00000200
00000000
00000000
00000000
,
00000301
00000000
00000000
00000100
00000000
00000000
00000101
00000000
00000001
00000000
00000000
00001000
00000000
00000000
00001100
00000000
,
00000100
00000000
00000000
00010000
00000000
00000000
00011000
00000000
00001000
00000000
00000000
01000000
00000000
00000000
01010000
00000000
,
01000000
00000000
00000000
00100000
10000000
00000000
01000000
00000000
11000000
00000000
00000000
00000000
10000000
00000000
00010000
10000000
,
00010000
00000000
00100000
00001000
00100000
00000000
00000000
00000000
00000000
00000000
00001000
00010000
00001000
00000000
00000000
00000000
,
00000000
00000000
00010000
00001000
00010000
00000000
00000000
00000000
00011000
00000000
00000000
00000000
00000200
00000000
00000000
00000000
,
00002300
00003020
00000230
00000302
,
00000023
00002030
00003200
00000302
,
00000023
00000000
00000230
00000000
00001300
00000001
00000100
00001000
,
00000002
00000200
00000003
00000000
00001000
00000000
00001300
00000100
,
00010000
00001000
00010000
00000100
00010000
00000000
00010000
00001000
,
01000000
00010000
01000000
00000000
10010000
00000000
00110000
00010000
,
10010000
00000000
01010000
00000000
11000000
00000000
01100000
00010000
,
00110000
00001000
00011000
00000100
00002200
00000000
00003300
00000000
,
00000100
00000010
00000001
00001000
00001100
00000000
00001100
00000000
,
00000100
00010000
00001000
00000000
00022000
00000000
00033000
00000000
,
00001000
00100000
00010000
01000000
01100000
00000000
01100000
00000000
,
10000000
00010000
01000000
00000000
02020000
00000000
03030000
00000000
,
01000000
00001000
00010000
00000100
00010100
00000000
00011000
00000000
,
00010000
00001000
00100000
00000000
00220000
00000000
00330000
00000000
,
00001000
00010000
00000010
00001000
00001010
00000000
00001001
00000000
,
00000001
00001000
00000100
00000000
00002200
00000000
00003300
00000000
,
00000100
00010000
00001000
00100000
00220000
00000000
00330000
00000000
,
00100000
00010000
10000000
01000000
11000000
00000000
20020000
00000000
,
30030000
00220000
00000000
00330000
01100000
10000000
00000000
00010000
,
00100000
01000000
00000000
10000000
00100000
10000000
00000000
00010000
,
00100000
00001000
00000000
00010000
00000100
00002000
00000000
00000000
,
00000000
00000000
00000000
00000000
,
00000000
00000000
00000000
00000000
,
00003000
00000000
00000000
00000000
;

//---------------pump-single - ----------------
#NOTES:
     pump-single:
     :
     Challenge:
     1:
     0.268,0.289,0.099,0.020,0.439:
00000
00000
00000
00000
,
00000
00000
00000
00000
,
10001
00000
00000
10001
00000
00000
00000
00000
00100
00000
00000
00100
00000
00000
00000
00000
10000
00000
00000
10000
00000
00000
00000
00000
00001
00000
00000
00001
00000
00000
00000
00000
,
01010
00000
00000
01010
00000
00000
00000
00000
10000
00000
00000
10000
00000
00000
00000
00000
01000
00000
00000
01000
00000
00000
00000
00000
00010
00000
00000
00010
00000
00000
00000
00000
,
00011
00000
00000
01001
00000
00000
01000
00010
01000
00000
00000
01000
00000
00000
00010
00000
00100
00000
00000
00100
00000
00000
00010
01000
00010
00000
00000
01000
00000
00000
00001
00000
,
10000
00000
00000
00001
00000
00000
10000
00010
10000
00000
00000
00100
00000
00000
01000
00000
00200
00000
00000
00000
00000
00000
00000
00000
00000
00000
00000
00000
00000
00000
00000
00000
,
01300
00000
01000
00010
00000
00000
00100
00010
00100
00000
00100
00001
00000
00000
00100
00000
00001
00000
10000
00001
00000
00000
10000
00100
10000
00000
00100
01000
00000
00000
00100
00000
,
01000
00000
01000
00010
00000
00000
00100
00010
00100
00000
00100
00001
00000
00000
00010
00000
00021
00000
00000
00000
00000
00000
00000
00000
00000
00000
00000
00000
00000
00000
00000
00000
,
00130
00000
00001
10000
00000
00001
01000
00001
01000
00000
00010
01000
00000
00010
10000
00010
,
10000
00000
00100
10000
00000
00100
10000
00100
01000
00000
00010
01000
00000
00010
01000
00010
,
01000
00000
00001
00100
00000
00001
00100
00010
00100
00000
00010
01000
00000
00010
00100
00001
,
00010
00010
01000
01000
,
01010
00000
00010
01000
00000
00010
00100
00010
00100
00000
01000
00010
00000
01000
00100
01000
,
00100
00000
01000
00001
00000
10000
00001
10000
00001
00000
10000
00010
00000
10000
00100
10000
,
00100
00000
00000
00000
01000
00000
00010
00000
01010
00000
00000
00000
00001
00000
10000
00001
,
10000
00010
10000
00010
00100
00000
00000
00000
00000
00000
00100
00010
00100
00000
00000
00000
,
00000
00000
00100
00010
01000
00100
00000
01000
00010
00000
01000
00000
01010
00000
01000
00010
,
01000
00000
00100
01000
00100
00000
01000
00010
01000
00000
00100
00010
00100
00000
00001
00100
,
00001
00000
00100
10000
00100
00000
00100
00000
01000
00100
01000
00000
00100
00010
00100
00000
;
