#TITLE:The Master Beat;
#SUBTITLE:;
#ARTIST:Wip'E"Out;
#TITLETRANSLIT:;
#SUBTITLETRANSLIT:;
#ARTISTTRANSLIT:;
#GENRE:;
#CREDIT:;
#MENUCOLOR:;
#METERTYPE:DDR;
#BANNER:The Master Beat-bn.png;
#BACKGROUND:The Master Beat-bg.png;
#LYRICSPATH:;
#CDTITLE:ddrencorecdtitle.png;
#MUSIC:The Master Beat.mp3;
#OFFSET:-6.997;
#SAMPLESTART:49.148;
#SAMPLELENGTH:12.000;
#SELECTABLE:YES;
#LISTSORT:2;
#BPMS:0.000=138.000;
#STOPS:;
#BGCHANGES:;
#ATTACKS:;

//---------------dance-double - ----------------
#NOTES:
     dance-double:
     :
     Hard:
     8:
     0.516,0.477,0.113,0.451,0.097:
00000001
00001000
00000000
00000010
00000100
00000001
00000000
00001000
,
00000100
00000000
00000000
00010000
00000000
00000000
00001000
00000000
00000000
00010000
00000000
00000000
00001000
00000000
00100000
00000000
,
00010000
01000000
00000000
00010000
10000000
01000000
00000000
00100000
,
00010000
02000000
00000000
03001000
00010000
00000010
00000200
00000000
,
00000301
00000010
00000000
00000001
00001000
00000100
00000000
00001000
,
00000010
00000000
00000000
00010000
00000000
00000000
00001000
00000000
00000000
01000000
00000000
00000000
00010000
00000000
00100000
00000000
,
01000000
10000000
00000000
00010000
01000000
00100000
00000000
10000000
,
01000000
00010000
00001000
00000010
00000002
00000000
00001003
00000000
,
00000100
00001000
00000000
00000001
00000010
00000100
00000000
00010000
,
00001000
00100000
00000000
00010000
01000000
00000000
01010000
00000000
,
10000000
00100000
00000000
01000000
00010000
00100000
00000000
00001000
,
00010000
00001000
00000100
00000001
00001000
00000000
00001001
00000000
,
00000001
00000100
00000000
00000010
00001000
00000100
00000000
00010000
,
00001000
01000000
00100000
10000000
01000000
00100000
00010000
00000000
,
10000000
00100000
01000000
00010000
10000000
01000000
00010000
00001000
,
00000010
00000001
00000100
00001000
00000100
00000001
00001000
00000000
,
00000001
00000100
00000000
00000000
00000002
00000000
00000000
00000000
00001003
00000000
00000100
00000000
00010000
00000000
00000000
00000000
,
00001000
01000000
00010000
00100000
01000000
10000000
00010000
00000000
,
01000000
00010000
00000000
00000000
20000000
00000000
00000000
00000000
30010000
00000000
00100000
00000000
01000000
00000000
00000000
00000000
,
10000000
00100000
00010000
00100000
10000000
00010000
00100000
00000000
,
00001000
00010000
00000000
00000000
00000200
00000000
00000000
00000000
00001300
00000000
00000010
00000000
00000100
00000000
00000000
00000000
,
00000001
00000100
00001000
00000100
00000001
00001000
00000010
00000000
,
00010000
00001000
00000000
00000000
00000000
00000000
00000000
00000000
01000000
00010000
00000000
00000000
00000000
00000000
00000000
00000000
,
10000000
01000000
00000000
00000000
00000000
00000000
00000000
00000000
00100000
00010000
00000000
00000000
00000000
00000000
00000000
00000000
,
20000000
00000000
00020000
30000000
00130000
00001000
00000200
00000000
,
00000320
00000000
00002000
00000030
00003001
00001000
00000002
00000000
,
00001003
00000100
00010000
01000000
10000000
00010000
00200000
00000000
,
00310000
00020000
00000000
01000000
02030000
00000000
03200000
20300000
,
32000000
00000000
10000000
00000000
13000000
00010000
00200000
00000000
,
00301000
00010000
00000100
00001000
00000020
00000100
00000130
00000000
,
00000001
00000010
00000100
00010000
00001000
00000100
00000010
00010000
,
00001000
01000000
00100000
10000000
01000000
00100000
00020000
00000000
,
10030000
02000000
00000000
00000000
13000000
00000000
00000000
00000000
21000000
00000000
00000000
00000000
30010000
00000000
00000000
00000000
,
00010000
02000000
00000000
00000000
03010000
00000000
00000000
00000000
01020000
00000000
00000000
00000000
00130000
00000000
00000000
00000000
,
00100000
00002000
00000000
00000000
00013000
00000000
00000000
00000000
00021000
00000000
00000000
00000000
00031000
00000000
00000000
00000000
,
00001000
00020000
00000000
00000000
00030100
00000000
00000000
00000000
00010200
00000000
00000000
00000000
00001300
00000000
00000000
00000000
,
00000001
00000100
00000000
00000000
00000101
00000000
00000000
00000000
00000010
00001000
00000000
00000000
00001010
00000000
00000000
00000000
,
00000100
00010000
00000000
00000000
00010100
00000000
00000000
00000000
00001000
00010000
00000000
00000000
00011000
00000000
00000000
00000000
,
00001000
01000000
00010000
00100000
00001000
00010000
00000100
00001000
,
00000010
00000100
00000001
00001000
00000100
00000010
00000001
00001000
,
00000002
00000000
00002003
00000000
00003010
00000200
00000000
00000301
,
00002000
00000000
00003200
00000000
00010300
00001000
00200000
00010000
,
00320000
00000000
10030000
00100000
01000000
00010000
00100000
00001000
,
00002000
00000000
00010000
00023000
00001000
00000000
00030100
00001000
,
00000100
00000010
00000001
00000200
00000002
00000300
00001003
00000000
,
00000100
00010000
00001000
02000000
00020000
03000000
10030000
00000000
,
00010000
00100000
01000000
10000000
00010000
01000000
00001000
00010000
,
00000100
00001000
00000010
00000100
00000001
00001000
00000100
00010000
,
00022000
00000000
00000000
00000000
,
00033000
00000000
00000000
00000000
;

//---------------dance-single - ----------------
#NOTES:
     dance-single:
     :
     Beginner:
     2:
     0.166,0.246,0.062,0.082,0.000:
1000
0000
0100
0000
,
1000
0001
1000
0000
,
0001
0000
0100
0000
,
0001
0010
0001
0000
,
1000
0000
0010
0000
,
0100
0010
0100
0000
,
0001
0000
1000
0000
,
0100
0010
0100
0000
,
2000
0000
0000
3000
,
0002
0000
0000
0003
,
0200
0000
0000
0300
,
0010
0010
0010
0000
,
2000
0000
0000
3000
,
0200
0000
0000
0300
,
0020
0000
0000
0030
,
0001
0000
1000
0000
,
0001
0000
0100
0000
,
0010
0000
1000
0000
,
0001
0000
1000
0000
,
0010
0000
0100
0000
,
1001
0000
1001
0000
,
0110
0000
0110
0000
,
2002
0000
0000
3003
,
0000
0000
0000
0000
,
1000
0001
0000
0000
,
0100
0000
0001
0000
,
0010
0100
0000
0000
,
1000
0000
0100
0000
,
0010
0001
0000
0000
,
0100
0000
0001
0000
,
1000
0010
0000
0000
,
0100
0000
0001
0000
,
1000
0000
0100
0000
,
0010
0000
0001
0000
,
1000
0000
0010
0000
,
0100
0000
0001
0000
,
1000
0000
0001
0000
,
0100
0000
0001
0000
,
1000
1000
1000
1000
,
0010
0010
0010
0010
,
1000
0000
0001
0000
,
0100
0100
0100
0000
,
0001
0000
0010
0000
,
0001
0000
1000
0000
,
0100
0000
1000
0000
,
0010
0010
0010
0000
,
0100
0000
0001
0000
,
1000
0000
0100
0000
,
1001
0000
0000
0000
;

//---------------dance-single - ----------------
#NOTES:
     dance-single:
     :
     Hard:
     8:
     0.532,0.497,0.174,0.482,0.210: // measure 1
2000
0000
3000
0001
1000
0020
0000
0030
,  // measure 2
1000
0000
0000
0000
0100
0000
0000
0001
0100
0000
0000
0000
1000
0000
0000
0000
,  // measure 3
0002
0000
0003
0100
0010
2000
0000
3000
,  // measure 4
0001
0001
0000
1000
1000
0001
0020
0030
,  // measure 5
0002
0000
0003
1000
0001
0020
0000
0030
,  // measure 6
0001
0000
0000
0000
0100
0000
0000
1000
0100
0000
0000
0000
0001
0000
0000
0000
,  // measure 7
2000
0000
3000
0100
0010
0002
0000
0003
,  // measure 8
1000
1000
0000
0001
0001
1000
0020
1030
,  // measure 9
1000
0000
0000
0000
0010
0000
0000
0000
1000
0000
0000
0100
0000
0000
0010
0000
,  // measure 10
0002
0000
2003
0000
3000
0002
0000
2003
,  // measure 11
3001
0000
0000
0000
0010
0000
0000
0000
0001
0000
0000
0100
0000
0000
0010
0000
,  // measure 12
2000
0001
3002
1000
1003
2000
0002
3000
,  // measure 13
1003
0100
0000
1000
0100
0020
0000
0030
,  // measure 14
0001
0000
0000
0000
0100
0000
0000
1000
0100
0000
0001
0000
0010
0000
0000
0000
,  // measure 15
0001
0100
0000
0001
0100
0020
0000
0030
,  // measure 16
1000
0000
0100
0000
0001
0000
0000
0001
0100
0000
1000
0000
0010
0000
0100
0000
,  // measure 17
0001
0000
0000
0010
0001
0000
1000
0000
0001
0000
0010
0000
0001
0000
2000
0000
,  // measure 18
0010
0000
3000
0010
1000
0000
0001
0000
1000
0000
0010
0000
1000
0000
0002
0000
,  // measure 19
0010
0000
0003
0010
0100
0000
1000
0000
0100
0000
0010
0000
0001
0000
1000
0000
,  // measure 20
0200
0020
0300
0032
0203
2300
0000
3200
,  // measure 21
0001
0300
0101
0000
1000
0000
1100
0000
,  // measure 22
0001
0101
1000
1100
,  // measure 23
0001
1000
0001
1000
,  // measure 24
0010
0100
0010
0100
,  // measure 25
0001
0000
0000
0001
0010
0000
0100
0000
1000
0000
0000
1000
0100
0000
0010
0000
,  // measure 26
0011
0000
1100
0000
0001
0100
0010
0100
,  // measure 27
0001
0000
0000
0001
0010
0000
1000
0000
0010
0000
0000
0010
0001
0000
1000
0000
,  // measure 28
0010
0010
0000
0100
0100
0010
0020
0000
,  // measure 29
1030
0000
0000
1000
0010
0000
0100
0000
0001
0000
0000
0001
0100
0000
0010
0000
,  // measure 30
1010
0000
0101
0000
1000
0100
0010
0100
,  // measure 31
1000
0000
0000
1000
0010
0000
0001
0000
0010
0000
0000
0010
1000
0000
0001
0000
,  // measure 32
0010
0010
0000
0100
0100
0010
0020
0030
,  // measure 33
2001
3100
1002
0103
,  // measure 34
2001
3010
1002
0013
,  // measure 35
2100
3001
2010
3001
,  // measure 36
0210
1300
0120
0031
,  // measure 37
2000
3100
0002
0013
,  // measure 38
2000
3200
0302
0023
,  // measure 39
1030
1000
0001
0001
1000
1000
0001
0001
,  // measure 40
1000
0100
0001
0100
1000
0010
0001
0010
,  // measure 41
1000
0000
0000
1000
0100
0000
0000
0100
0010
0000
0001
0000
0100
0000
0001
0000
,  // measure 42
0010
0100
0000
0010
0100
0000
1000
0000
0010
0100
0000
0010
0100
0000
0001
0000
,  // measure 43
1000
0000
0000
1000
0100
0000
0000
0100
1000
0000
0010
0000
0100
0000
0001
0000
,  // measure 44
1000
0100
0000
1000
0100
0000
0010
0000
0001
0100
0000
0001
0200
0000
0001
0000
,  // measure 45
0301
0000
0000
0001
0100
0000
0000
0100
0010
0000
1000
0000
0100
0000
1000
0000
,  // measure 46
0010
0100
0000
0010
0100
0000
0001
0000
0010
0100
0000
0010
0100
0000
1000
0000
,  // measure 47
0001
0000
0000
0001
0100
0000
0000
0100
0001
0000
0010
0000
0100
0000
1000
0000
,  // measure 48
0010
0100
0000
0010
1000
0000
0001
0000
0010
0100
0000
0010
0001
0000
1000
0000
,  // measure 49
2002
0000
3003
0000
;

//---------------dance-single - ----------------
#NOTES:
     dance-single:
     :
     Easy:
     5:
     0.274,0.332,0.092,0.308,0.000:
0002
0000
0203
0000
,
0301
0010
0001
0000
,
2000
0000
3200
0000
,
1300
0001
0010
0000
,
0200
0000
2300
0000
,
3010
0100
0001
0010
,
0002
0000
2003
0000
,
3001
0100
0001
0000
,
1000
0100
1000
0000
,
0020
0100
0000
1030
,
0001
0100
0001
0000
,
0020
0001
0000
0031
,
0100
0001
1000
0010
,
0200
0001
0010
0301
,
1000
0100
1000
0010
,
2000
0001
0010
3100
,
1000
0000
0001
0010
,
0100
0000
0001
0100
,
0010
0000
0001
1000
,
0100
0000
0001
0100
,
0010
0110
0100
0101
,
0001
1001
1000
1100
,
1000
0001
0100
0001
,
2000
0000
0002
3003
,
1000
0100
0000
1000
,
0001
0010
0000
0001
,
0100
0000
0001
0000
,
1000
0100
0010
0001
,
1000
0100
0000
1000
,
0010
0000
0100
0001
,
0010
0001
0000
1000
,
0100
0000
1001
0000
,
2000
0100
0002
3003
,
0002
0100
0020
0033
,
0200
1000
2000
3300
,
0002
0100
2000
3003
,
0002
0000
0203
0000
,
0310
1000
0100
0010
,
0002
2003
3200
2300
,
3001
0100
0010
0100
,
0001
0101
0000
1000
,
0100
0000
1000
0001
,
0010
0011
0000
1000
,
0001
0000
0100
0010
,
1000
1010
0000
0100
,
0001
0000
1000
0100
,
1000
0001
0000
0010
,
0001
0000
1000
0000
,
0220
0000
0000
0000
,
0000
0000
0000
0330
;

//---------------dance-single - ----------------
#NOTES:
     dance-single:
     :
     Medium:
     6:
     0.371,0.408,0.051,0.246,0.021:
2000
0000
0000
0000
3001
0100
0001
0000
,
1000
0100
0010
0001
,
0002
0000
0003
0000
1000
0100
1000
0000
,
0001
0100
0000
0000
0001
0000
1000
0000
,
0200
0000
0000
0000
1300
0001
1000
0000
,
0001
0010
0001
0100
,
0020
0000
0000
0000
1030
0100
1000
0000
,
0001
1000
0000
1000
0001
0000
0100
0000
,
0010
0000
0000
0000
1000
0000
0000
0000
0100
0000
0000
1000
0000
0000
0001
0000
,
0100
0001
0010
0001
,
1000
0000
0000
0000
0100
0000
0000
0000
1000
0000
0000
0001
0000
0000
0010
0000
,
0001
0000
0100
0000
0001
0010
0001
0000
,
1000
0000
0000
0000
0001
0000
0000
0000
0100
0000
0000
0001
0000
0000
1000
0000
,
0100
1000
0010
0100
,
0010
0000
0000
0000
0100
0000
0000
0000
0001
0000
0000
0010
0000
0000
0100
0000
,
1000
0000
0001
0000
0100
0001
1000
0000
,
0001
0000
0100
0001
0010
0000
0100
0000
,
0010
0000
0001
0100
0010
0000
0100
0000
,
0001
0000
1000
0100
0010
0000
0100
0000
,
1000
0000
0010
1000
0100
0000
1000
0000
,
0001
0101
0001
1001
,
1000
1100
1000
1001
,
0002
0023
0230
2300
,
3001
0000
0100
0000
0010
0100
0010
0000
,
1000
0000
0100
0000
0010
0001
0000
1000
,
0001
0100
0010
1000
,
0001
0000
0010
0000
0001
0100
0000
0010
,
1000
0000
0100
0000
1000
0001
1000
0000
,
0001
0000
0010
0000
0001
0100
0000
0010
,
0100
0010
1000
0100
,
1000
0000
0100
0000
0010
0001
0000
0001
,
0100
0000
0010
0000
1000
0100
1000
0001
,
0010
0001
0200
0000
,
0301
1000
0020
0000
,
1030
0100
2000
0000
,
3001
0100
0002
0000
,
2003
3100
0020
0031
,
1000
0001
0100
0010
,
1000
0100
1000
0100
1000
0001
1000
0000
,
0001
0100
0001
0100
0001
1000
0001
0000
,
2000
0000
3200
0000
0310
0001
0010
0100
,
2000
0000
3002
0000
0103
0010
0100
0000
,
0002
0000
2003
0000
3100
0010
0001
0100
,
0002
0000
0203
0000
0310
1000
0010
0000
,
0100
0000
0001
0000
0010
0000
0100
1000
,
0100
0000
1000
0000
0001
0010
0001
0000
,
0100
0001
1000
0010
,
0100
0001
1000
0100
0010
0000
0100
0000
,
2002
0000
0000
0000
,
0000
0000
0000
3003
;

//---------------dance-double - ----------------
#NOTES:
     dance-double:
     :
     Beginner:
     1:
     0.158,0.172,0.021,0.041,0.000:
00000001
00000000
00000100
00000000
,
00000001
00000001
00000001
00000000
,
00001000
00000000
00000100
00000000
,
00010000
00010000
00000000
00001000
,
00001000
00000000
00010000
00000000
,
00001000
00000000
01000000
00000000
,
00010000
00000000
00100000
00000000
,
01000000
00000000
10010000
00000000
,
20000000
00000000
30000000
00000000
,
00010000
00000000
01000000
00000000
,
00002000
00000000
00003000
00000000
,
00010000
00000000
00000100
00000000
,
00002000
00000000
00003000
00000000
,
00000001
00000000
00000010
00000000
,
00000002
00000000
00000003
00000000
,
00001000
00000000
00000100
00000000
,
00010000
00000000
00001000
00000000
,
00100000
00100000
00100000
00000000
,
00001000
00000000
00010000
00000000
,
00000100
00000100
00000100
00000000
,
00010000
00000000
00001000
00000000
,
01000000
01000000
01000000
00000000
,
00010000
00000000
10000000
00000000
,
01000000
00000000
00100000
00000000
,
00001000
00000000
00000001
00000000
,
00000100
00000000
00000001
00000000
,
00001000
00000000
00000100
00000000
,
00010000
00000000
00001000
00001000
,
00001000
00000000
00010000
00000000
,
00001000
00000000
01000000
00000000
,
00010000
00000000
00100000
00000000
,
00010000
00000000
01000000
01000000
,
01000000
00000000
00010000
00000000
,
00100000
00000000
00001000
00000000
,
00010000
00000000
00000100
00000000
,
00001000
00000000
00000010
00000000
,
00000100
00000000
00000001
00000000
,
00001000
00001000
00001000
00000000
,
00000100
00000100
00000100
00000000
,
00010000
00000000
00011000
00000000
,
00001000
00000000
01000000
00000000
,
00010000
00000000
00100000
00000000
,
00010000
00000000
10000000
00000000
,
01000000
00000000
10000000
00000000
,
00010000
00000000
00100000
00000000
,
00001000
00000000
00010000
00000000
,
00000100
00000000
00001000
00000000
,
00000010
00000000
00001000
00000000
,
00000100
00000000
00000000
00000000
;

//---------------dance-double - ----------------
#NOTES:
     dance-double:
     :
     Easy:
     5:
     0.281,0.377,0.051,0.390,0.000:
20000000
00000000
30020000
00000000
,
01030000
00001000
00010000
00000010
,
00000200
00000000
00000302
00000000
,
00001003
00000100
00010000
00000000
,
00002000
00000000
02003000
00000000
,
03010000
00100000
00001000
00010000
,
00000200
00000000
00002300
00000000
,
00003010
00000100
00000001
00000000
,
00000001
00000100
00000001
00001000
,
00000100
00020000
00000000
00031000
,
00010000
00001000
00000000
01000000
,
00010000
00200000
00000000
00310000
,
01000000
00100000
10000000
01000000
,
00200000
00000000
00302000
00000000
,
00013000
00000100
00001000
00000010
,
00000200
00000000
00000301
00001000
,
00000100
00010000
00001000
00010000
,
00000010
00001000
00000100
00000010
,
00000001
00000100
00000010
00001000
,
00000100
00010000
00001000
01000000
,
00100000
00000000
01010000
00000000
,
00001000
00000000
00011000
00000000
,
00000100
00000000
00001100
00000000
,
00000001
00000000
00000101
00000000
,
00002000
00000000
00003001
00000100
,
00000002
00000000
00001003
00000100
,
00020000
00000000
00032000
00000000
,
01003000
00010000
00100000
01000000
,
20000000
00000000
30020000
00000000
,
01030000
00001000
00100000
00010000
,
02000000
00000000
03002000
00000000
,
00013000
00000100
00001000
00000001
,
00000200
00000000
00000301
00000000
,
00002000
00000000
00003100
00000000
,
00020000
00000000
00031000
00000000
,
02000000
00000000
03010000
00000000
,
20000000
30100000
02000000
03010000
,
00200000
00302000
00023000
00030200
,
00001300
00000010
00000100
00000001
,
00001000
00000100
00000010
00000001
,
00001000
00000100
00010000
00001000
,
02000000
03020000
00000000
10030000
,
01000000
00100000
00010000
01000000
,
00001000
00020000
00000000
00030100
,
00000010
00000001
00000100
00000010
,
00002000
00000000
00003200
00000000
,
00010300
00001000
00100000
00010000
,
01000000
00001000
00010000
00001000
,
00022000
00000000
00000000
00000000
,
00033000
00000000
00000000
00000000
;

//---------------dance-double - ----------------
#NOTES:
     dance-double:
     :
     Medium:
     6:
     0.379,0.377,0.000,0.390,0.021:
00000002
00000000
00000000
00000000
00000103
00000001
00000100
00000000
,
00000010
00001000
00000100
00010000
,
00002000
00000000
00000000
00000000
00013000
00001000
00010000
00000000
,
00001000
01000000
00000000
00010000
01000000
00000000
00100000
00000000
,
20000000
00000000
00000000
00000000
31000000
10000000
01000000
00000000
,
00100000
00010000
01000000
00001000
,
00020000
00000000
00000000
00000000
00031000
00010000
00000100
00000000
,
00001000
00000010
00000000
00000100
00000001
00000000
00001000
00000000
,
00000100
00000000
00000000
00000000
00010000
00000000
00000000
00000000
00001000
00000000
00000000
01000000
00000000
00000000
00010000
00000000
,
00200000
00020000
00300000
10030000
,
01000000
00000000
00000000
00000000
10000000
00000000
00000000
00000000
00100000
00000000
00000000
01000000
00000000
00000000
00010000
00000000
,
10000000
01000000
00000000
00100000
00010000
00000000
01000000
00000000
,
00001000
00000000
00000000
00000000
00010000
00000000
00000000
00000000
00000100
00000000
00000000
00001000
00000000
00000000
00000010
00000000
,
00000200
00000002
00000300
00001003
,
00000100
00000000
00000000
00000000
00010000
00000000
00000000
00000000
00001000
00000000
00000000
01000000
00000000
00000000
00010000
00000000
,
00100000
00010000
01000000
00010000
10000000
00000000
01000000
00000000
,
10000000
00000000
01000000
00000000
10000000
00010000
00100000
00000000
,
00001000
00000000
00010000
00000000
00000100
00000010
00000001
00000000
,
00000100
00000000
00000010
00000000
00001000
00000100
00010000
00000000
,
00001000
00000000
01000000
00000000
00100000
10000000
01000000
00000000
,
20000000
31000000
00020000
00031000
,
00000020
00000031
00000200
00000301
,
00000200
00000000
00002300
00000000
,
00023000
00000000
00230000
00000000
,
10300000
00000000
01000000
10000000
00000000
00010000
00100000
00000000
,
00001000
00000000
00010000
00001000
00010000
00000000
00000100
00000000
,
00001000
00000000
00000010
00000100
00000000
00000100
00000001
00000000
,
00001000
00000100
00000000
00010000
00001000
00100000
00020000
00000000
,
10030000
00000000
01000000
00000000
10000000
00100000
00000000
01000000
,
00010000
00000000
00100000
00000000
00001000
00010000
00001000
00000000
,
00010000
00000000
00000100
00000000
00001000
00000010
00000000
00000100
,
00000001
00000000
00000010
00000000
00000001
00001000
00000100
00001000
,
00000002
00000000
00000203
00000000
,
00002300
00000000
00023000
00000000
,
02030000
23000000
30200000
02300000
,
03001000
00010000
00000100
00000010
,
00000001
00000100
00001000
00010000
,
00100000
10000000
01000000
00010000
,
00001000
00000010
00000001
00000100
00000001
00001000
00000001
00000000
,
00001000
00000100
00010000
00001000
00100000
00010000
01000000
00000000
,
00020000
00000000
02030000
00000000
03100000
10000000
00000000
00010000
,
00200000
00000000
00302000
00000000
00013000
00001000
00010000
00000000
,
00000200
00000000
00002300
00000000
00003010
00000100
00000000
00000100
,
00000001
00001000
00000000
00000001
00000100
00000001
00001000
00000000
,
00000200
00000000
00020300
00000000
00031000
00100000
00000000
00010000
,
02000000
00000000
03200000
00000000
10300000
01000000
10000000
00000000
,
00020000
00000000
00230000
00000000
00301000
01000000
00000000
00010000
,
00100000
00000000
00010000
00000000
10000000
01000000
10000000
00000000
,
00200000
00000000
00000000
00000000
,
00300000
00000000
00000000
00000000
;
