#TITLE:The Future is Ours;
#SUBTITLE:;
#ARTIST:Men Of Steel;
#TITLETRANSLIT:;
#SUBTITLETRANSLIT:;
#ARTISTTRANSLIT:;
#GENRE:;
#CREDIT:;
#MENUCOLOR:;
#METERTYPE:DDR;
#BANNER:The Future Is Ours-bn.png;
#BACKGROUND:The Future Is Ours-bg.png;
#LYRICSPATH:;
#CDTITLE:ddrencorecdtitle.png;
#MUSIC:The Future Is Ours.mp3;
#OFFSET:-0.658;
#SAMPLESTART:53.400;
#SAMPLELENGTH:11.820;
#SELECTABLE:YES;
#LISTSORT:;
#BPMS:0.000=177.140;
#STOPS:280.000=1.000
;
#BGCHANGES:;
#ATTACKS:;

//---------------dance-single - ----------------
#NOTES:
     dance-single:
     :
     Hard:
     8:
     0.484,0.650,0.494,0.075,0.364: // measure 1
0000
0000
0000
0000
,  // measure 2
0000
0000
0000
0000
,  // measure 3
0000
0000
0000
0000
,  // measure 4
0000
0000
0000
0000
,  // measure 5
0000
0000
0000
0000
,  // measure 6
0000
0000
0000
0000
,  // measure 7
0000
0000
0000
0000
,  // measure 8
1001
0000
0000
1000
0000
0000
0100
0000
0000
0010
0000
0001
,  // measure 9
1000
0000
1000
0001
0000
0000
0101
0000
0000
1100
0000
0000
,  // measure 10
1001
0000
0000
1000
0000
0000
0001
0000
0000
0010
0000
0100
,  // measure 11
0010
0000
0010
0100
0000
0000
1000
0000
0000
0010
0000
0000
,  // measure 12
1001
0000
0000
0001
0000
0000
0010
0000
0000
0100
0000
1000
,  // measure 13
0100
0000
0100
1000
0000
0000
1010
0000
0000
0101
0000
0000
,  // measure 14
1001
0000
0000
0001
0000
0000
0100
0000
1000
0000
0100
0000
,  // measure 15
0010
0000
0000
1000
0001
1000
0100
0000
0000
0010
0000
0000
,  // measure 16
0021
0000
0000
0001
0000
0000
0100
0000
0000
0031
0000
1000
,  // measure 17
0001
0000
0001
0100
0000
0000
0010
0000
0000
1000
0000
0001
,  // measure 18
2000
0000
0000
0100
0000
0000
0001
0000
0000
3100
0000
1000
,  // measure 19
0001
0000
0001
0100
0000
0000
0001
0000
0000
1000
0000
1000
,  // measure 20
0002
0000
0000
0010
0000
0000
1000
0000
0000
0013
0000
0001
,  // measure 21
1000
0000
1000
0001
0000
0000
0100
0000
0000
0010
0000
1000
,  // measure 22
0200
0000
0000
0010
0000
0000
1000
0000
0000
0310
0000
0010
,  // measure 23
0002
0000
0000
0000
,  // measure 24
0003
0000
0000
0000
,  // measure 25
0000
0000
0000
0000
,  // measure 26
1100
0000
0000
0000
,  // measure 27
0101
0000
0000
0000
,  // measure 28
0011
0000
0000
0000
,  // measure 29
0000
0000
0000
0000
,  // measure 30
1100
0000
0000
0000
,  // measure 31
0101
0000
0000
0000
,  // measure 32
0011
0000
0000
0000
,  // measure 33
0000
0000
0000
0000
,  // measure 34
0001
1000
0100
0000
,  // measure 35
0100
0000
0100
0000
,  // measure 36
0000
0000
0100
0000
,  // measure 37
0000
0000
0100
0000
,  // measure 38
0200
0000
0000
0000
,  // measure 39
0320
0000
0000
0000
,  // measure 40
0031
0100
0010
1000
,  // measure 41
0001
0000
0000
0001
,  // measure 42
1000
0000
0100
0010
0000
0000
0001
0000
0000
1000
0000
0000
,  // measure 43
0001
0000
0000
0000
,  // measure 44
0001
0000
0010
0000
0000
0000
0000
0000
0000
0000
0000
0000
,  // measure 45
0010
0000
1000
0000
0000
0000
0000
0000
0000
1000
0000
0000
,  // measure 46
0100
0000
0001
0010
0000
0000
0001
0000
0000
0100
0000
0000
,  // measure 47
1000
0000
0010
1000
0000
0000
0100
0000
0000
0001
0000
0000
,  // measure 48
1000
0100
0010
0100
,  // measure 49
1000
0001
1000
0010
,  // measure 50
1000
0000
0000
0001
0000
0000
0001
0000
0000
0100
0000
0001
,  // measure 51
1000
0000
0000
1000
0000
0000
0100
0000
0000
0100
0000
1000
,  // measure 52
0001
0000
0000
0101
0000
0000
0101
0000
0000
1000
0000
0100
,  // measure 53
1000
0000
0000
1100
0000
0000
1100
0000
0000
0001
1000
0001
,  // measure 54
1000
0010
0100
0001
,  // measure 55
0100
0000
0000
0010
0000
0000
2000
0000
0002
0000
0000
3003
,  // measure 56
1001
0000
0000
1000
0000
0000
0100
0000
0000
1000
0000
0001
,  // measure 57
1000
0000
0000
0010
0000
0000
0100
0000
0000
0001
1000
0001
,  // measure 58
0010
0000
0000
1100
0000
0000
0101
0000
0000
0010
0000
0100
,  // measure 59
0001
0000
0000
0010
0000
0000
0110
0000
0000
1100
0000
0001
,  // measure 60
1000
0000
0000
0010
0000
0000
0100
0000
0000
0001
0000
1000
,  // measure 61
0100
0000
0000
1000
0000
0000
0001
0000
0000
1000
0010
1000
,  // measure 62
0100
0000
0000
0101
0000
0000
1100
0000
0000
1000
0000
0010
,  // measure 63
0100
0000
0000
0110
0000
0000
0101
0000
0000
1000
0000
0001
,  // measure 64
1000
0000
0000
0100
1000
0100
1000
0000
0000
0001
0000
0100
,  // measure 65
0001
0000
0010
0000
0100
0000
1000
0000
0000
0100
1000
0001
,  // measure 66
0100
0000
0010
0000
1000
0000
0001
0000
0001
1000
0000
1000
,  // measure 67
0100
0000
0010
0000
0001
0000
1000
0000
1000
0010
0000
0010
,  // measure 68
0100
0000
0000
0001
0000
0000
1000
0000
0000
0100
0000
1000
,  // measure 69
0001
0000
1000
0000
0010
0000
0100
0000
0000
0010
0100
0010
,  // measure 70
1000
0000
0001
0000
1000
0000
0100
0000
0000
0010
0000
0001
,  // measure 71
1000
1001
1001
0101
,  // measure 72
0001
0000
0100
1000
0000
0000
1100
0000
0000
0110
0000
0000
,  // measure 73
1000
0100
0010
0001
0000
0000
0011
0000
0000
0110
0000
0000
,  // measure 74
0010
0000
0100
0001
0000
0000
0101
0000
0000
0110
0000
0000
,  // measure 75
1000
0000
1000
0010
0000
0000
0110
0000
0000
0110
0000
0000
,  // measure 76
0100
0000
0010
1000
0000
0000
1010
0000
0000
1001
0000
0000
,  // measure 77
0001
0010
1000
0010
0000
0000
1010
0000
0000
0110
0000
0000
,  // measure 78
1000
0000
0001
1000
0000
0000
0001
1000
0001
1000
0100
0010
,  // measure 79
0100
0000
0100
1000
0000
0000
1100
0000
0000
1100
0000
0000
,  // measure 80
1000
0000
0100
0001
0000
0000
0101
0000
0000
0110
0000
0000
,  // measure 81
1000
0001
0100
1000
0000
0000
1100
0000
0000
0110
0000
0000
,  // measure 82
0100
0000
0001
1000
0000
0000
1001
0000
0000
1001
0000
0000
,  // measure 83
0100
0000
0010
1000
0000
0000
1100
0000
0000
1100
0000
0000
,  // measure 84
0010
0000
0001
0100
0000
0000
0101
0000
0000
0101
0000
0000
,  // measure 85
0001
1000
0010
0001
0000
0000
0011
0000
0100
0001
0000
0000
,  // measure 86
1100
1100
0100
0010
,  // measure 87
0001
1001
0000
0000
;

//---------------dance-single - ----------------
#NOTES:
     dance-single:
     :
     Beginner:
     2:
     0.194,0.289,0.151,0.000,0.000:
0000
0000
0000
0000
,
0000
0000
0000
0000
,
0000
0000
0000
0000
,
0000
0000
0000
0000
,
0000
0000
0000
0000
,
0000
0000
0000
0000
,
0000
0000
0000
0000
,
1000
0000
1000
0000
,
0001
0000
0001
0000
,
1000
0000
1000
0000
,
0001
0000
0001
0000
,
0100
0000
0100
0000
,
0010
0000
0010
0000
,
0100
0000
0100
0000
,
0010
0000
0010
0000
,
1001
0000
1000
0000
,
0001
0000
0000
0000
,
1001
0000
0001
0000
,
1000
0000
0000
0000
,
0110
0000
0010
0000
,
0100
0000
0000
0000
,
0110
0000
0100
0000
,
0010
0000
0000
0000
,
0000
0000
0000
0000
,
0000
0000
0000
0000
,
1000
0000
0000
0000
,
0100
0000
0000
0000
,
0010
0000
0000
0000
,
0000
0000
0000
0000
,
1000
0000
0000
0000
,
0100
0000
0000
0000
,
0010
0000
0000
0000
,
0000
0000
0000
0000
,
1000
0000
0000
0000
,
0100
0000
0000
0000
,
0010
0000
0000
0000
,
0000
0000
0000
0000
,
1000
0000
0000
0000
,
0100
0000
0000
0000
,
0010
0000
0000
0000
,
0001
0000
0000
0000
,
1000
0000
0000
0000
,
0100
0000
0000
0000
,
0010
0000
0000
0000
,
0001
0000
0000
0000
,
1000
0000
0000
0000
,
0100
0000
0000
0000
,
0010
0000
0100
0000
,
1000
0000
0000
0000
,
0010
0000
0100
0000
,
0001
0000
0000
0000
,
0010
0000
0010
0000
,
0010
0000
0010
0000
,
0100
0000
0100
0000
,
1001
0000
0000
0000
,
1001
0000
1001
0000
,
0001
0001
0001
0000
,
1000
1000
1000
0000
,
0001
0001
0001
0000
,
1001
0000
1001
0000
,
0010
0010
0010
0000
,
0100
0100
0100
0000
,
0010
0010
0010
0000
,
1001
0000
1001
0000
,
1000
1000
1000
0000
,
0001
0001
0001
0000
,
1000
1000
1000
0000
,
1001
0000
1001
0000
,
0100
0100
0100
0000
,
0010
0010
0010
0000
,
0000
1001
0000
1000
,
0000
0100
0100
0100
,
0000
0010
0010
0010
,
0000
0001
0001
0001
,
0000
1001
0000
0001
,
0000
0100
0100
0100
,
0000
0010
0010
0010
,
0000
1000
1000
1000
,
0000
1001
0000
1000
,
0000
0100
0100
0100
,
0000
0010
0010
0010
,
0000
0001
0001
0001
,
0000
1001
0000
0001
,
0000
0100
0100
0100
,
0000
0010
0000
0010
,
0000
1000
0000
1000
,
0000
1001
0000
0000
;

//---------------dance-single - ----------------
#NOTES:
     dance-single:
     :
     Easy:
     3:
     0.232,0.325,0.126,0.000,0.000:
0000
0000
0000
0000
,
0000
0000
0000
0000
,
0000
0000
0000
0000
,
0000
0000
0000
0000
,
0000
0000
0000
0000
,
0000
0000
0000
0000
,
0000
0000
0000
0000
,
1001
0000
1000
1000
,
0100
0000
0010
0000
,
0001
0000
0001
0001
,
0100
0000
0010
0000
,
1000
0000
1000
1000
,
0100
0000
0010
0000
,
0001
0000
0001
0001
,
0100
0000
0000
0000
,
1001
0000
1000
1000
,
1000
0100
0010
0000
,
0001
0000
0001
0001
,
0001
0100
0010
0000
,
1000
0000
1000
1000
,
1000
0100
0010
0000
,
0001
0000
0001
0000
,
0001
0000
0000
0000
,
0000
0000
0000
0000
,
0000
0000
0000
0000
,
1000
0000
0000
0000
,
0100
0000
0000
0000
,
0010
0000
0000
0000
,
0000
0000
0000
0000
,
1000
0000
0000
0000
,
0100
0000
0000
0000
,
0010
0000
0000
0000
,
0000
0000
0000
0000
,
1000
0000
0000
0000
,
0100
0000
0000
0000
,
0010
0000
0000
0000
,
0000
0000
0000
0000
,
1000
0000
0000
0000
,
0100
0000
0000
0000
,
0010
0000
0001
0000
,
0100
0000
0000
0000
,
0010
0000
1000
0000
,
0100
0000
0000
0000
,
1001
0000
0000
0000
,
0110
0000
0000
0000
,
1001
0000
0000
0000
,
0010
0000
1000
0000
,
0100
0000
0100
0000
,
0010
0001
0010
0000
,
0001
1000
0001
0000
,
1000
0100
1000
0000
,
0001
0000
0001
0000
,
1000
0000
1000
0000
,
0100
0000
0100
0000
,
1001
0000
0000
0000
,
1000
0001
0100
0000
,
0001
0001
0001
0000
,
1000
0100
0010
0000
,
0001
0001
0001
0000
,
0001
0100
0010
0000
,
1000
1000
1000
0000
,
0010
1000
0100
0000
,
1000
1000
1000
0000
,
0100
0010
0001
0000
,
0001
1000
0000
0100
,
0010
0000
0010
0000
,
0001
0000
0100
0000
,
0010
1000
0001
0000
,
1000
1000
1000
0000
,
0001
0010
0100
1000
,
0001
1001
0000
1001
,
0000
1000
0100
0010
,
0001
0010
0100
1000
,
0100
0010
0001
0010
,
0000
1001
0000
1001
,
0000
1000
0100
0010
,
0001
0010
0100
1000
,
0100
0010
0001
0010
,
0000
1001
0000
1001
,
0000
1000
0100
0010
,
0010
0001
0010
0100
,
0100
1000
0100
0010
,
0000
1001
0000
1001
,
0000
1000
0100
0010
,
0010
0001
0010
0100
,
0100
1000
0001
1000
,
0001
1001
0000
0000
;

//---------------dance-single - ----------------
#NOTES:
     dance-single:
     :
     Medium:
     6:
     0.367,0.434,0.344,0.101,0.088:
0000
0000
0000
0000
,
0000
0000
0000
0000
,
0000
0000
0000
0000
,
0000
0000
0000
0000
,
0000
0000
0000
0000
,
0000
0000
0000
0000
,
0000
0000
0000
0000
,
1001
1000
0100
1000
,
0001
0001
0001
0001
,
1001
0100
1000
0010
,
1000
1000
1000
1000
,
1001
1000
0100
0010
,
0100
0100
0100
0100
,
1001
0001
1000
0001
,
0100
0100
0100
0100
,
1001
1000
0100
0010
,
0001
0001
0001
0001
,
1000
0100
0010
0001
,
1000
1000
1000
1000
,
0001
0100
0010
1000
,
0010
0010
0010
0010
,
1000
0100
0010
0002
,
2000
0000
0000
0000
,
3003
0000
0000
0000
,
0000
0000
0000
0000
,
1100
0000
0000
0000
,
0101
0000
0000
0000
,
0011
0000
0000
0000
,
0000
0000
0000
0000
,
1100
0000
0000
0000
,
0101
0000
0000
0000
,
0011
0000
0000
0000
,
0000
0000
0000
0000
,
1100
0100
0010
0000
,
0101
0000
1100
0000
,
0000
0000
0101
0000
,
0000
0000
0101
0000
,
1100
0000
0000
0000
,
0101
0000
0000
0000
,
0011
0001
1000
0100
,
0010
0000
0000
0000
,
0001
1000
0010
0100
,
0010
0000
0000
0000
,
1100
0000
0000
0000
,
0101
0000
0000
0011
,
1010
0000
0000
0001
,
1000
0010
0100
0001
,
1000
0000
0000
0000
,
0100
0010
0001
0000
,
1000
0010
0100
0000
,
0001
0010
0100
1000
,
1001
0000
0000
1000
0000
0000
1000
0000
0000
0001
0000
0100
,
0001
0000
0000
0001
0000
0000
0001
0000
0000
0001
0000
1000
,
0100
0100
0100
0100
,
1001
0000
0000
0000
,
1001
0000
0000
0001
0000
0000
0100
0000
0000
0010
0000
1000
,
0100
0000
0000
0010
0000
0000
0001
0000
0000
0010
0000
0100
,
1000
0000
0000
0001
0000
0000
1000
0000
0000
0010
0000
0100
,
0001
1000
0001
0010
,
0011
0000
0000
0001
0000
0000
0010
0000
0000
0100
0000
1000
,
0001
0000
0000
1000
0000
0000
0010
0000
0000
0100
0000
0001
,
1000
0000
0000
0001
0000
0000
0010
0000
0000
0100
0000
0010
,
0001
0100
0010
1000
,
1001
0000
0000
0001
0000
0000
0100
0000
0000
0010
0000
1000
,
0200
0000
0000
0000
0000
0000
0320
0000
0000
0000
0030
0001
,
0200
0000
0000
0000
0000
0000
0320
0000
0000
0000
0030
1000
,
0002
0000
0000
0000
0000
0000
2003
0000
0000
0000
0000
3000
,
0010
0000
0000
0100
0000
0000
0001
0000
0000
1000
0000
0100
,
0020
0000
0000
0000
0000
0000
0032
0000
0000
0000
0003
1000
,
0200
0000
0000
0000
0000
0000
2300
0000
0000
0000
3000
0000
,
0001
1001
1000
0100
,
1000
0000
0010
0100
0000
0000
0001
0000
0000
1000
0000
0000
,
1100
1100
0010
0001
,
0100
0000
0001
0100
0000
0000
0001
0000
0000
1000
0000
0000
,
0001
1001
1000
0100
,
1000
0000
0010
0100
0000
0000
0001
0000
0000
1000
0000
0000
,
1010
1010
0100
0001
,
0010
0000
0100
0010
0000
0000
0100
0000
0000
1000
0000
0000
,
0001
1001
0001
0100
,
0010
0000
0100
0001
0000
0000
0010
0000
0000
0001
0000
0000
,
0011
0011
1000
0100
,
0010
0000
0100
1000
0000
0000
0001
0000
0000
1000
0000
0000
,
0010
0110
0010
1000
,
0100
0000
0010
0100
0000
0000
1000
0000
0000
0001
0000
0000
,
0101
0101
1000
0001
,
0010
0000
0001
0100
0000
0000
0000
0000
0000
0010
0000
0000
,
0000
1001
0000
0000
;

//---------------dance-double - ----------------
#NOTES:
     dance-double:
     :
     Hard:
     9:
     0.554,0.687,0.595,0.251,0.415:
00000000
00000000
00000000
00000000
,
00000000
00000000
00000000
00000000
,
00000000
00000000
00000000
00000000
,
00000000
00000000
00000000
00000000
,
00000000
00000000
00000000
00000000
,
00000000
00000000
00000000
00000000
,
00000000
00000000
00000000
00000000
,
10010000
00000000
00000000
10000000
00000000
00000000
11000000
00000000
00000000
01000000
00000000
00100000
,
00010000
00000000
00100000
00001000
00000000
00000000
00011000
00000000
00000000
00010100
00000000
00000000
,
00001001
00000000
00000000
00000001
00000000
00000000
00000101
00000000
00000000
00000010
00000000
00001000
,
00000100
00000000
00010000
00001000
00000000
00000000
00011000
00000000
00000000
00001010
00000000
00000000
,
00001001
00000000
00000000
00000001
00000000
00000000
00001100
00000000
00000000
00010000
00000000
00001000
,
00100000
00000000
00100000
00010000
00000000
00000000
01000000
00000000
00010000
00000000
10000000
00000000
,
11000000
00000000
00000000
00100000
00000000
00000000
00110000
00000000
00000000
00001000
00000000
00010000
,
00000100
00000000
00000100
00001000
00000010
00001000
00000001
00000000
00000001
00000100
00000000
00000000
,
00001001
00000000
00000000
00000100
00000000
00010000
00001000
00000000
00000000
00011000
00000000
00001000
,
00010000
00000000
00010000
00100000
00000000
10000000
01000000
00100000
00010000
10000000
00000000
10000000
,
00010000
00000000
00000000
00100000
00000000
00001000
00010000
00000000
00000000
00011000
00000000
00010000
,
00001000
00000000
00000000
00000010
00000000
00000000
00000001
00000000
00000000
00000100
00000000
00000100
,
00000010
00002000
00000100
00010000
,
00003100
00000000
00010000
00001000
00000000
00000000
01000000
00000000
00000000
00010000
00000000
00100000
,
00020000
00000000
00000000
01000000
00000000
00000000
00001000
00000000
00000000
01030000
00000000
00010000
,
20000000
00000000
00000000
00000000
,
30000000
00000000
00000000
00000000
,
00001000
00010000
00000000
00010000
00001000
00000000
00001000
00010000
,
01000000
22000000
00000000
00000000
00000000
00000000
33000000
00000000
,
00022000
00000000
00000000
00033000
,
00000022
00000000
00000000
00000033
,
00000001
00000100
00001000
00000000
00010000
01000000
00000000
00000000
,
22000000
00000000
00000000
33000000
,
00022000
00000000
00000000
00033000
,
00000022
00000000
00000000
00000000
00000000
00000033
00000001
00000010
,
00002000
00000000
00000000
00000000
00000000
00000000
00013000
00100000
,
10000000
11000000
00011000
00000000
,
00000011
00000000
00011000
00000000
,
00000000
00000000
00001000
00000000
,
00000000
00000000
00001000
00000000
,
22000000
00000000
00000000
33000000
,
02020000
00000000
00000000
03030000
,
10010000
10000000
00100000
10000000
,
00010000
00000000
00000000
00010000
,
00100000
00000000
00001000
00010000
00000000
00000000
00001000
00000000
00000000
00010000
00000000
00000000
,
00000100
00000000
00000000
00000000
,
00001100
00000000
00001100
00000000
00000000
00000000
00000000
00000000
00000000
00000000
00000000
00000000
,
00000101
00000000
00000101
00000000
00000000
00000000
00000000
00000000
00000000
00002000
00000000
00003000
,
00000101
00000000
00000010
00001000
00000000
00000000
00000100
00000000
00000000
00010000
00000000
00000000
,
00001000
00000000
00010000
00001000
00000000
00000000
00010000
00000000
00000000
00100000
00000000
00000000
,
10000000
00000000
00000000
00000000
00000000
00000000
00000000
00000000
00000000
00010000
00000000
10000000
,
01000000
00000000
00000000
01000000
00000000
00000000
01000000
00000000
00000000
00100000
00000000
00001000
,
00010000
00000000
00000000
00010000
00000000
00000000
00010000
00000000
00000000
00001000
00000000
00000100
,
00000001
00000000
00000000
00000001
00000000
00000000
00000001
00000000
00000000
00001000
00000000
00000001
,
00000100
00000000
00000000
00000001
00000100
00000001
00000100
00000000
00000000
00000010
00000000
00001000
,
00000010
00000000
00000000
00000100
00000000
00000000
00000001
00000000
00000000
00001000
00000010
00001000
,
00000010
00010000
00001000
00010000
,
00001000
00010000
00001000
00010000
,
00011000
00000000
00000000
00001000
00000000
00000000
01000000
00000000
00000000
00010000
00000000
10000000
,
00020000
00000000
00000000
00100000
00000000
00000000
00130000
00000000
00000000
01000000
00001000
00010000
,
00002000
00000000
00000000
00010000
00000000
00000000
00013000
00000000
00000000
00001000
00000000
00010000
,
00000200
00000000
00000000
00001000
00000000
00000000
00001300
00000000
00000000
00010000
00000000
00001000
,
00000100
00000000
00000000
00000001
00000000
00000000
00001000
00000000
00000000
00000001
00000000
00000010
,
00000002
00000000
00000000
00001000
00000000
00000000
00001003
00000000
00000000
00000100
00010000
00001000
,
00020000
00000000
00000000
00001000
00000000
00000000
00031000
00000000
00000000
00001000
00000000
00010000
,
02000000
00000000
00000000
00100000
00000000
00000000
03100000
00000000
00000000
00010000
00000000
10000000
,
00020000
00000000
00000000
01000000
00000000
00000000
01030000
00000000
00100000
10000000
00000000
00100000
,
01000000
00000000
00001000
00000000
00100000
00000000
00101000
00000000
00000000
00010000
00001000
00010000
,
00000100
00000000
00001000
00000000
00000100
00000000
00001100
00000000
00000100
00000010
00000000
00000010
,
00000001
00000000
00000100
00000000
00000010
00000000
00001010
00000000
00001000
00000001
00000000
00000001
,
00001000
00000000
00000000
00000100
00000000
00000000
00001000
00000000
00000000
00000010
00000000
00010000
,
00001000
00000000
00100000
00000000
00001000
00000000
00101000
00000000
00000000
00001000
01000000
00010000
,
01000000
00000000
00100000
00000000
10000000
00000000
10100000
00000000
00000000
01000000
00000000
00010000
,
10000000
11000000
01100000
00110000
,
00100000
00000000
00001000
00010000
00000000
00000000
00001010
00000000
00000000
00000110
00000000
00000000
,
00000001
00000100
00001000
00010000
00000000
00000000
00011000
00000000
00000000
00001010
00000000
00000000
,
00000011
00000000
00000001
00000010
00000000
00000000
00001010
00000000
00000000
00011000
00000000
00000000
,
00010000
00000000
00001000
00010000
00000000
00000000
10100000
00000000
00000000
11000000
00000000
00000000
,
00010000
00000000
10000000
01000000
00000000
00000000
00100000
00000000
00000000
00001000
00000000
00000000
,
00010000
00001000
00000100
00000010
00000000
00000000
00001010
00000000
00000000
00011000
00000000
00000000
,
00110000
00000000
00001000
00010000
00000000
00000000
00001000
00000100
00001000
00000010
00001000
00000010
,
00000100
00000001
00000100
00000001
00000000
00000000
00001001
00000000
00000000
00000101
00000000
00000000
,
00001100
00000000
00001000
00000100
00000000
00000000
00001100
00000000
00000000
00011000
00000000
00000000
,
00001000
00010000
00100000
01000000
00000000
00000000
01010000
00000000
00000000
10010000
00000000
00000000
,
00010000
00000000
00100000
01000000
00000000
00000000
11000000
00000000
00000000
10010000
00000000
00000000
,
01010000
00000000
01000000
00001000
00000000
00000000
00011000
00000000
00000000
00010010
00000000
00000000
,
00001010
00000000
00000010
00000100
00000000
00000000
00000101
00000000
00000000
00000011
00000000
00000000
,
00000001
00000010
00000100
00001000
00000000
00000100
00000000
00000000
00001000
00000010
00000000
00000000
,
00001000
00000000
00000000
00000100
00000000
00010000
00000000
00000000
00010000
00001000
00000000
00000000
,
00022000
00000000
00033000
00011000
00000000
00000000
00000000
00000000
00000000
00000000
00000000
00000000
;

//---------------dance-double - ----------------
#NOTES:
     dance-double:
     :
     Easy:
     4:
     0.288,0.361,0.134,0.042,0.000:
00000000
00000000
00000000
00000000
,
00000000
00000000
00000000
00000000
,
00000000
00000000
00000000
00000000
,
00000000
00000000
00000000
00000000
,
00000000
00000000
00000000
00000000
,
00000000
00000000
00000000
00000000
,
00000000
00000000
00000000
00000000
,
10010000
10000000
01000000
00100000
,
00010000
00010000
00010000
00000000
,
00100000
00001000
00010000
00000100
,
00001000
00001000
00001000
00000000
,
00000100
00000010
00000001
00001000
,
00000001
00000001
00000001
00000000
,
00000100
00000010
00001000
00000100
,
00010000
00000000
00010000
00000000
,
00001000
00001000
00010000
00010000
,
00001000
00100000
00010000
01000000
,
00010000
00010000
10000000
10000000
,
01000000
00100000
00010000
01000000
,
00001000
00001000
00010000
00010000
,
00000100
00001000
00000100
00000010
,
00000100
00000100
00000010
00000001
,
00001000
00000000
00000000
00000000
,
00000000
00000000
00000000
00000000
,
00000000
00000000
00000000
00000000
,
00110000
00000000
00000000
00000000
,
00011000
00000000
00000000
00000000
,
00001100
00000000
00000000
00000000
,
00000000
00000000
00000000
00000000
,
00110000
00000000
00000000
00000000
,
00011000
00000000
00000000
00000000
,
00001100
00000000
00000000
00000000
,
00000000
00000000
00000000
00000000
,
00110000
00000000
00000000
00000000
,
00011000
00000000
00000000
00000000
,
00001100
00000000
00000000
00000000
,
00000000
00000000
00000000
00000000
,
00110000
00000000
00000000
00000000
,
00011000
00000000
00000000
00000000
,
00001100
00000000
00000000
00001000
,
00001000
00000000
00000000
00000100
,
00000100
00000010
00000001
00000100
,
00000010
00000000
00000010
00000000
,
00001000
00000000
00000000
00010000
,
00010000
00000000
00000000
00100000
,
00100000
00010000
01000000
00100000
,
10000000
00000000
10000000
00000000
,
01000000
00000000
00000000
00100000
,
00100000
00000000
00000000
01000000
,
01000000
00100000
00001000
00010000
,
00001000
00000000
00001000
00000000
,
00010000
00000000
00010000
00000000
,
00000100
00000000
00000100
00000000
,
00000010
00000000
00000010
00000000
,
00000001
00000001
00000001
00000000
,
00001001
00000001
00000100
00000001
,
00001000
00001000
00001000
00000100
,
00010000
00010000
00010000
00000100
,
00001000
00001000
00001000
00000010
,
00010000
00001000
00100000
00010000
,
00100000
00100000
00100000
00001000
,
00010000
00010000
00010000
00001000
,
00100000
00100000
00100000
00010000
,
10000000
01000000
10000000
00100000
,
01000000
00000000
02000000
00000000
,
03010000
00000000
00020000
00000000
,
01030000
00000000
02000000
00000000
,
03010000
00100000
00001000
00010000
,
00001000
00000000
00002000
00000000
,
00013000
00000000
00020000
00000000
,
00031000
00011000
00010000
00000100
,
00001000
00000010
00000010
00000010
,
00001000
00000100
00000100
00000100
,
00000010
00000001
00001000
00000010
,
00000100
00000001
00001000
00000100
,
00010000
00001000
00001000
00001000
,
00010000
00000100
00000100
00000100
,
00010000
00001000
00001000
00001000
,
00010000
00001000
01000000
00010000
,
01000000
00100000
00100000
00100000
,
10000000
01000000
01000000
01000000
,
10000000
00100000
00100000
00100000
,
01000000
00010000
00100000
00010000
,
00100000
00001000
00001000
00001000
,
00010000
00000010
00000000
00000010
,
00010000
00001000
00000000
00001000
,
00010000
00011000
00000000
00000000
;

//---------------dance-double - ----------------
#NOTES:
     dance-double:
     :
     Medium:
     6:
     0.329,0.397,0.293,0.042,0.096:
00000000
00000000
00000000
00000000
,
00000000
00000000
00000000
00000000
,
00000000
00000000
00000000
00000000
,
00000000
00000000
00000000
00000000
,
00000000
00000000
00000000
00000000
,
00000000
00000000
00000000
00000000
,
00000000
00000000
00000000
00000000
,
10010000
10000000
01000000
00100000
,
00110000
00000000
10010000
00000000
,
01010000
01000000
00001000
00010000
,
00011000
00000000
00010000
00000100
,
00001100
00001000
00000100
00000010
,
00000011
00000000
00001001
00000000
,
00000101
00000001
00000100
00000010
,
00001020
00000000
00000130
00000000
,
00000010
00001000
00000100
00010000
,
00001000
01000000
00010000
00000000
,
10010000
10000000
01000000
00100000
,
00001000
00010000
00010000
00010000
,
00000100
00001000
00000010
00000100
,
00000001
00001000
00001000
00001000
,
00000100
00000010
00000001
00000100
,
00000020
00000000
00000000
00000000
,
00000030
00000000
00000000
00000000
,
00000000
00000000
00000000
00000000
,
00110000
00000000
00000000
00000000
,
00011000
00000000
00000000
00000000
,
00000101
00000000
00000000
00000000
,
00000000
00000000
00000000
00000000
,
00110000
00000000
00000000
00000000
,
00011000
00000000
00000000
00000000
,
00000101
00000000
00000000
00000000
,
00000000
00000000
00000000
00000000
,
00110000
00000000
00000000
00000000
,
00011000
00000000
00000000
00000000
,
00000101
00000000
00000000
00000000
,
00000000
00000000
00000000
00000000
,
00110000
00000000
00000000
00000000
,
00011000
00000000
00000000
00000000
,
00000101
00000001
00000100
00001000
,
00000100
00000000
00000000
00000000
,
00010000
01000000
10000000
01000000
,
00010000
00000000
00000000
00000000
,
00101000
00000000
00000000
00000000
,
00010010
00000000
00000000
00000000
,
00001010
00000000
00000000
00000000
,
00000101
00000001
00000010
00001000
,
00000010
00000000
00000000
00000000
00000000
00000000
00000000
00000000
00000000
00000000
00000000
00000100
,
00001000
00000000
00000000
00000100
00000000
00000000
00010000
00000000
00000000
00000000
00000000
00001000
,
00010000
00000000
00000000
00001000
00000000
00000000
01000000
00000000
00000000
00000000
00000000
00010000
,
10000000
00000000
00000000
00010000
00000000
00000000
00100000
00000000
00000000
00000000
00000000
01000000
,
10000000
00000000
00010000
00000000
,
01000000
00000000
00001000
00000000
,
00010000
00000000
00000100
00000000
,
00002000
00000000
00000002
00003003
,
00001001
00000000
00000000
00000001
00000000
00000000
00000100
00000000
00000000
00000001
00000000
00001000
,
00000001
00000000
00000000
00000010
00000000
00000000
00000100
00000000
00000000
00010000
00000000
00001000
,
00010000
00000000
00000000
00001000
00000000
00000000
00100000
00000000
00000000
00010000
00000000
10000000
,
00010000
01000000
00100000
10000000
,
11000000
00000000
00000000
00100000
00000000
00000000
00010000
00000000
00000000
10000000
00000000
00010000
,
10000000
00000000
00000000
00010000
00000000
00000000
00100000
00000000
00000000
00001000
00000000
00010000
,
00001000
00000000
00000000
00010000
00000000
00000000
00000100
00000000
00000000
00001000
00000000
00000010
,
00001000
00000010
00000100
00000001
,
00001000
00000000
00000000
00000100
00000000
00000000
00001000
00000000
00000000
00000001
00000000
00001000
,
00000001
00000000
00000100
00000000
,
00001000
00000000
00010000
00000000
,
01000000
00000000
10000000
00000000
,
10010000
00000000
00000000
01000000
00000000
00000000
00100000
00000000
00000000
01000000
00000000
00010000
,
10000000
00000000
01000000
00000000
,
00100000
00000000
00002000
00000000
,
00013000
00011000
00000100
00001000
,
00000001
00000000
00000100
00000001
00000000
00000000
00001000
00000000
00000000
00000100
00000000
00000000
,
00010000
00000000
00001000
00010000
00000000
00000000
00001000
00000000
00000000
01000000
00000000
00000000
,
00010000
00000000
01000000
00010000
00000000
00000000
00100000
00000000
00000000
01000000
00000000
00000000
,
00100000
10010000
10000000
00100000
,
10000000
00000000
01000000
10000000
00000000
00000000
01000000
00000000
00000000
00100000
00000000
00000000
,
00001000
00000000
00010000
00001000
00000000
00000000
00010000
00000000
00000000
00000100
00000000
00000000
,
00001000
00000000
00000001
00001000
00000000
00000000
00000010
00000000
00000000
00001000
00000000
00000000
,
00000001
00000011
00000100
00001000
,
00000001
00000000
00000100
00000001
00000000
00000000
00000010
00000000
00000000
00000100
00000000
00000000
,
00010000
00000000
00001000
00010000
00000000
00000000
00001000
00000000
00000000
00100000
00000000
00000000
,
00010000
00000000
01000000
00010000
00000000
00000000
10000000
00000000
00000000
00100000
00000000
00000000
,
01000000
10010000
00010000
01000000
,
00001000
00000000
00010000
00001000
00000000
00000000
00010000
00000000
00000000
00000100
00000000
00000000
,
00001000
00000000
00000100
00001000
00000000
00000000
00000000
00000000
00000000
00000001
00000000
00000000
,
00000000
00000100
00000000
00000010
,
00001000
00001100
00000000
00000000
;

//---------------dance-single - Blank----------------
#NOTES:
     dance-single:
     Blank:
     Challenge:
     10:
     0.646,0.903,0.771,0.193,1.000:
0000
0000
0000
0000
,
0000
0000
0000
0000
,
0000
0000
0000
0000
,
0000
0000
0000
0000
,
0000
0000
0000
0000
,
0000
0000
0000
0000
,
0000
0000
0000
0000
,
1001
0000
0000
101M
0000
0010
0002
0000
0000
0013
0000
1000
,
0010
0000
1000
0100
0000
0000
0M01
0000
0100
0010
0000
0001
,
1000
0000
0000
M011
0000
0010
2000
0000
0000
3010
0000
0001
,
0010
0000
0001
0100
0000
0000
1M00
0000
0100
0010
0000
1000
,
0001
0000
0000
110M
0000
0100
0002
0000
0000
1003
0000
0010
,
M001
0000
0010
0001
0000
0000
010M
0000
0010
1000
00M0
1000
,
0100
0000
000M
1000
0100
0010
M001
0000
010M
0000
10M0
0100
,
M001
0000
0000
0000
1M00
0000
0001
0000
0010
0000
0100
0000
1000
0000
0000
0MM0
0001
0000
1000
0000
0010
0000
0100
0000
,
M001
0000
0100
0010
0M00
1000
0100
M000
0010
0001
00M0
1000
,
0010
M000
0100
0001
0M00
1000
0100
M010
0001
1000
0000
M010
,
0100
00M0
0001
1000
000M
0100
0001
0M00
1000
0010
M000
0001
,
1000
000M
0000
M010
0000
0000
01M0
0000
0000
0M01
0000
0001
,
1000
000M
0100
M010
0100
0010
0M01
0000
000M
0100
M000
0010
,
1M00
0000
001M
1000
00M0
0000
0M01
0000
10M0
0001
M000
0010
,
010M
0000
00M0
1000
010M
0010
M004
0000
00M0
0000
M000
0103
,
0040
0000
0000
0000
0400
0000
000M
0000
M000
0000
000M
0000
M000
0000
0000
000M
0000
0000
M000
0000
0000
000M
0000
0000
M000
0000
0000
0000
000M
0000
0000
0000
M000
0000
0000
0000
000M
0000
0000
0000
0000
0000
M000
0000
0000
0000
0000
0000
,
033M
0000
0000
0M00
0000
M000
0000
00M0
0000
0M00
0000
M000
,
0001
0000
00M0
0001
0000
0000
000M
0000
M000
0010
0M00
0000
0010
0000
000M
0000
00M0
0000
1000
0000
000M
1000
0000
0000
,
0110
0000
M000
0100
00M0
0000
000M
0000
0M00
0000
0000
0000
M000
0000
0000
00M0
0000
0000
0M00
0000
0000
M000
0000
0000
,
00M1
0M00
M00M
0M00
0000
000M
0000
00M0
M000
0M00
0000
000M
,
1010
0M00
00M0
0000
0M00
000M
M000
00M0
0M00
M000
000M
0M00
,
00M1
0000
100M
01M0
M000
0M00
001M
0000
10M1
0M00
M000
00M0
,
000M
0000
0M00
0000
M000
0000
1000
0000
0M00
0001
00M0
0000
0000
0000
M000
0000
0M00
0000
000M
0000
0000
0000
M000
0000
,
00M1
0000
0M00
0000
000M
0000
M000
0000
0M00
0000
00M0
0000
000M
0000
0000
0M00
0000
0000
M000
0000
0000
000M
0000
0000
,
M110
0000
0000
0000
000M
0000
M000
0000
0M00
0000
000M
0000
0000
0000
0M00
0000
00M0
0000
100M
0000
0M00
0010
M000
0000
,
0200
0000
000M
0000
M000
0000
00M0
0000
0000
0000
0000
0000
00M0
0000
M300
0000
00M0
0000
0001
0000
0M00
1000
0000
0000
,
00M1
0000
0000
0000
M000
0000
0M10
0000
0000
0000
000M
0000
21M0
0000
0000
0000
000M
0000
31M0
0000
0000
M000
00M0
0000
,
210M
0000
0000
0000
00M0
0000
310M
0000
0000
0M00
0000
0000
21M0
0000
0000
0000
000M
0000
31M0
0000
0000
M000
0000
0000
,
0MM1
0000
M000
00M0
000M
0000
2MM1
0000
0000
310M
0000
M000
,
0M00
000M
0000
0MM0
0000
00M0
2001
0000
0000
310M
00M0
0M00
,
1002
0000
0M00
0000
00M0
0000
M103
0000
000M
0M00
M000
0000
,
M22M
M00M
M00M
M33M
,
1010
0000
0000
1000
0000
0000
0MM1
0000
0000
0000
0000
0000
M010
0000
0000
0000
0000
0000
0MM1
0000
0000
0000
0010
0000
,
M001
0000
0000
1M1M
0000
0000
M100
0000
0000
0M1M
0000
1000
,
00M1
0000
0001
MM10
0000
0000
10M1
0000
0000
MM10
0000
0000
,
110M
0000
0000
M0M1
0000
0000
010M
0000
0000
M0M1
0000
1000
,
0M10
0000
0000
0100
0000
0000
M00M
0000
0000
0000
0000
0000
0M00
0000
0000
0000
0000
0000
M01M
0000
0000
0000
1000
0000
,
00M1
1000
0MM0
0000
M000
0000
0MM1
0000
,
010M
0000
0000
0010
0000
0000
MM00
0000
0000
0000
0000
0000
00M0
0000
0000
0000
0000
0000
1M0M
0000
0000
0000
0100
0000
,
M010
0000
0100
10MM
0000
0000
0M01
0000
0000
M1M0
0000
0010
,
100M
0000
0M00
M000
00M0
000M
0M00
0000
M000
01M0
000M
0M10
,
M001
0000
00M0
100M
0M00
M000
00M0
0000
000M
0M10
M100
10M0
,
010M
0000
M000
0M10
000M
00M0
M000
0000
000M
0M10
M000
010M
,
00M1
0000
M000
0M10
000M
00M0
M000
0000
000M
0M10
M000
0010
,
010M
0000
0000
M001
0100
0010
010M
0000
0000
M010
0000
0001
,
10M0
0000
0000
0M01
0000
0000
00M1
0000
0000
1M00
0010
0100
,
0001
0000
000M
0100
0000
0M00
1000
0000
M000
0010
0000
00M0
,
0001
0000
000M
0100
0000
0M00
1000
0100
0001
1000
0010
0100
,
0001
0000
0000
0010
0100
1000
0010
0000
0000
1000
0000
0001
,
0020
0000
0000
0101
0000
0000
0130
0000
0000
0010
0100
1000
,
0020
0000
0000
1100
0000
0000
0130
0000
0000
0010
0000
1000
,
0020
0000
0000
1001
0000
0000
1030
0000
0000
0001
0000
1000
,
0100
0000
0000
1000
0100
0010
0001
0000
0000
1100
0000
0100
,
0020
0000
0000
0101
0000
0000
0130
0000
0000
0100
1000
0001
,
0200
0000
0000
1010
0000
0000
0310
0000
0000
1000
0000
0010
,
2000
0000
0000
0110
0000
0000
3010
0000
0000
1001
0000
1000
,
0001
0000
0000
0010
0001
0100
0010
0000
0000
1010
0000
1000
,
0010
0000
1001
0000
0110
0000
1001
0000
0000
0100
0001
1000
,
0100
0000
1001
0000
0110
0000
1001
0000
1000
0010
0000
0010
,
0001
0000
0110
0000
1001
0000
0110
0000
0100
0001
0000
1000
,
0100
0000
0000
0010
0001
1000
0010
0000
0010
0100
0000
0001
,
0010
0000
0011
0000
1100
0000
0011
0000
0100
1000
0010
1000
,
0001
0000
1010
0000
0101
0000
1020
0000
0000
0001
0000
0000
,
2000
3030
0000
0000
0000
0000
0000
0000
0000
0000
0000
0000
0000
0000
0000
0000
0000
0000
0000
0000
0000
0000
0000
0000
0000
0000
0000
0000
0000
0000
0000
0000
0000
0000
0000
0000
0000
0000
0000
0000
0000
0000
0000
0000
0000
0000
0000
0000
0101
0000
0000
0000
0000
0000
0000
0000
0000
0000
0000
0000
0000
0000
0000
0000
0000
0000
0000
0000
0000
0000
0000
0000
0000
0000
0000
0000
0000
0000
0000
0000
0000
0000
0000
0000
0000
0000
0000
0000
0000
0000
0000
0000
0000
0000
0000
0000
1001
0000
0000
0000
0000
0000
0000
0000
0000
0000
0000
0000
0000
0000
0000
0000
1000
0000
0000
0000
0000
0000
0000
0000
0000
0000
0000
0000
0000
0000
0000
0000
0001
0000
0000
0000
0000
0000
0000
0000
0000
0000
0000
0000
0000
0000
0000
0000
0010
0000
0000
0000
0000
0000
0000
0000
0000
0000
0000
0000
0000
0000
0000
0000
0000
0000
0000
0000
0000
0000
0000
0000
0000
0000
0000
0000
0000
0000
0000
0000
0000
0000
0000
0000
0000
0000
0000
0000
0000
0000
0000
0000
0000
0000
0000
0000
,
0011
0000
0010
0100
0000
0000
0011
0000
0000
1100
0000
0000
,
1001
0001
1000
0001
0000
0000
1010
0000
0000
0101
0000
0000
,
1010
0010
1000
0010
0000
0000
0110
0000
0000
1001
0000
0000
,
1100
0000
0001
1000
0000
0000
0101
1000
0001
1000
0000
0000
,
0011
0000
1000
0010
0000
0000
0110
0000
0000
1001
0000
0000
,
1100
0001
1000
0011
0000
0000
1100
0000
0000
1100
0000
0000
,
0101
1000
0001
1010
0000
0000
0101
0100
0010
1000
0001
1000
,
1001
0000
1000
0100
0000
0000
0010
0001
0100
0010
0000
0000
,
1010
0000
0001
1000
0000
0000
0011
0000
0000
0011
0000
0000
,
0011
1000
0100
0011
0000
0000
1100
0000
0000
1100
0000
0000
,
1100
0001
0010
1100
0000
0000
0101
0000
0000
0101
0000
0000
,
1001
0000
0100
1001
0000
0000
0010
1000
0100
0010
0000
0000
,
0110
0000
1000
0110
0000
0000
1001
0000
0000
1001
0000
0000
,
0110
0010
0001
0110
0000
0000
1001
0000
1000
0101
0000
0000
,
1001
0000
0001
1100
0000
0000
MM01
0000
0000
10MM
0000
0000
,
0011
1100
0000
0000
;
