#TITLE:Tell Me Why;
#SUBTITLE:(Thunderpuss Club Mix);
#ARTIST:Spice Girls;
#TITLETRANSLIT:;
#SUBTITLETRANSLIT:;
#ARTISTTRANSLIT:;
#GENRE:;
#CREDIT:;
#MENUCOLOR:;
#METERTYPE:DDR;
#BANNER:Tell Me Why (Thunderpuss Club Mix)-bn.png;
#BACKGROUND:Tell Me Why (Thunderpuss Club Mix)-bg.png;
#LYRICSPATH:Tell Me Why (Thunderpuss Club Mix).lrc;
#CDTITLE:DDREncore2.png;
#MUSIC:Tell Me Why (Thunderpuss Club Mix).mp3;
#OFFSET:-0.003;
#SAMPLESTART:90.900;
#SAMPLELENGTH:11.960;
#SELECTABLE:YES;
#LISTSORT:;
#BPMS:0.000=132.000;
#STOPS:;
#BGCHANGES:;
#ATTACKS:;

//---------------dance-single - ----------------
#NOTES:
     dance-single:
     :
     Beginner:
     1:
     0.112,0.214,0.027,0.072,0.000:
0000
0000
0000
0000
,
0000
0000
0000
0000
,
0000
0000
0000
0000
,
0000
0000
0000
0000
,
2000
0000
0000
0000
,
3000
0000
0000
0000
,
0002
0000
0000
0000
,
0003
0000
0000
0000
,
0100
0000
0100
0000
,
0000
0000
0000
0000
,
0010
0000
0010
0000
,
0000
0000
0000
0000
,
0100
0000
0010
0000
,
0100
0000
0000
0000
,
0000
0000
0000
0000
,
0000
0000
0001
0000
,
0000
0000
1000
0000
,
0000
0000
0010
0000
,
1000
0000
0100
0000
,
0000
0000
1000
0000
,
0000
0000
0001
0000
,
0000
0000
0010
0000
,
0001
0000
0100
0000
,
0001
0000
0010
0000
,
1000
0000
0010
0000
,
0001
0000
1000
0000
,
0001
0000
0000
0000
,
1000
0000
0010
0000
,
0001
0000
0010
0000
,
1000
0000
0001
0000
,
1000
0000
0000
0000
,
0000
1000
1000
0000
,
0001
0000
1000
0000
,
0000
0001
0001
0000
,
1000
0000
0001
0000
,
0000
0100
0100
0000
,
0001
0000
0010
0000
,
0100
0100
0100
0000
,
0010
0000
0100
0000
,
0000
0000
1000
0000
,
0000
0000
0010
0000
,
0000
0000
0100
0000
,
0000
0000
0001
0000
,
0000
0000
0001
0000
,
0000
0000
0010
0000
,
0000
0000
0100
0000
,
1000
0000
0000
0000
,
1000
0000
0000
0000
,
1000
0000
0000
0000
,
1000
0000
0000
0000
,
0001
0000
0000
0000
,
0000
0000
0000
0000
,
2002
0000
3003
0000
,
0100
0000
1000
0000
,
2002
0000
3003
0000
,
0100
0000
0001
0000
,
2002
0000
3003
0000
,
0100
0000
1000
0000
,
0001
0000
1000
0000
,
0010
0010
0010
0000
;

//---------------dance-single - ----------------
#NOTES:
     dance-single:
     :
     Easy:
     3:
     0.207,0.241,0.054,0.153,0.000:
0000
0000
0000
0000
,
0000
0000
0000
0000
,
0000
0000
0000
0000
,
0000
0000
0000
0000
,
0002
0000
0010
0000
,
0010
0000
1003
0001
,
2000
0000
0010
0000
,
0010
0000
3001
1000
,
0020
0000
0230
0000
,
0300
0000
0000
0000
,
0010
1000
0002
0000
,
0003
0000
0000
0001
,
2000
0000
3100
1000
,
0002
0000
0203
0000
,
0320
0000
2030
0000
,
3001
0000
0001
0010
,
0001
0000
0100
0010
,
0100
0000
0010
1000
,
0010
0000
1000
0000
,
0001
0000
1000
0010
,
1000
0000
0100
0010
,
0100
0000
0010
0001
,
0010
0000
0001
0000
,
1000
0000
1100
0000
,
0001
0000
0101
0000
,
0001
0010
0100
1000
,
0100
0010
0001
0000
,
1000
0010
0100
0000
,
0100
0001
0010
0000
,
0001
0100
0010
1000
,
0010
0010
0010
0000
,
0100
0001
0020
0000
,
0031
0100
0010
1000
,
0100
1000
0020
0000
,
0130
0001
1000
0100
,
1000
0010
0200
0000
,
0310
1000
0001
0000
,
0010
0010
0001
0000
,
0100
0010
0000
0010
,
0100
0000
0001
0000
,
0000
0000
1000
0000
,
0000
0000
0100
0000
,
1000
0000
0020
0000
,
0030
0000
0100
0000
,
0000
0000
0001
0000
,
0000
0000
0010
0000
,
0001
0000
0000
0000
,
0001
0000
0000
0000
,
0001
0000
0000
0000
,
0001
0000
0000
0000
,
1001
0000
1001
0000
,
1001
0000
0000
0000
,
0010
1000
0200
0000
,
1300
0010
0100
0001
,
0010
0001
0200
0000
,
0310
1000
0001
0010
,
0001
0100
0020
0000
,
0130
0001
1000
0000
,
0100
1000
0010
0100
,
0001
1000
1001
0000
;

//---------------dance-single - ----------------
#NOTES:
     dance-single:
     :
     Medium:
     5:
     0.266,0.322,0.153,0.153,0.005:
0000
0000
0000
0000
,
0000
0000
0000
0000
,
0000
0000
0000
0000
,
0000
0000
0000
0000
,
0200
0000
1000
0000
,
1000
0000
1300
0001
,
0020
0000
0001
0000
,
0001
0000
0031
0100
,
0020
0000
0230
0000
,
0310
0000
0010
0000
,
1000
0001
0020
0000
,
0030
0000
0100
1000
,
0002
0000
0103
0001
,
2000
0000
3020
0000
,
0230
0000
0302
0000
,
1003
0000
0000
0000
0001
0010
0001
0010
,
0000
0000
0000
0000
1000
0010
1000
0010
,
0000
0000
0000
0000
1000
0100
0010
0001
,
0000
0100
0010
0100
,
0001
0000
0000
0000
1000
0100
1000
0100
,
0000
0000
0000
0000
0001
0100
0001
0100
,
0000
0000
0000
0000
0001
0010
0100
1000
,
0000
0010
0100
0010
,
1000
0100
1100
0000
,
0010
0100
0110
0000
,
0001
0010
0100
0010
,
0011
0110
1100
1000
,
0001
0101
0010
0000
,
0100
0110
0010
0000
,
1000
1010
0100
1001
,
1010
0110
0101
1000
,
0200
0010
0310
0000
,
0100
0000
1000
0010
0100
0000
0001
0000
,
0020
0100
0130
0000
,
0010
0001
0100
0010
1000
0000
0001
0000
,
0200
0010
0310
0000
,
0100
0000
0010
1000
0100
0000
0000
0000
,
1000
0100
1000
0100
0010
0001
0000
0000
,
0100
0010
0000
0010
,
0100
0000
0001
0000
,
0000
0000
1000
0000
,
0000
0000
0010
0000
,
1000
0000
0200
0000
,
0300
0000
0010
0000
,
0000
0000
0001
0000
,
0000
0000
0100
0000
,
0001
0000
0000
0000
,
0001
0000
0000
0000
,
0001
0000
0000
0000
,
0001
0000
0000
0000
,
1001
0100
1001
0100
,
1001
0010
0100
0000
,
2000
0100
3001
0000
,
0010
0000
0001
0100
0001
0000
1000
0000
,
0002
0010
1003
0000
,
0100
1000
0010
0100
0001
0000
0010
0000
,
0200
1000
0310
0000
,
0001
0000
0010
0100
0010
0000
0000
0000
,
0001
0100
0001
0100
0010
1000
0000
0000
,
1001
0000
0000
1001
0000
0000
0100
0000
0010
0000
0000
0000
0000
0000
0000
0000
;

//---------------dance-single - ----------------
#NOTES:
     dance-single:
     :
     Hard:
     7:
     0.409,0.402,0.261,0.162,0.045: // measure 1
0000
0000
0000
0000
,  // measure 2
0000
0000
0000
0000
,  // measure 3
0000
0000
0000
0000
,  // measure 4
0000
0000
0000
0000
,  // measure 5
1000
0000
0000
0010
0000
0000
0100
0000
0001
0000
0000
0010
0000
0000
0100
0000
,  // measure 6
0010
0000
0000
0001
0000
0000
0100
0000
0010
0000
0000
1000
0000
0000
0001
1000
,  // measure 7
0001
0000
0000
0100
0000
0000
0010
0000
1000
0000
0000
0100
0000
0000
0010
0000
,  // measure 8
0100
0000
0000
1000
0000
0000
0010
0000
1000
0000
0001
0000
1000
0000
0010
0000
,  // measure 9
0200
0000
0320
0000
,  // measure 10
1030
0000
1000
0000
0001
0000
0000
0100
,  // measure 11
0001
1000
0001
0100
0020
0000
0000
0000
,  // measure 12
1030
1000
0001
1100
,  // measure 13
0101
1000
0011
1010
,  // measure 14
1002
0000
0203
0000
,  // measure 15
0320
0000
2030
0000
,  // measure 16
3001
0000
0001
0000
0010
0001
0100
0010
,  // measure 17
1000
0000
1000
0000
0100
1000
0010
0100
,  // measure 18
0001
0000
0001
0000
1000
0100
0010
0100
,  // measure 19
1000
0000
1000
0010
0000
0010
0100
0001
,  // measure 20
1000
0000
1000
0000
0010
1000
0100
0010
,  // measure 21
0001
0000
0001
0000
0100
0001
0010
0100
,  // measure 22
1000
0000
1000
0000
0001
0100
0010
0100
,  // measure 23
0001
0000
0001
1000
0000
1000
0001
0020
,  // measure 24
0000
0000
0031
0000
1000
0000
0010
0200
,  // measure 25
0000
0000
0310
0000
1000
0000
0100
0010
,  // measure 26
0000
0010
0001
0100
0010
1000
0010
0100
,  // measure 27
0001
0000
0000
1000
0000
0000
1001
0000
0000
0000
0000
0000
1000
0000
0200
0000
,  // measure 28
0000
0300
1010
0000
0001
0000
0100
0020
,  // measure 29
0000
0030
0101
0000
1000
0010
0100
0001
,  // measure 30
1000
1001
0001
1001
,  // measure 31
0100
0100
0200
0000
,  // measure 32
0300
0000
1010
0000
1020
0000
0000
1030
,  // measure 33
0100
0010
0001
0010
0100
1000
0010
0100
,  // measure 34
0000
0000
0011
0000
0021
0000
0000
0031
,  // measure 35
0100
0010
1000
0010
0100
0001
0010
0100
,  // measure 36
0000
0000
1001
0000
1001
0010
0001
0000
,  // measure 37
0100
0000
0010
1000
0100
1000
0001
0100
,  // measure 38
0000
0100
0010
1000
0100
0100
1000
0010
,  // measure 39
0100
0001
2000
0000
0000
0000
0001
3001
,  // measure 40
0000
0000
1000
0100
,  // measure 41
0000
0000
0001
0010
,  // measure 42
0000
0000
1000
0001
,  // measure 43
0100
0000
0010
0010
0000
0000
0100
0100
,  // measure 44
0000
0000
0001
0010
,  // measure 45
0000
0000
1000
0100
,  // measure 46
0000
0000
0001
1000
,  // measure 47
0001
0010
0100
0000
0001
0010
1000
0000
,  // measure 48
0100
0001
0010
0000
1000
0100
0001
0000
,  // measure 49
1000
0010
0100
0000
1000
0010
0001
0000
,  // measure 50
0100
1000
0010
0000
0001
0100
1000
0000
,  // measure 51
0110
0001
0110
0001
,  // measure 52
0110
1000
0020
0000
,  // measure 53
0030
0000
0101
0000
1200
0000
0000
1300
,  // measure 54
0010
0100
0001
0100
0010
1000
0100
0010
,  // measure 55
0000
0000
1100
0000
0201
0000
0000
0301
,  // measure 56
0010
0100
1000
0100
0010
0001
0100
0010
,  // measure 57
0000
0000
0110
0000
1001
0010
1000
0100
,  // measure 58
0000
0100
0010
0001
0100
0001
1000
0010
,  // measure 59
0000
0010
0100
0001
0010
0010
0001
0100
,  // measure 60
0101
0000
0000
0110
0000
0000
1010
0000
1001
0000
0000
0000
0000
0000
0000
0000
;

//---------------dance-double - ----------------
#NOTES:
     dance-double:
     :
     Easy:
     2:
     0.147,0.214,0.027,0.099,0.000:
00000000
00000000
00000000
00000000
,
00000000
00000000
00000000
00000000
,
00000000
00000000
00000000
00000000
,
00000000
00000000
00000000
00000000
,
01000000
00000000
00000000
00000000
,
01000000
00000000
00000000
00000000
,
00100000
00000000
00000000
00000000
,
00100000
00000000
00000000
10000000
,
01000000
00000000
02000000
00000000
,
03000000
00000000
00000000
00000000
,
00100000
00100000
00002000
00000000
,
00003000
00000000
00000000
00000100
,
00000010
00000000
00001000
00001000
,
00000002
00000000
00000023
00000000
,
00000230
00000000
00002300
00000000
,
00003001
00000000
00000100
00000000
,
00000010
00000000
00010000
00000000
,
00001000
00000000
00100000
00000000
,
01000000
00000000
01000000
00000000
,
10000000
00000000
00100000
00000000
,
01000000
00000000
00001000
00000000
,
00010000
00000000
00000100
00000000
,
00000010
00000000
00000010
00000000
,
00000002
00000000
00000003
00000000
,
00002000
00000000
00003000
00000000
,
00000010
00000000
00010000
00000000
,
00100000
00000000
00000000
00000000
,
20000000
00000000
30000000
00000000
,
00020000
00000000
00030000
00000000
,
01000000
00000000
00001000
00000000
,
00000100
00000100
00000100
00000000
,
00000001
00000010
00000100
00000000
,
00010000
00000000
00010000
00000000
,
00001000
01000000
00010000
00000000
,
10000000
00000000
10000000
00000000
,
00100000
10000000
01000000
00000000
,
00100000
00000000
00100000
00000000
,
00001000
00000000
00000100
00000000
,
00000020
00000000
00000000
00000030
,
00000000
00000000
00001000
00000000
,
00000000
00000000
00000001
00000000
,
00000000
00000000
00000100
00000000
,
00010000
00000000
00100000
00000000
,
01000000
00000000
00010000
00000000
,
00000000
00000000
00100000
00000000
,
00000000
00000000
01000000
00000000
,
10000000
00000000
00000000
00000000
,
10000000
00000000
00000000
00000000
,
10000000
00000000
00000000
00000000
,
10000000
00000000
00000000
00000000
,
01010000
00000000
11000000
00000000
,
01010000
00000000
00000000
00000000
,
10000000
01000000
00100000
00000000
,
00001000
00000000
00001000
00000000
,
00010000
00000010
00001000
00000000
,
00000001
00000000
00000001
00000000
,
00000100
00000001
00000010
00000000
,
00000100
00000000
00000100
00000000
,
00010000
00000000
00100000
00000000
,
10000000
10000000
10000000
00000000
;

//---------------dance-double - ----------------
#NOTES:
     dance-double:
     :
     Medium:
     4:
     0.257,0.295,0.117,0.162,0.005:
00000000
00000000
00000000
00000000
,
00000000
00000000
00000000
00000000
,
00000000
00000000
00000000
00000000
,
00000000
00000000
00000000
00000000
,
00000002
00000000
00000100
00000000
,
00000100
00000000
00000103
00000000
,
00002000
00000000
00000100
00000000
,
00000100
00000000
00003100
00010000
,
00000020
00000000
00000230
00000000
,
00000301
00000000
00001000
00000000
,
00000010
00010000
00002000
00000000
,
01003000
00000000
00100000
10000000
,
02000000
00000000
03100000
00010000
,
20000000
00000000
30200000
00000000
,
02300000
00000000
03020000
00000000
,
10030000
01000000
00100000
00100000
,
00010000
01000000
00001000
00001000
,
00010000
00100000
00010000
00001000
,
00000100
00000010
00001000
00001001
,
00000001
00000010
00000100
00000100
,
00001000
00000010
00010000
00010000
,
00001000
00000100
00001000
00010000
,
00100000
01000000
00010000
10010000
,
10000000
00000000
01000000
00000000
00100000
00000000
00100000
01000000
,
00000000
01000000
00100000
00000000
00001000
00000000
00010000
00000000
,
00000010
00000000
00000100
00000000
00000001
00001000
00000001
00000000
,
00000010
00000100
00000110
00000000
,
00000001
00001000
00000100
00000000
00000010
00000000
00000100
00000010
,
00000000
00000010
00000100
00000000
00010000
00000000
00001000
00000000
,
01000000
00000000
00100000
00000000
10000000
00010000
10000000
00000000
,
00100000
01000000
02100000
00000000
,
03010000
10000000
21000000
00000000
,
31000000
00010000
00001000
00000010
,
00000001
00001000
00000102
00000000
,
00001003
00000000
00000100
00000010
00000100
00000000
00000010
00000000
,
00000001
00001000
00002010
00000000
,
00003001
00000100
00001000
00000000
,
00010000
01000000
10000000
00100000
,
01000000
01000000
00000000
00100000
,
00100000
00000000
10000000
00000000
,
00000000
00000000
00010000
00000000
,
00000000
00000000
00001000
00000000
,
00000000
00000000
00000001
00000000
,
00000000
00000000
00000001
00000000
,
00000000
00000000
00001000
00000000
,
00000000
00000000
00010000
00000000
,
00000010
00000000
00000000
00000000
,
00100000
00000000
00000000
00000000
,
00000010
00000000
00000000
00000000
,
00100000
00000000
00000000
00000000
,
10000000
01000000
00010000
00001000
,
00000010
00000001
00002001
00000000
,
00003001
00001000
00000102
00000000
,
00000013
00001000
00010000
00100000
,
10000000
00010000
21000000
00000000
,
30010000
00000000
00100000
01000000
00100000
00000000
01000000
00000000
,
10000000
00010000
01020000
00000000
,
10030000
00100000
00010000
00000000
,
00001000
00000010
00000001
00000100
,
00001001
00000000
00000000
00001001
00000000
00000000
00000010
00000000
00000100
00000000
00000000
00000000
00000000
00000000
00000000
00000000
;

//---------------dance-double - ----------------
#NOTES:
     dance-double:
     :
     Hard:
     8:
     0.489,0.456,0.288,0.144,0.104:
00000000
00000000
00000000
00000000
,
00000000
00000000
00000000
00000000
,
00000000
00000000
00000000
00000000
,
00000000
00000000
00000000
00000000
,
00011000
01000000
11000000
00100000
,
00011000
00000100
00000101
00000010
,
00011000
00100000
10100000
01000000
,
00011000
00000000
00000010
00000000
00000011
00000000
00000100
00000010
,
00000200
00000000
00002300
00000000
,
00003001
00000000
00000000
00000001
00000100
00000000
00000010
00000000
00000100
00000000
00000000
00000100
00000010
00000000
00001000
00000000
,
00000001
00000010
00001000
00010000
00200000
00000000
00000000
00000000
,
10300000
00000000
00000000
10000000
00100000
00000000
01000000
00000000
00100000
00000000
00000000
00000000
02000000
00000000
00000000
00000000
,
03010000
00100000
00002000
00023000
,
00030010
00000000
00000000
00001000
00000010
00000000
00000100
00000000
00000010
00000000
00000000
00000010
00010000
00000000
00001000
00000000
,
00010000
00000000
00000000
00010000
00001000
00000000
01000000
00000000
00010000
00000000
00000000
00010000
00100000
00000000
00001000
00000000
,
00010000
00000000
00001100
00000000
00010000
00001000
00000010
00000001
,
00000100
00000000
00001010
00000000
00000100
00000001
00000010
00000100
,
00010000
00000000
00011000
00000000
00001000
00010000
00100000
10000000
,
01000000
00000000
00100000
00001000
00000000
00010000
00100000
00010000
,
00001000
00000000
00011000
00000000
00001000
00010000
01000000
10000000
,
00100000
00000000
01010000
00000000
00100000
10000000
01000000
00100000
,
00001000
00000000
00011000
00000000
00010000
00001000
00000100
00000001
,
00000010
00000000
00000100
00010000
00000000
00001000
00000100
00001000
,
00010000
00000000
00100000
00000000
01100000
00000000
10000000
00010000
,
00000000
00000000
00100000
00000000
00011000
00000000
00000010
00000100
,
00000000
00001000
00000010
00000100
00000001
00000010
00000001
00000100
,
00000010
00000000
00000000
00001000
00000000
00000000
00001001
00000000
00000010
00000000
00000001
00000000
00000100
00000000
00000010
00000000
,
00010000
00000100
00001100
00000000
00010000
00000000
00001000
01000000
,
00000000
00000000
00000000
00000000
10010000
00000000
00000000
00000000
00100000
00000000
10000000
01000000
10000000
01000000
10000000
00000000
,
00000000
00110000
01000000
00011000
,
02000000
00000000
03200000
00000000
10300000
00100000
01000000
00010000
,
10000000
00000000
00000000
10000000
01000000
00000000
00000000
01000000
00100000
00000000
00000000
00100000
00010000
00000000
01000000
00000000
,
00100000
00010000
00001000
00000010
00000001
00000100
00000010
00001000
,
00000001
00000000
00000000
00000001
00000010
00000000
00000000
00000010
00000100
00000000
00000000
00000100
00001000
00000000
00000010
00000000
,
00000100
00001000
00010000
01000000
10000000
00100000
01000000
00010000
,
10000000
00000000
10010000
00000000
10010000
00100000
00010000
00100000
,
01000000
00000000
10000000
00100000
01000000
00000000
00010000
10000000
,
01000000
00100000
00001000
00010000
00000100
00000010
00000001
00000100
,
00000010
00010000
00001000
00000000
00000010
00000000
00000100
00000000
,
00010000
00000000
00000000
01000000
01000000
01000000
01000000
02000000
,
00000000
00000000
03000000
00100000
00100000
00100000
00100000
00200000
,
00000000
00000000
00300000
00010000
00010000
00010000
00010000
00020000
,
00000000
00000000
01030000
00002000
00000000
00000000
00013000
00000020
,
00000000
00000000
00000030
00000100
00000100
00000100
00000100
00000200
,
00000000
00000000
00000300
00000010
00000010
00000010
00000010
00000020
,
00000000
00000000
00000030
00001000
00001000
00001000
00002000
00000000
,
00003001
00000010
00001000
00000000
00010000
00100000
10000000
00000000
,
10000000
01000000
00010000
00000000
00001000
00000100
00000001
00000000
,
00000001
00001000
00000100
00000000
00010000
01000000
10000000
00000000
,
10000000
00010000
00100000
00000000
00001000
00000010
00000001
00000000
,
00000110
00000001
00000110
00000001
,
00000110
00000000
00001000
00000000
00000001
00000100
00000010
00001000
,
00000001
00000000
00000000
00000001
00000010
00000000
00000000
00000010
00000100
00000000
00000000
00000100
00001000
00000000
00000010
00000000
,
00000100
00001000
00010000
01000000
10000000
00100000
01000000
00010000
,
10000000
00000000
00000000
10000000
01000000
00000000
00000000
01000000
00100000
00000000
00000000
00100000
00010000
00000000
01000000
00000000
,
00100000
00010000
00001000
00000010
00000001
00000100
00000010
00001000
,
00000001
00000000
00001001
00000000
00001001
00000010
00001000
00000010
,
00000000
00000100
00000001
00000010
00000100
00001000
00000001
00000100
,
00000000
00000010
00010000
00001000
01000000
00100000
10000000
00010000
,
01010000
00000000
00000000
01100000
00000000
00000000
10100000
00000000
10010000
00000000
00000000
00000000
00000000
00000000
00000000
00000000
;
