#TITLE:Tear It Up;
#SUBTITLE:[SPECIAL];
#ARTIST:Klute;
#TITLETRANSLIT:;
#SUBTITLETRANSLIT:;
#ARTISTTRANSLIT:;
#GENRE:;
#CREDIT:;
#MENUCOLOR:;
#METERTYPE:DDR;
#BANNER:Tear It Up-bn.png;
#BACKGROUND:Tear It Up-bg.png;
#LYRICSPATH:;
#CDTITLE:currentcdtitle.png;
#MUSIC:Tear It Up.mp3;
#OFFSET:-0.055;
#SAMPLESTART:56.594;
#SAMPLELENGTH:12.000;
#SELECTABLE:YES;
#LISTSORT:;
#BPMS:0.000=136.010;
#STOPS:;
#BGCHANGES:;
#ATTACKS:;

//---------------dance-single - ----------------
#NOTES:
     dance-single:
     :
     Challenge:
     10:
     0.752,0.882,0.186,0.044,1.000: // measure 1
0000
0000
0000
0000
,  // measure 2
0000
0000
0000
0000
,  // measure 3
1000
0000
0100
0000
1000
0100
0000
0100
0010
0000
0001
0000
0010
0001
0000
0001
,  // measure 4
0100
0000
0010
0000
0100
0010
0000
0010
0100
0000
0001
0000
1000
0001
0000
0001
,  // measure 5
0100
0000
0000
0000
0000
1001
0000
0000
0010
0000
0000
1010
0000
1001
0000
0000
,  // measure 6
0100
0000
0000
1100
0000
0110
0000
0000
0010
0000
0000
0011
0000
0110
0000
0000
,  // measure 7
0100
0000
0000
1100
0000
1001
0000
0000
1000
0000
0000
1010
0000
1001
0000
0000
,  // measure 8
0001
0000
0000
0011
0000
1001
0000
0000
0100
0000
0000
0101
0000
0110
0000
0100
,  // measure 9
0001
0000
0000
1000
0100
1000
0000
0010
0000
0000
1000
0001
0000
0001
0000
0000
,  // measure 10
0010
0000
0000
0001
1000
0001
0000
0100
0000
0000
0010
0100
0000
0100
0000
0000
,  // measure 11
0001
0000
0000
0100
0010
0100
0000
0001
0000
0000
1000
0010
0000
0010
0000
0000
,  // measure 12
1000
0000
0000
0100
0010
0100
0000
1000
0000
0000
0001
0010
0000
0010
0000
0000
,  // measure 13
0001
0000
0000
1000
0001
1000
0000
0010
0000
0000
0100
0001
0000
0001
0000
0000
,  // measure 14
1000
0000
0000
0100
0010
0100
0000
1000
0000
0000
0001
0100
0000
0100
0000
0000
,  // measure 15
0001
0000
0000
1000
0010
1000
0000
0001
0000
0000
1000
0100
0000
0100
0000
0000
,  // measure 16
0010
0000
0000
0001
0100
0001
0000
1000
0000
0000
0001
0100
0000
0100
0000
0000
,  // measure 17
1001
0000
1000
0010
1000
0100
0000
0010
0100
0000
0100
1000
0000
1000
0001
0000
,  // measure 18
0100
0000
0010
0100
0001
0100
0000
0010
0000
0000
1000
0100
0000
0100
0000
0000
,  // measure 19
1000
0000
0001
0100
0010
0100
0000
0001
1000
0000
0001
0010
0000
0010
0100
0000
,  // measure 20
1000
0000
0100
0010
0100
1000
0000
0001
0000
0000
1000
0100
0000
0100
0000
0000
,  // measure 21
0010
0000
0001
1000
0001
0100
0000
0010
0100
0000
0100
0001
0000
1000
0100
0000
,  // measure 22
0010
0000
0100
1000
0100
0010
0000
0001
0000
0000
1000
0001
0000
0001
0000
0000
,  // measure 23
0100
0000
0001
0100
0010
0100
0000
0001
1000
0000
0010
0100
0000
0001
1000
0000
,  // measure 24
0100
0000
0010
0100
1000
0100
0000
0010
0000
0000
0001
0100
0000
0100
0000
0000
,  // measure 25
1001
0000
1000
0000
0010
0000
1000
0100
0010
0100
1000
0000
0001
0100
0001
0000
,  // measure 26
1000
0000
0010
0000
0100
0000
0001
0100
0010
0100
0001
0000
1000
0001
1000
0000
,  // measure 27
0001
0000
0000
0100
0010
0100
0001
0100
0010
0100
0000
0000
0001
1000
0001
0100
,  // measure 28
0010
1000
0000
0000
0010
0100
0010
0000
1000
0001
0100
0001
1000
0001
1000
0001
,  // measure 29
0000
0000
1000
0000
0100
0000
1000
0001
0100
0001
1000
0000
0001
1000
0100
0000
,  // measure 30
0010
0000
0001
0000
1000
0000
0001
0010
0100
0010
0001
0000
1000
0010
0100
0000
,  // measure 31
0001
0000
0000
0010
0100
1000
0100
0010
0100
1000
0000
0000
0100
0010
0001
0010
,  // measure 32
0100
0010
0000
0000
0100
1000
0001
0000
1000
0010
0100
0010
1000
0010
0100
0010
,  // measure 33
1000
0000
0010
1000
0100
1000
0000
0100
0020
0000
0000
1000
0000
0001
0000
0000
,  // measure 34
0130
0000
1000
0001
1000
0100
0000
1000
0020
0000
0000
0001
0000
1000
0000
0000
,  // measure 35
0130
0000
0000
0001
0100
0001
1000
0100
1000
0001
0000
0000
1000
0010
1000
0100
,  // measure 36
1000
0010
0000
0000
1000
0001
1000
0000
0010
0100
0001
0100
0010
0100
0010
0100
,  // measure 37
0000
0000
0001
1000
0001
0100
0000
0010
1000
0000
0100
1000
0000
0001
0100
0000
,  // measure 38
0010
0000
0001
0010
0100
0010
0000
1000
0200
0000
0000
0001
0000
1000
0000
0000
,  // measure 39
0310
0000
0000
0001
1000
0001
1000
0100
1000
0100
0000
0000
0010
0100
1000
0100
,  // measure 40
0010
0100
0000
0000
1000
0001
1000
0000
0010
1000
0010
1000
0001
1000
0100
0010
,  // measure 41
0001
0000
1000
0001
0000
0001
0000
0001
0100
0000
0100
0001
0000
0001
0000
0001
,  // measure 42
0010
0000
0010
0001
0000
0001
0000
0001
1000
0000
1000
0001
0000
0001
0000
0001
,  // measure 43
1000
0000
0100
1000
0000
1000
0000
1000
0010
0000
0010
1000
0000
1000
0000
1000
,  // measure 44
0100
0000
0100
1000
0000
1000
0000
1000
0010
0000
0010
1000
0000
1000
0000
1000
,  // measure 45
0100
0000
0010
0001
0000
0001
0000
0001
0100
0000
0010
1000
0000
1000
0000
1000
,  // measure 46
0001
0000
0010
0100
0000
0100
0000
0100
1000
0000
0010
0100
0000
0100
0000
0100
,  // measure 47
0001
1000
0001
1000
0001
1000
0001
1000
0010
0100
0010
0100
0010
0100
0010
0100
,  // measure 48
0001
0100
0001
0100
0010
1000
0010
1000
0100
1000
0100
1000
0001
0010
0001
0010
,  // measure 49
0002
0000
0000
0000
,  // measure 50
0003
0000
0000
0000
;

//---------------dance-double - ----------------
#NOTES:
     dance-double:
     :
     Challenge:
     10:
     0.724,0.864,0.513,0.000,1.000:
00000000
00000000
00000000
00000000
,
00000000
00000000
00000000
00000000
,
10000000
00000000
01000000
00000000
00100000
00001000
00000000
00001000
00010000
00000000
00000010
00000000
00001000
00000100
00000000
00000100
,
00000001
00000000
00000100
00000000
00001000
00010000
00000000
00010000
00001000
00000000
00000010
00000000
00000100
00000001
00000000
00000001
,
00000100
00000000
00000000
00000000
00000000
00011000
00000000
00000000
00100000
00000000
00000000
10010000
00000000
10010000
00000000
00000000
,
01000000
00000000
00000000
00011000
00000000
00011000
00000000
00000000
00000010
00000000
00000000
00001001
00000000
00001001
00000000
00000000
,
00000100
00000000
00000000
00011000
00000000
00110000
00000000
00000000
00100000
00000000
00000000
10010000
00000000
01010000
00000000
00000000
,
00010000
00000000
00000000
00001100
00000000
00000101
00000000
00000000
00000010
00000000
00000000
00000011
00000000
00001010
00000000
00000000
,
00001000
00000000
00000000
00010000
00100000
10000000
00000000
00010000
00000000
00000000
00000000
01000000
00000000
01000000
00000000
00000000
,
00100000
00000000
00000000
10000000
00100000
00001000
00000000
00010000
00000000
00000000
00000000
00000010
00000000
00000010
00000000
00000000
,
00000100
00000000
00000000
00000001
00000100
00001000
00000000
00010000
00000000
00000000
00000000
10000000
00000000
10000000
00000000
00000000
,
00100000
00000000
00000000
10000000
00100000
01000000
00000000
00010000
00000000
00000000
00000000
00000001
00000000
00000001
00000000
00000000
,
00000010
00000000
00000000
00000100
00010000
01000000
00000000
10000000
00000000
00000000
00000000
00001000
00000000
00001000
00000000
00000000
,
01000000
00000000
00000000
10000000
01000000
00100000
00000000
10000000
00000000
00000000
00000000
00000010
00000000
00000010
00000000
00000000
,
00000100
00000000
00000000
00000001
00000010
00001000
00000000
00000010
00000000
00000000
00000000
00100000
00000000
00100000
00000000
00000000
,
01000000
00000000
00000000
10000000
01000000
00010000
00000000
01000000
00000000
00000000
00000000
00000100
00000000
00000100
00000000
00000000
,
00011000
00000000
00001000
00100000
00010000
01000000
00000000
00100000
01000000
00000000
01000000
00010000
00000000
10000000
01000000
00000000
,
00100000
00000000
00001000
00010000
00000100
00001000
00000000
00000001
00000000
00000000
00000000
00000100
00000000
00000100
00000000
00000000
,
00011000
00000000
00010000
00000010
00001000
00000100
00000000
00000010
00000100
00000000
00000100
00001000
00000000
00000001
00000100
00000000
,
00000010
00000000
00010000
00001000
01000000
00010000
00000000
10000000
00000000
00000000
00000000
01000000
00000000
01000000
00000000
00000000
,
00011000
00000000
00000010
00000100
00001000
00000100
00000000
00000010
00001000
00000000
00000100
00010000
00000000
00001000
01000000
00000000
,
00010000
00000000
10000000
00100000
01000000
00010000
00000000
10000000
00000000
00000000
00000000
00010000
00000000
00010000
00000000
00000000
,
00011000
00000000
00100000
01000000
00010000
01000000
00000000
00100000
00010000
00000000
01000000
00001000
00000000
00010000
00000100
00000000
,
00001000
00000000
00000001
00000010
00000100
00001000
00000000
00000001
00000000
00000000
00000000
00001000
00000000
00001000
00000000
00000000
,
00011000
00011000
00110000
01100000
11000000
01100000
11000000
00000000
,
11000000
01100000
00110000
01100000
00110000
00011000
00011000
00000000
,
00000000
00000000
00000000
00000100
00001000
00000100
00001000
00000010
00001000
00000100
00000000
00000000
00010000
00001000
00010000
00001000
,
00010000
00001000
00000000
00000000
01000000
00100000
01000000
00000000
00010000
00100000
00010000
00100000
00010000
00100000
00010000
00100000
,
00000000
00001100
00000110
00001100
00000110
00000011
00000110
00000000
,
00000110
00001100
00011000
00001100
00011000
00011000
00110000
00000000
,
00000000
00000000
00000000
01000000
10000000
00010000
10000000
01000000
10000000
00010000
00000000
00000000
10000000
00100000
01000000
00010000
,
00100000
00001000
00000000
00000000
00010000
00001000
00010000
00000000
00000100
00001000
00000010
00000100
00000001
00000010
00000100
00001000
,
00000100
00000000
00000000
00001000
00100000
10000000
00000000
00010000
00000000
00000000
00000000
01000000
00000000
01000000
00000000
00000000
,
00100000
00000000
00000000
10000000
00100000
00001000
00000000
00010000
00000000
00000000
00000000
00000010
00000000
00000010
00000000
00000000
,
00000000
00000000
00000000
00000100
00000001
00001000
00000010
00000100
00000001
00001000
00000000
00000000
00000100
00010000
00001000
00100000
,
00010000
00001000
00000000
00000000
00010000
00100000
00010000
00000000
00100000
01000000
10000000
00100000
01000000
00010000
00100000
00000000
,
01000000
00000000
00000000
00100000
00001000
00000010
00000000
00000001
00000000
00000000
00010000
00000000
00000000
00000000
00001000
00000000
,
00000010
00000000
00000000
00000001
00000010
00000100
00000000
00000001
00000000
00000000
00000000
01000000
00000000
01000000
00000000
00000000
,
00000000
00000000
00000000
00100000
00001000
00010000
00000100
00001000
00010000
00001000
00000000
00000000
00000100
00001000
00000010
00001000
,
00000001
00001000
00000000
00000000
00000010
00000100
00000001
00000000
00000010
00000100
00001000
00000100
00000010
00000100
00010000
00000000
,
00011000
00000000
00001000
00100000
00000000
00100000
00000000
00100000
00010000
00000000
00010000
01000000
00000000
01000000
00000000
01000000
,
10000000
00000000
10000000
00100000
00000000
00100000
00000000
00100000
00001000
00000000
00001000
00010000
00000000
00010000
00000000
00010000
,
00000010
00000000
00000010
00000001
00000000
00000001
00000000
00000001
00000100
00000000
00000100
00001000
00000000
00001000
00000000
00001000
,
00000010
00000000
00000010
00010000
00000000
00010000
00000000
00010000
00001000
00000000
00001000
00100000
00000000
00100000
00000000
00100000
,
10000000
00000000
10000000
01000000
00000000
01000000
00000000
01000000
00100000
00000000
00100000
10000000
00000000
10000000
00000000
10000000
,
00010000
00000000
00010000
00100000
00000000
00100000
00000000
00100000
00001000
00000000
00001000
00000010
00000000
00000010
00000000
00000010
,
00000001
00000010
00000001
00000010
00000001
00000010
00000001
00000010
00000001
00000100
00000001
00000100
00000001
00000100
00000001
00000100
,
00000010
00001000
00000010
00001000
00000100
00010000
00000100
00010000
00001000
00100000
00001000
00100000
00010000
00001000
00010000
00001000
,
00010000
00000000
00000000
00000000
;
