#TITLE:Strange Injection;
#SUBTITLE:;
#ARTIST:Shatter;
#TITLETRANSLIT:;
#SUBTITLETRANSLIT:;
#ARTISTTRANSLIT:;
#GENRE:;
#CREDIT:;
#MENUCOLOR:;
#METERTYPE:DDR;
#BANNER:strange injection-bn.png;
#BACKGROUND:strange injection-bg.png;
#LYRICSPATH:;
#CDTITLE:ddrencorecdtitle.png;
#MUSIC:Strange Injection.mp3;
#OFFSET:-0.021;
#SAMPLESTART:24.780;
#SAMPLELENGTH:12.620;
#SELECTABLE:YES;
#LISTSORT:79;
#BPMS:0.000=155.000,32.000=310.000,288.000=77.500,296.000=155.000,328.000=310.000,520.000=77.500;
#STOPS:;
#BGCHANGES:;
#ATTACKS:;

//---------------dance-single - ----------------
#NOTES:
     dance-single:
     :
     Hard:
     10:
     0.788,0.897,0.145,0.508,0.000:
0000
0000
0000
0000
,
0000
0000
0000
0000
,
0000
0000
0000
0000
,
0000
0000
0000
0000
,
1000
0000
0010
0100
1000
0000
0100
0000
,
0001
0010
0100
0000
1000
0000
0100
0000
,
0010
0000
1000
0010
0001
0000
0100
0000
,
0010
1000
0100
0000
0010
0000
0100
0000
,
2000
0000
3000
0001
0100
0001
0100
0000
,
0001
0000
0010
0000
0200
0000
2000
3300
,
0002
0000
0000
0103
0010
0100
0010
0000
,
1000
0000
0100
0000
0020
0000
0002
0033
,
0020
0000
0030
0100
1000
0001
1000
0000
,
0010
0000
0100
0000
0002
0000
2003
3000
,
0100
0000
1000
0100
1000
0100
0010
0000
,
0001
0100
0010
0100
2000
0000
0200
3300
,
0020
0000
0030
0100
0001
0010
0001
0000
,
0010
0000
0100
0000
2000
0000
0020
3030
,
0200
0000
0300
1000
0100
0001
0100
0000
,
0001
0000
1000
0000
0200
0000
0020
0330
,
2000
0000
3000
0010
0001
1000
0010
0000
,
0100
0000
0010
0000
0200
0000
0002
0303
,
0010
0000
0100
1000
0100
1000
0010
0000
,
0100
0010
0100
0001
0200
0000
0002
0303
,
1001
0000
0000
0001
0010
0000
0100
0000
,
0000
0000
0000
0000
0000
0000
0100
0010
,
0001
0000
1000
0001
1000
0001
1000
0000
,
0100
0000
0010
0000
2002
0000
0000
3003
,
0110
0000
0000
0010
1000
0000
0001
0000
,
0000
0000
0000
0000
0000
0000
1000
0100
,
0010
0000
0001
1000
0001
1000
0001
0000
,
0100
0000
0010
0000
2020
0000
0000
3030
,
1001
0000
0000
0100
0010
0000
1000
0000
,
0000
0000
0000
0000
0000
0000
0100
1000
,
0001
0000
0010
0100
0010
0100
0010
0000
,
0001
0000
0010
0000
2200
0000
0000
3300
,
0011
0000
0000
0100
1000
0000
0010
0000
,
0000
0000
0000
0000
0000
0000
0100
0001
,
1000
0000
0010
1000
0010
1000
0010
0000
,
0100
0000
0010
0000
0220
0000
0000
0330
,
1001
0001
0010
0100
,
1000
0100
0001
0100
,
1000
0010
1000
0100
,
1000
0001
0010
0100
,
1000
0001
1000
0001
,
0100
1000
0100
0001
,
0010
0001
0100
0010
,
0100
0000
0001
0000
1000
0100
0010
0000
,
0101
0001
0100
0010
,
0100
0001
0010
1000
,
0010
0001
0010
0100
,
1000
0010
0100
0010
,
1000
0100
0010
0001
,
1000
0010
0001
0010
,
1001
0000
0100
0010
0000
0100
0010
0000
,
1000
0001
0000
1000
0001
0000
0010
0000
,
0100
1000
0000
0001
0000
0000
0010
0000
,
0100
1000
0000
0001
0000
0000
0100
0000
,
0010
1000
0000
0001
0000
0000
0100
0000
,
1000
0100
0000
0001
0000
0010
0100
1000
,
0001
0100
0000
0010
0000
0000
1000
0000
,
0001
0100
0000
0010
0000
0000
0100
0000
,
0021
0000
0000
0130
0000
0000
0100
0000
,
2100
0000
0000
0010
0000
0000
3010
0000
,
1000
0010
0000
0100
0000
0000
0001
0000
,
1000
0010
0000
0100
0000
0000
1000
0000
,
0100
0001
0000
0010
0000
0000
0100
0000
,
0001
0100
0000
0010
0000
0001
1000
0010
,
0100
0010
0000
0001
0000
0000
0010
0000
,
0100
0010
0000
1000
0000
0000
0100
0000
,
0210
0000
0000
1000
0000
0000
1300
0000
,
2010
0000
0000
0001
0000
0000
3001
0000
,
1001
0000
0000
0000
,
0000
0000
0000
0000
,
0001
0100
0001
0010
,
0001
0100
0001
0010
,
0100
1000
0010
1000
,
0100
0000
1000
0000
0010
0000
1000
1000
,
1000
0000
0100
0000
0010
0001
1000
0000
,
0010
1000
0010
0000
0100
0000
0001
0000
,
0010
0000
0100
0000
1000
0100
0010
0000
,
0001
1000
0001
0000
0100
0000
0010
0000
,
2000
0000
3001
1000
0001
1000
0100
0000
,
0010
0100
0010
0001
0020
0000
0002
0033
,
0020
0000
0031
0100
0001
0100
0010
0000
,
0100
0010
1000
0001
2000
0000
0200
3300
,
0020
0000
0130
1000
0010
0100
0010
0000
,
0100
0001
1000
0001
2000
0000
0002
3003
,
0100
0000
1000
0100
0010
0100
0010
0000
,
0100
0001
0010
0001
0020
0000
2000
3030
,
0020
0000
0130
1000
0100
0010
0001
0000
,
1000
0001
1000
0010
0200
0000
0020
0330
,
2000
0000
3001
0100
1000
0100
1000
0000
,
0100
0001
1000
0100
2000
0000
0002
3003
,
0010
0000
0100
1000
0001
0100
0010
0000
,
0100
0010
1000
0001
0020
0000
0200
0330
,
0020
0000
0031
0100
0010
0100
0001
0000
,
0010
0100
1000
0100
0020
0000
0002
0033
,
1000
0000
0001
1000
0001
0000
0100
0000
,
0010
0100
0010
0000
1000
0000
0100
0000
,
0010
0000
0001
0010
0001
0000
0100
0000
,
0001
0100
0001
0100
0001
0020
0000
0030
,
0100
0000
1000
0100
1000
0000
0100
0000
,
0010
0100
0010
0000
0100
0000
1000
0000
,
0010
0000
0001
0010
0001
0000
0010
0000
,
1000
0100
1000
0100
1000
0020
0000
0030
,
0100
0000
0001
1000
0001
0000
1000
0000
,
0100
1000
0100
0000
1000
0000
0010
0000
,
1000
0000
0100
0001
0100
0000
0010
0000
,
0001
1000
0001
1000
0001
0200
0000
0300
,
0010
0000
0100
0010
0100
0000
0001
0000
,
0010
0100
0010
0000
0100
0000
1000
0000
,
0001
0000
0100
1000
0100
0000
0001
0000
,
0010
0100
0010
0100
0010
0002
0000
0003
,
1000
0100
0000
0010
0000
0000
0100
0000
,
1000
0100
0000
0010
0000
0000
0001
0000
,
0100
1000
0000
0100
0000
0000
0001
0000
,
0100
1000
0000
0100
0000
0010
1000
0001
,
0010
0100
0000
1000
0000
0000
0100
0000
,
0010
0100
0000
1000
0000
0000
0001
0000
,
0201
0000
0000
0010
0000
0000
0310
0000
,
1200
0000
0000
0010
0000
0000
0310
0000
,
0001
0010
0001
1000
0100
1000
0001
1000
,
0100
0010
0001
1000
0100
0010
0100
1000
,
0001
0100
0001
1000
0010
0100
0010
1000
,
0001
0100
0001
1000
0001
0100
0010
1000
,
0001
0010
0100
1000
0100
0010
0001
0100
,
0010
0100
0001
0010
0001
1000
0010
0100
,
0010
1000
0001
0100
0010
1000
0100
1000
,
0001
0010
0100
1000
0001
0100
0010
1000
,
0002
0000
0000
0000
,
0003
0000
0000
0000
;

//---------------dance-double - ----------------
#NOTES:
     dance-double:
     :
     Hard:
     10:
     0.764,0.896,0.306,0.137,0.000:
00000000
00000000
00000000
00000000
,
00000000
00000000
00000000
00000000
,
00000000
00000000
00000000
00000000
,
00000000
00000000
00000000
00000000
,
00100000
00000000
00010000
01000000
00010000
00000000
10000000
01000000
,
00000000
01000000
00100000
00000000
00001000
00010000
00001000
00000100
,
00000010
00000000
00001000
00000001
00001000
00000000
00000100
00000010
,
00000000
00000010
00000001
00000000
00000100
00001000
00010000
00001000
,
00020000
00000000
00030000
00001000
00010000
00001000
00010000
00000000
,
01000000
10000000
00100000
01000000
,
00002000
00000000
00003000
00010000
00001000
00010000
00001000
00000000
,
00010000
00000000
00000100
00000000
00000010
00000000
00000001
00000100
,
00000020
00000000
00000030
00000100
00000001
00000100
00000001
00000000
,
00001000
00000100
00010000
00001000
,
02000000
00000000
03010000
10000000
01000000
00000000
00100000
00001000
,
00010000
00000000
00000100
00001000
00000001
00000000
00000100
00000001
,
00000020
00000000
00000030
00000001
00000010
00000001
00000010
00000000
,
00000100
00001000
00000010
00010000
,
00002000
00000000
00003000
01000000
00010000
01000000
00010000
00000000
,
00100000
00000000
01000000
00000000
10000000
00000000
00100000
01000000
,
00020000
00000000
00030000
00100000
00001000
00100000
00001000
00000000
,
00010000
00000100
00001000
00000010
,
00000200
00000000
00000301
00000100
00000010
00000000
00001000
00000100
,
00010000
00000000
00001000
01000000
00010000
00000000
00100000
01000000
,
10000000
00000000
01010000
00000000
,
10000000
00000000
00000000
00000000
11000000
00000000
00010000
01000000
,
00010000
00000000
00100000
00001000
00100000
00001000
00010000
00000000
,
00001000
00010000
00000100
00000010
,
00000001
00000000
00000011
00000000
,
00001000
00000000
00000000
00000000
00001010
00000000
00010000
00001000
,
00010000
00000000
00000100
00010000
00001000
00010000
00001000
00000000
,
00100000
00010000
01000000
00100000
,
10000000
00000000
10010000
00000000
,
01000000
00000000
00000000
00000000
01001000
00000000
00010000
00001000
,
00010000
00000000
00000100
00001000
00000100
00001000
00000010
00000000
,
00000100
00000001
00000010
00000100
,
00010000
00000000
00011000
00000000
,
00000100
00000000
00000000
00000000
00001100
00000000
00000010
00000100
,
00000010
00000000
00000001
00001000
00000001
00001000
00000010
00000000
,
00010000
00001000
00100000
01000000
,
10000000
00000000
00000000
10100000
00000000
00000000
01100000
00000000
,
00000000
01010000
00000000
00000000
00010000
00000000
00100000
00000000
,
00001000
00000000
00000000
00011000
00000000
00000000
00001100
00000000
,
00000000
00000110
00000000
00000000
00000001
00000000
00000100
00000000
,
00000010
00000000
00000000
00000110
00000000
00000000
00010100
00000000
,
00000000
00011000
00000000
00000000
00000100
00000000
00001000
00000000
,
00000010
00000000
00000000
00010010
00000000
00000000
00011000
00000000
,
00000000
00101000
00000000
00000000
00010000
00100000
01000000
00000000
,
10000000
00000000
00000000
10010000
00000000
00000000
01010000
00000000
,
00000000
00110000
00000000
00000000
00001000
00000000
01000000
00000000
,
00010000
00000000
00000000
01010000
00000000
00000000
00011000
00000000
,
00000000
00001100
00000000
00000000
00000100
00000000
00001000
00000000
,
00000010
00000000
00000000
00000110
00000000
00000000
00001010
00000000
,
00000000
00001100
00000000
00000000
00010000
00000000
00001000
00000000
,
00010000
00000000
00000000
00110000
00000000
00000000
11000000
00000000
,
00000000
00110000
00000000
00000000
00100000
00001000
00010000
00000000
,
00000100
00001000
00000010
00001000
,
00000100
00001000
00000010
00010000
,
00001000
00010000
00000100
00010000
,
00001000
00000000
00100000
00000000
01000000
10000000
01000000
10000000
,
00100000
00010000
00100000
10000000
,
00100000
00010000
00001000
00010000
,
00000100
00001000
00000100
00001000
00000100
00001000
00000100
00001000
,
00000001
00001000
00000001
00001000
00000001
00001000
00000001
00001000
,
00000001
00000100
00000001
00000010
,
00000001
00000100
00000010
00010000
,
00001000
00100000
00010000
00100000
,
00001000
00000000
00100000
00000000
00010000
01000000
00010000
01000000
,
00100000
10000000
00100000
00010000
,
00001000
00010000
01000000
10000000
,
00010000
10000000
00010000
10000000
00010000
10000000
00010000
10000000
,
00010000
01000000
00010000
01000000
00010000
01000000
00010000
01000000
,
00010000
00000000
00000000
00000000
,
00000000
00000000
00000000
00000000
,
00000001
00000001
00000100
00000100
,
00001000
00001000
00010000
00010000
,
01000000
01000000
10000000
10000000
,
00010000
00000000
00010000
00000000
01000000
00000000
01000000
01000000
,
00010000
00000000
00110000
00000000
10000000
01000000
00100000
00000000
,
00010000
00000000
01001000
00000000
00001000
00010000
00000100
00000000
,
00001000
00000000
00001100
00000000
00000010
00000001
00000100
00000000
,
00000010
00000000
00001001
00000000
00000001
00000100
00001000
00000000
,
00010000
00000000
00001000
00010000
00001000
00000000
00100000
00000000
,
01000000
00000000
10000000
00000000
00010000
01000000
00100000
10000000
,
00010000
00000000
00100000
00010000
00100000
00000000
00001000
00000000
,
00010000
00000000
00000100
00000000
00001000
00000100
00010000
00001000
,
00100000
00000000
01000000
10000000
01000000
00000000
00100000
00000000
,
00001000
00000000
00010000
00000000
00001000
00010000
00000100
00001000
,
00000100
00000000
00000010
00000001
00000010
00000000
00000001
00000000
,
00000100
00000000
00000010
00000000
00001000
00000100
00000010
00000001
,
00001000
00000000
00000010
00001000
00000010
00000000
00010000
00000000
,
00001000
00000000
00010000
00000000
00100000
01000000
00010000
10000000
,
00010000
00000000
00100000
01000000
00100000
00000000
01000000
00000000
,
10000000
00000000
01000000
00000000
00100000
00010000
00100000
00001000
,
00010000
00000000
00001000
00010000
00001000
00000000
00000010
00000000
,
00000100
00000000
00001000
00000000
00000001
00000100
00000010
00001000
,
00000100
00000000
00001000
00000100
00001000
00000000
00000100
00000000
,
00010000
00000000
00001000
00000000
00010000
00001000
00010000
00001000
,
00010000
00000000
00001000
00010000
00001000
00000000
00100000
00000000
,
00010000
00100000
00010000
02000000
00000000
00000000
00010000
00000000
,
00001000
03000000
00010000
00001000
00010000
00000000
00000100
00000000
,
00001000
00000010
00001000
00000010
00001000
00000200
00000000
00000300
,
00000010
00000000
00000001
00000010
00000001
00000000
00000100
00000000
,
00000010
00001000
00000010
00020000
00000000
00000000
00001000
00000000
,
00000010
00030000
00001000
00000010
00001000
00000000
00000100
00000000
,
00010000
00001000
00010000
00001000
00100000
00020000
00000000
00030000
,
00010000
00000000
10000000
00100000
10000000
00000000
00010000
00000000
,
01000000
00010000
01000000
00002000
00000000
00000000
01000000
00000000
,
00010000
00003000
00000100
00001000
00000100
00000000
00001000
00000000
,
00000100
00000010
00000100
00000010
00000100
00002000
00000000
00003000
,
00000001
00000000
00000100
00000010
00000100
00000000
00000010
00000000
,
00001000
00000100
00010000
00002000
00000000
00000000
00010000
00000000
,
00100000
00003000
00010000
01000000
00010000
00000000
10000000
00000000
,
01000000
00100000
00010000
00100000
00010000
00200000
00000000
00300000
,
01000000
10000000
00100000
01000000
,
00010000
00100000
00001000
00010000
,
00000100
00001000
00000010
00000100
,
00000001
00000000
00000010
00000000
00000100
00001000
00000100
00001000
,
00000010
00010000
00001000
00100000
,
01000000
10000000
00010000
01000000
,
00001000
00000000
00000000
00011000
00000000
00000000
00001000
00000000
,
00010000
00000000
00000000
00011000
00000000
00000000
00000100
00000000
,
00001000
00000100
00001000
00000010
00000100
00000001
00001000
00000100
,
00000010
00000001
00001000
00000010
00001000
00000100
00000010
00001000
,
00010000
00001000
00010000
00000010
00001000
00000100
00010000
00001000
,
00100000
00010000
00100000
00001000
00010000
01000000
10000000
00010000
,
01000000
00100000
01000000
00010000
10000000
01000000
00100000
00010000
,
01000000
00100000
10000000
00010000
00100000
01000000
10000000
00100000
,
00010000
00001000
00010000
00000100
00001000
00000010
00010000
00001000
,
00010000
00001000
00100000
00010000
01000000
00010000
00100000
00001000
,
00020000
00000000
00000000
00000000
00000000
00000000
00000000
00030000
;

//---------------dance-single - ----------------
#NOTES:
     dance-single:
     :
     Beginner:
     3:
     0.215,0.314,0.064,0.000,0.000:
0000
0000
0000
0000
,
0000
0000
0000
0000
,
0000
0000
0000
0000
,
0000
0000
0000
0000
,
0100
0100
0100
0000
,
0010
0000
1000
0000
,
0001
0001
0001
0000
,
0010
0000
0100
0000
,
1000
0000
0000
0000
,
0001
0000
0000
0000
,
0010
0000
0000
0000
,
0001
0000
0001
0000
,
0100
0000
0000
0000
,
0010
0000
0000
0000
,
1000
0000
0000
0000
,
0100
0000
0100
0000
,
1000
0000
0000
0000
,
0001
0000
0000
0000
,
0010
0000
0000
0000
,
0100
0000
0100
0000
,
1000
0000
0000
0000
,
0010
0000
0000
0000
,
0100
0000
0000
0000
,
0001
0000
0001
0000
,
0010
0000
0000
0001
,
0000
0000
0100
0000
,
0010
0000
0000
1000
,
1000
0000
0001
0000
,
0010
0000
0000
0001
,
0000
0000
0100
0000
,
0010
0000
1000
0000
,
0001
0000
0010
0000
,
0100
0000
0000
0100
,
0000
0000
0010
0000
,
0001
0000
0000
1000
,
1000
0000
0001
0000
,
0100
0000
0000
0100
,
0000
0000
0010
0000
,
1000
0000
0001
0000
,
0010
0000
0100
0000
,
1001
0000
0000
0000
,
0000
0000
0000
0000
,
0110
0000
0000
0000
,
0000
0000
0000
0000
,
1001
0000
0000
0000
,
0000
0000
0000
0000
,
0010
0000
1000
0000
,
0001
0000
0010
0000
,
1001
0000
0000
0000
,
0000
0000
0000
0000
,
0110
0000
0000
0000
,
0000
0000
0000
0000
,
1001
0000
0000
0000
,
0000
0000
0000
0000
,
0100
0000
0010
0000
,
0001
0000
1000
0000
,
0010
0000
0000
0000
,
1000
0000
0000
0000
,
0001
0000
0000
0000
,
0010
0000
0001
0000
,
1000
0000
0000
0000
,
0010
0000
0000
0000
,
0100
0000
0100
0000
,
0010
0000
0100
0000
,
0010
0000
0000
0000
,
1000
0000
0000
0000
,
0001
0000
0000
0000
,
0010
0000
0100
0000
,
0010
0000
0000
0000
,
0001
0000
0000
0000
,
1000
0000
1000
0000
,
0001
0000
1000
0000
,
0001
0000
0000
0000
,
0000
0000
0000
0000
,
1000
0000
0001
0000
,
0100
0000
0001
0000
,
1000
0000
0010
0000
,
0100
0000
0001
0000
,
1000
1000
0000
0010
,
0000
1000
0000
0001
,
0000
0010
0000
0001
,
0000
0100
0000
0010
,
0010
0000
0000
1000
,
0000
0000
0001
0000
,
0010
0000
0000
0001
,
0000
0000
0100
0000
,
0100
0000
0000
0010
,
0000
0000
1000
0000
,
0100
0000
0000
1000
,
0000
0000
0001
0000
,
0010
0000
0000
0001
,
0000
0000
1000
0000
,
0010
0000
0000
0100
,
0000
0000
0001
0000
,
0001
0000
0000
1000
,
0000
0000
0010
0000
,
0100
0000
0000
0001
,
0000
0000
1000
0000
,
0100
0000
0000
0000
,
1000
0000
0001
0000
,
1000
0000
0000
0000
,
0010
0000
0000
0000
,
0100
0000
0000
0000
,
0001
0000
1000
0000
,
0001
0000
0000
0000
,
0010
0000
0000
0000
,
0100
0000
0000
0000
,
1000
0000
0010
0000
,
1000
0000
0000
0000
,
0001
0000
0000
0000
,
0100
0000
0000
0000
,
0010
0000
0100
0000
,
0010
0000
0000
0000
,
1001
0000
0000
0000
,
0001
0000
0000
0000
,
0010
0000
0000
0000
,
0001
0000
0000
0000
,
1000
0000
1000
0000
,
0010
0000
0000
0000
,
0100
0000
0000
0000
,
0001
0000
1000
0000
,
0100
0000
1000
0000
,
0010
0000
0000
0000
,
0100
0000
0000
0000
,
0001
0000
0000
0000
,
0010
0000
0001
0000
,
1000
0000
0000
0000
,
0010
0000
0000
0000
,
0100
0000
0010
0000
,
1000
0000
0001
0000
,
1001
0000
0000
0000
;

//---------------dance-single - ----------------
#NOTES:
     dance-single:
     :
     Medium:
     9:
     0.607,0.686,0.218,0.540,0.000:
0000
0000
0000
0000
,
0000
0000
0000
0000
,
0000
0000
0000
0000
,
0000
0000
0000
0000
,
0010
0000
0001
0000
0100
0000
0010
1000
,
0000
1000
0010
0000
1000
0000
0001
0000
,
0010
0000
0100
0000
0010
0000
0001
1000
,
0000
1000
0001
0000
0100
0000
0010
0000
,
1000
0100
1000
0020
,
0000
0030
0100
0000
,
0001
0100
0010
1000
,
0200
0000
1300
0000
,
0001
0010
0001
0200
,
0000
0300
0010
0000
,
1000
0100
1000
0001
,
0100
0010
2000
0000
,
3001
0010
0100
2000
,
0000
3000
0001
0000
,
0100
0001
0010
0100
,
1000
0010
0200
0000
,
0301
1000
0010
0200
,
0000
0300
0001
0000
,
1000
0010
0100
0001
,
1000
0100
1000
0001
,
1000
0000
0000
0010
0100
0000
0020
0000
,
0000
0030
0100
0001
,
1000
0000
0000
0100
0010
0000
0001
0000
,
1000
0000
0010
0000
2002
0000
0000
3003
,
0001
0000
0000
0100
0010
0000
2000
0000
,
0000
3000
0100
1000
,
0010
0000
0000
0100
0001
0000
0010
0000
,
0100
0000
0000
0000
2002
0000
0000
3003
,
0010
0000
0000
0001
1000
0000
0020
0000
,
0000
0030
0100
0001
,
0010
0000
0000
0001
0100
0000
0001
0000
,
0010
0000
0100
0000
2002
0000
0000
3003
,
1000
0000
0000
0010
0100
0000
0002
0000
,
0000
0003
1000
0010
,
1000
0010
0001
0010
,
1000
0100
0001
0100
,
2000
0000
0000
3002
0000
0000
0203
0000
,
0000
0302
0000
0000
2003
0000
3200
0000
,
0320
0000
0000
0230
0000
0000
2300
0000
,
0000
3002
0000
0000
0203
0000
0320
0000
,
2030
0000
0000
3002
0000
0000
0023
0000
,
0000
0230
0000
0000
2300
0000
3002
0000
,
0203
0000
0000
0320
0000
0000
0230
0000
,
0000
0302
0000
0000
1003
0001
1000
0000
,
0200
0000
0000
0320
0000
0000
0032
0000
,
0000
2003
0000
0000
3200
0000
2300
0000
,
3020
0000
0000
0230
0000
0000
0302
0000
,
0000
2003
0000
0000
3200
0000
0320
0000
,
0032
0000
0000
0203
0000
0000
0320
0000
,
0000
2030
0000
0000
3002
0000
0023
0000
,
0230
0000
0000
2300
0000
0000
3020
0000
,
0000
2030
0000
0000
3001
0010
0001
0000
,
0010
0000
0000
0100
0000
0000
1000
0000
,
0001
0000
0000
0100
0000
0000
0001
0000
,
0010
0000
0000
0100
0000
0000
1000
0000
,
0001
0010
0000
0001
0000
0000
0100
0000
,
0010
0000
0000
1000
0000
0000
0100
0000
,
1000
0000
0000
0001
0000
0000
0100
0000
,
0101
0000
0000
0110
0000
0000
0101
0000
,
1001
0000
0000
1010
0000
0000
0110
0000
,
0100
0000
0000
0001
0000
0000
1000
0000
,
0100
0000
0000
0010
0000
0000
0100
0000
,
0010
0000
0000
0001
0000
0000
0100
0000
,
0010
1000
0000
0001
0000
0000
0010
0000
,
0100
0000
0000
1000
0000
0000
0001
0000
,
0100
0000
0000
0010
0000
0000
1000
0000
,
1001
0000
0000
0011
0000
0000
0110
0000
,
1100
0000
0000
1001
0000
0000
0101
0000
,
0100
0000
0000
0000
,
0000
0000
0000
0000
,
0100
0100
0001
0001
,
1000
1000
0100
0010
,
0001
0001
1000
1000
,
0010
0000
0010
0000
0100
0000
0100
0010
,
1000
1001
0001
0011
,
1000
1000
0001
1001
,
0100
0110
0001
1100
,
0010
1000
0010
1001
,
0010
1000
0100
0002
,
0000
0003
0100
0000
,
1000
0010
0100
0001
,
0010
0000
0100
0000
1000
0010
0000
0000
,
0100
0001
0010
2000
,
0000
3000
0010
0000
,
0001
0100
0010
1000
,
0001
0000
0010
0000
0100
1000
0000
0000
,
1000
0001
0100
2000
,
0000
3000
0100
0000
,
0010
1000
0001
0010
,
0100
0000
1000
0000
0001
0010
0000
0000
,
0001
1000
0010
0002
,
0000
0003
0010
0000
,
0100
0010
1000
0001
,
0010
0100
1000
0001
,
1000
0000
0001
0100
0001
0000
1000
0000
,
0100
0010
0001
1000
,
0010
0000
0100
0001
0100
0000
0001
0000
,
1000
0000
0100
0000
0010
0001
0000
0000
,
0100
0000
0010
1000
0010
0000
0100
0000
,
0010
1000
0001
0010
,
0100
0000
1000
0001
1000
0000
0100
0000
,
0010
0000
0001
0000
1000
0010
0000
0000
,
0100
0000
0001
1000
0001
0000
0010
0000
,
0001
1000
0100
0010
,
0001
0000
1000
0000
0010
0100
0010
0000
,
0100
0000
0001
0000
1000
0100
0000
0000
,
0010
0000
0001
1000
0001
0000
1000
0000
,
0010
0100
0001
1000
,
0100
0000
0010
0001
0010
0000
0001
0000
,
0100
0000
0010
0000
1000
0100
0000
0000
,
1000
0000
0000
0001
0000
0000
0100
0000
,
0010
0000
0000
1000
0000
0000
0001
0000
,
0010
0000
0000
0001
0000
0000
1000
0000
,
0100
1000
0000
0010
0000
0000
0100
0000
,
0001
0000
0000
1000
0000
0000
0100
0000
,
1000
0000
0000
0010
0000
0000
0100
0000
,
1001
0000
0000
0110
0000
0000
0101
0000
,
1001
0000
0110
0000
,
1000
0010
0001
0010
,
1000
0100
0001
0100
,
0010
0001
0100
1000
,
0100
0001
0010
0100
,
0001
0100
0010
1000
,
0010
0100
1000
0010
,
0100
0001
1000
0010
,
0100
0001
0010
0100
,
2002
0000
0000
0000
,
3003
0000
0000
0000
;

//---------------dance-single - ----------------
#NOTES:
     dance-single:
     :
     Challenge:
     11:
     0.867,0.950,0.540,0.524,0.000:
0000
0000
0000
0000
,
0000
0000
0000
0000
,
0000
0000
0000
0000
,
0000
0000
0000
0000
,
1000
0010
0100
0001
,
0010
0000
0100
0000
1000
0010
0100
0001
,
0010
0001
1000
0010
,
0100
0000
0001
0000
1000
0001
1000
0001
,
0020
0000
0031
0100
1000
0100
0002
0000
,
0013
1000
0010
0001
0200
0000
0010
0000
,
2300
0000
3100
0010
1000
0100
0020
0000
,
0031
1000
0100
0001
0200
0000
0000
0000
,
2300
0000
3010
0100
0001
0010
2000
0000
,
3010
0001
0100
1000
0200
0000
0010
0000
,
0302
0000
0013
0100
1000
0001
0020
0000
,
0031
0100
1000
0100
0002
0000
0000
0000
,
2003
0000
3001
0010
0100
0001
0200
0000
,
0310
0001
0100
0010
2000
0000
0001
0000
,
3020
0000
1030
0100
0010
1000
0020
0000
,
0130
1000
0001
0100
0020
0000
0000
0000
,
0230
0000
0310
1000
0001
0010
0002
0000
,
0013
1000
0010
0100
2000
0000
0100
0000
,
3002
0000
0013
0001
0100
0010
0002
0000
,
0013
1000
0100
0001
0200
0000
0000
0000
,
1300
0000
0001
0100
0001
0000
1000
0000
,
0101
0000
0000
0000
0110
0000
0010
1000
,
0001
0000
1000
0100
0010
0001
1000
0000
,
0010
0000
0100
0000
2002
0000
0000
3003
,
0010
0000
0001
0100
0010
0000
1000
0000
,
0101
0000
0000
0000
1010
0000
1000
0001
,
0010
0000
0100
1000
0001
0010
0100
0000
,
0010
0000
0001
0000
2020
0000
0000
3030
,
1001
0000
0010
1000
0001
0000
0010
0000
,
1100
0000
0000
0000
0011
0000
0001
1000
,
0010
0000
0100
0010
1000
0001
0010
0000
,
0001
0000
1000
0000
0220
0000
0000
0330
,
1001
0000
0010
1000
0001
0000
0010
0000
,
1100
0000
0000
0000
0011
0000
0001
1000
,
0010
0000
0100
0001
0010
0000
0100
0000
,
1000
0100
0001
0100
0010
0001
0100
1000
,
0101
0000
0000
1100
0000
0000
1010
0000
,
0000
0011
0000
0000
1100
0000
0101
0000
,
1001
0000
0000
0101
0000
0000
0110
0000
,
0000
1010
0000
0000
1100
0000
0101
0000
,
1100
0000
0000
0011
0000
0000
1010
0000
,
0000
0101
0000
0000
0011
0000
0110
0000
,
1200
0000
0000
0010
0000
0000
0001
0000
,
0000
0010
0000
0000
1300
0010
0001
0000
,
0011
0000
0000
1010
0000
0000
1100
0000
,
0000
0011
0000
0000
0101
0000
1100
0000
,
1010
0000
0000
0101
0000
0000
1001
0000
,
0000
0110
0000
0000
0011
0000
1010
0000
,
0011
0000
0000
0110
0000
0000
1100
0000
,
0000
1001
0000
0000
0101
0000
0110
0000
,
1020
0000
0000
0100
0000
0000
0001
0000
,
0000
0100
0000
0000
1030
0100
0001
0000
,
0100
1000
0000
0001
0000
0000
0100
0000
,
1000
0100
0000
0010
0000
0000
1000
0000
,
0001
0010
0000
1000
0000
0000
0010
0000
,
0100
1000
0000
0010
0000
0100
0001
0010
,
0100
0001
0000
0100
0000
0000
1000
0000
,
0010
0100
0000
0001
0000
0000
1000
0000
,
2100
0000
0000
0010
0000
0000
3001
0000
,
0012
0000
0000
1000
0000
0000
0013
0000
,
0001
0100
0000
0010
0000
0000
1000
0000
,
0100
0001
0000
0100
0000
0000
0010
0000
,
0001
0100
0000
1000
0000
0000
0100
0000
,
0010
1000
0000
0001
0000
0010
0001
1000
,
0100
0010
0000
1000
0000
0000
0010
0000
,
0100
1000
0000
0010
0000
0000
0100
0000
,
0102
0000
0000
1000
0000
0000
0013
0000
,
2010
0000
0000
0001
0000
0000
3100
0000
,
1001
0000
0000
0000
,
0000
0000
0000
0000
,
0001
0100
0001
0100
,
0010
1000
0010
1000
,
0100
0010
0100
0010
,
0001
0000
1000
0000
0001
0000
1000
0010
,
0100
0000
0010
0000
1000
0001
0010
0000
,
0001
0000
1000
0000
0010
0100
0001
0010
,
0100
0000
0010
0000
0001
1000
0010
0000
,
0100
0000
0001
0000
1000
0100
0001
0100
,
2000
0000
3010
0100
0010
1000
0002
0000
,
0013
0001
1000
0100
2000
0000
0010
0000
,
3002
0000
0013
0001
0100
0010
2000
0000
,
3001
0100
1000
0100
0002
0000
0010
0000
,
0023
0000
0031
0100
0010
1000
0200
0000
,
1300
0001
0010
0100
0020
0000
0001
0000
,
0230
0000
1300
0010
0100
0001
0020
0000
,
0031
1000
0100
1000
0020
0000
1000
0000
,
2030
0000
3001
0100
1000
0100
0002
0000
,
0013
1000
0010
0001
2000
0000
0100
0000
,
3020
0000
1030
0010
0001
0010
2000
0000
,
3100
0001
0100
1000
0020
0000
0100
0000
,
0230
0000
0301
0010
1000
0010
0200
0000
,
0310
0001
1000
0010
0002
0000
0010
0000
,
0023
0000
1030
0100
0010
0001
2000
0000
,
3001
0010
0100
1000
0002
0000
1000
0000
,
1003
0000
0010
0100
0001
0000
0010
0000
,
0001
1000
0100
1000
0000
0010
0100
0000
,
0010
0000
1000
0001
0010
0000
0001
0000
,
1000
0100
1000
0010
0100
0002
0000
0000
,
0013
0000
0001
1000
0100
0000
1000
0000
,
0100
0010
1000
0100
0000
0010
0100
0000
,
1000
0000
0010
0100
0001
0000
0010
0000
,
0001
1000
0100
1000
0010
0200
0000
0000
,
0310
0000
1000
0001
0010
0000
0001
0000
,
1000
0100
1000
0001
0000
0010
0001
0000
,
0100
0000
0010
1000
0001
0000
0010
0000
,
0100
1000
0001
0010
0001
0200
0000
0000
,
0310
0000
1000
0100
0010
0000
0001
0000
,
1000
0010
0100
0001
0000
1000
0010
0000
,
1010
0000
0000
1001
0000
0000
0101
0000
,
0001
1000
0100
1000
0010
0200
0000
0000
,
0310
1000
0000
0001
0000
0000
0010
0000
,
1000
0010
0000
0001
0000
0000
0100
0000
,
1000
0100
0000
0010
0000
0000
1000
0000
,
0100
0010
0000
1001
0000
0010
0100
0001
,
0010
1000
0000
0010
0000
0000
0001
0000
,
0100
0010
0000
1000
0000
0000
0001
0000
,
0011
0000
0000
1100
0000
0000
1010
0000
,
0011
0000
0000
0110
0000
0000
1100
0000
,
1001
0001
0100
1000
0100
0010
1000
0001
,
0010
0100
0001
0100
0010
1000
0010
0100
,
1000
0010
0001
0010
1000
0100
0001
0100
,
0010
0001
0100
1000
0100
0010
1000
0001
,
0010
0100
0001
0100
1000
0010
0100
0001
,
1000
0100
0010
1000
0010
1000
0001
0100
,
0010
0001
0010
0100
1000
0010
0001
1000
,
0100
0010
1000
0100
0010
1000
0010
0001
,
0200
0000
0000
0000
,
0300
0000
0000
0000
;

//---------------dance-single - ----------------
#NOTES:
     dance-single:
     :
     Easy:
     6:
     0.427,0.475,0.081,0.129,0.000:
0000
0000
0000
0000
,
0000
0000
0000
0000
,
0000
0000
0000
0000
,
0000
0000
0000
0000
,
1000
0000
0010
0000
,
1000
0000
0001
0100
,
0010
0000
1000
0000
,
0001
0000
0010
0001
,
0100
0000
0000
1001
,
0000
0000
1000
0000
,
0010
0000
0100
0000
,
0010
1000
0001
0000
,
1000
0000
0000
0110
,
0000
0000
0010
0000
,
0001
0000
1000
0000
,
0010
0100
0001
0010
,
0100
0000
0000
1001
,
0000
0000
0010
0000
,
0001
0000
0100
0000
,
0010
1000
0001
0000
,
1000
0000
0000
0101
,
0000
0000
0010
0000
,
1000
0000
0001
0000
,
0010
0001
1000
0010
,
0100
0010
1000
0002
,
0000
0003
0010
0000
,
0001
1000
0100
1000
,
0010
0100
0002
0000
,
1003
0100
1000
0020
,
0000
0030
1000
0000
,
0001
0010
0100
1000
,
0001
0100
0002
0000
,
1003
0100
1000
0020
,
0000
0030
0100
0000
,
0001
0010
0001
1000
,
0100
1000
0002
0000
,
0013
0100
1000
0002
,
0000
0003
0100
0000
,
0010
1000
0010
1000
,
0001
0100
0001
0100
,
0010
0000
0000
1000
0000
0000
0010
0000
,
0000
1000
0000
0000
0010
0000
1000
0000
,
0001
0000
0000
0010
0000
0000
0001
0000
,
0000
0010
0000
0000
0001
0000
0010
0000
,
0100
0000
0000
1000
0000
0000
0100
0000
,
0000
1000
0000
0000
0100
0000
0010
0000
,
0100
0000
0000
0010
0000
0000
0001
0000
,
0000
1000
0000
0000
0001
0000
0000
0000
,
1000
0000
0000
0100
0000
0000
1000
0000
,
0000
0100
0000
0000
1000
0000
0010
0000
,
0100
0000
0000
0001
0000
0000
0100
0000
,
0000
0001
0000
0000
0100
0000
0001
0000
,
0010
0000
0000
0100
0000
0000
0010
0000
,
0000
0100
0000
0000
0010
0000
0001
0000
,
1000
0000
0000
0010
0000
0000
0100
0000
,
0000
0001
0000
0000
1000
0000
0000
0000
,
0001
0000
0010
0000
,
0001
0000
1000
0000
,
0010
0000
0100
0000
,
0010
1000
0001
0010
,
0100
0000
0010
0000
,
0001
0000
1000
0000
,
0010
0000
1001
0000
,
0100
0000
1001
0000
,
0010
0000
1000
0000
,
0001
0000
0010
0000
,
0001
0000
1000
0000
,
0010
0100
0001
0010
,
0100
0000
0010
0000
,
0001
0000
1000
0000
,
0010
0000
1100
0000
,
0010
0000
0101
0000
,
1000
0000
0000
0000
,
0000
0000
0000
0000
,
1000
0100
1000
0010
,
0100
0001
0010
0001
,
1000
0010
0100
0001
,
1000
0100
0010
0001
,
1000
0010
0000
0100
,
0000
0010
0000
1000
,
0001
0010
0000
0001
,
0000
0100
0000
0010
,
1000
0100
1000
0002
,
0000
0003
0010
0000
,
0001
0100
0010
1000
,
0001
0010
0200
0000
,
0310
0001
1000
0020
,
0000
0030
1000
0000
,
0100
1000
0010
0100
,
0010
1000
0002
0000
,
0013
0001
1000
0200
,
0000
0300
1000
0000
,
0010
0100
0010
1000
,
0001
0100
0020
0000
,
1030
0001
0100
0002
,
0000
0003
0010
0000
,
0100
1000
0100
0010
,
0001
1000
0020
0000
,
1030
0000
0001
0000
,
0010
0000
0001
1000
,
0100
0000
1000
0000
,
0010
0100
0010
1000
,
0001
0000
0010
0000
,
0001
0000
1000
0010
,
0100
0000
0010
0000
,
1000
0001
0010
0100
,
1000
0000
0001
0000
,
0100
0000
0010
1000
,
0001
0000
0010
0000
,
0001
0100
0010
1000
,
0100
0000
1000
0000
,
0010
0000
0100
0001
,
0100
0000
0010
0000
,
1000
0000
1001
0000
,
0001
0000
0000
0010
0000
0000
0001
0000
,
1000
0000
0000
0010
0000
0000
1000
0000
,
0100
0000
0000
0010
0000
0000
0001
0000
,
1000
0000
0010
0000
,
0100
0000
0000
0001
0000
0000
0100
0000
,
0010
0000
0000
1000
0000
0000
0100
0000
,
0010
0000
0000
0001
0000
0000
1000
0000
,
0001
0000
1001
0000
,
1000
0010
1000
0010
,
0100
0001
0100
0001
,
0010
0100
0010
0100
,
1000
0010
0100
0001
,
1000
0100
1000
0100
,
0010
0001
0010
0001
,
1000
0000
0000
0010
0000
0000
0100
0000
,
0001
0000
0000
1000
0000
0000
0010
0000
,
0200
0000
0000
0000
,
0300
0000
0000
0000
;

//---------------dance-double - ----------------
#NOTES:
     dance-double:
     :
     Challenge:
     11:
     0.820,0.950,0.604,0.169,0.000: // measure 1
00000000
00000000
00000000
00000000
,  // measure 2
00000000
00000000
00000000
00000000
,  // measure 3
00000000
00000000
00000000
00000000
,  // measure 4
00000000
00000000
00000000
00000000
,  // measure 5
00000100
00000000
00001000
00000000
00000010
00000000
00000100
00000001
,  // measure 6
00000000
00000001
00001000
00000000
00000100
00010000
00000010
00001000
,  // measure 7
00000100
00000000
00010000
00000000
00001000
00000000
00100000
00010000
,  // measure 8
00000000
00010000
10000000
00000000
00100000
01000000
00010000
00100000
,  // measure 9
00002000
00000000
00013000
00000100
00010000
00000000
00000010
00000000
,  // measure 10
00000100
00000010
00001000
00000000
00000100
00000000
00000010
00000000
,  // measure 11
00001002
00000000
00000103
00000010
00001000
00000000
00000100
00000000
,  // measure 12
00010000
00001000
00100000
00000000
00020000
00000000
01000000
00000000
,  // measure 13
01030000
00000000
00100000
10000000
00100000
00000000
01000000
00000000
,  // measure 14
00010000
00100000
00001000
00000000
10000000
00000000
00100000
00000000
,  // measure 15
20010000
00000000
30100000
01000000
00010000
00000000
00100000
00000000
,  // measure 16
00010000
00100000
00001000
00000000
00020000
00000000
00000000
00000000
,  // measure 17
00031000
00000000
00010000
00000100
00001000
00000000
00000010
00000000
,  // measure 18
00000100
00000010
00001000
00000000
00000100
00000000
00010000
00000000
,  // measure 19
00012000
00000000
00103000
00010000
01000000
00000000
00001000
00000000
,  // measure 20
00010000
00000100
00001000
00000000
00000020
00000000
00000100
00000000
,  // measure 21
00000130
00000000
00000010
00001000
00000001
00000000
00000010
00000000
,  // measure 22
00000100
00010000
00000100
00000000
00001000
00000000
00000010
00000000
,  // measure 23
00000201
00000000
00000310
00001000
00000100
00000000
00010000
00000000
,  // measure 24
00001000
00100000
00001000
00000000
00010000
00000000
00000100
00000000
,  // measure 25
00001000
00000000
00000010
00000100
00001000
00000000
00000100
00000000
,  // measure 26
00000010
00001000
00000100
00010000
,  // measure 27
00001000
00000000
01000000
00100000
10000000
00000000
00010000
00000000
,  // measure 28
00100000
01000000
10000000
00000000
00010000
00000000
01000000
00000000
,  // measure 29
00011000
00000000
00001000
00100000
00010000
00000000
01000000
00000000
,  // measure 30
00100000
10000000
00010000
00100000
,  // measure 31
00100000
00000000
10000000
00100000
00010000
00000000
01000000
00000000
,  // measure 32
00100000
10000000
00010000
00000000
00100000
00000000
00001000
00000000
,  // measure 33
00011000
00000000
00010000
00000100
00001000
00000000
00000010
00000000
,  // measure 34
00000100
00000001
00000010
00001000
,  // measure 35
00000010
00000000
00000100
00001000
00000010
00000000
00000100
00000000
,  // measure 36
00000001
00001000
00000100
00000000
00010000
00000000
00000010
00000000
,  // measure 37
00000101
00000000
00000010
00001000
00000100
00000000
00010000
00000000
,  // measure 38
00001000
01000000
00100000
00010000
,  // measure 39
00100000
00000000
10000000
01000000
00100000
00000000
00010000
00000000
,  // measure 40
01000000
00001000
00010000
00000000
00000100
00000000
00001000
00000000
,  // measure 41
00000101
00000000
00000000
00001010
00000000
00000000
00011000
00000000
,  // measure 42
00000000
01100000
00000000
00000000
11000000
00000000
10010000
00000000
,  // measure 43
01010000
00000000
00000000
01100000
00000000
00000000
00011000
00000000
,  // measure 44
00000000
00001100
00000000
00000000
00000110
00000000
00000011
00000000
,  // measure 45
00001100
00000000
00000000
00010010
00000000
00000000
00001100
00000000
,  // measure 46
00000000
00010100
00000000
00000000
00011000
00000000
00110000
00000000
,  // measure 47
02100000
00000000
00000000
00010000
00000000
00000000
00100000
00000000
,  // measure 48
00000000
10000000
00000000
00000000
03100000
00010000
01000000
00000000
,  // measure 49
01001000
00000000
00000000
00011000
00000000
00000000
00001100
00000000
,  // measure 50
00000000
00000011
00000000
00000000
00001100
00000000
00001010
00000000
,  // measure 51
00000101
00000000
00000000
00001010
00000000
00000000
00010100
00000000
,  // measure 52
00000000
00011000
00000000
00000000
00110000
00000000
01100000
00000000
,  // measure 53
11000000
00000000
00000000
10010000
00000000
00000000
01001000
00000000
,  // measure 54
00000000
00110000
00000000
00000000
11000000
00000000
10010000
00000000
,  // measure 55
01200000
00000000
00000000
00010000
00000000
00000000
10000000
00000000
,  // measure 56
00000000
01000000
00000000
00000000
00310000
00100000
10000000
00000000
,  // measure 57
01000000
00100000
01000000
10000000
00000000
00100000
01000000
00000000
,  // measure 58
00010000
00100000
00001000
00010000
00000000
00001000
00100000
00000000
,  // measure 59
00010000
01000000
00001000
00010000
00000000
00000100
00001000
00000000
,  // measure 60
00000010
00000100
00000000
00000001
00000000
00001000
00000100
00000000
,  // measure 61
00000010
00000001
00000010
00000100
00000000
00001000
00000010
00000000
,  // measure 62
00000100
00000001
00001000
00000100
00000000
00010000
00001000
00000000
,  // measure 63
00110000
00000000
00000000
00101000
00000000
00000000
00011000
00000000
,  // measure 64
00010100
00000000
00000000
00001010
00000000
00000000
00000101
00000000
,  // measure 65
00000001
00000100
00000010
00001000
00000000
00000100
00010000
00000000
,  // measure 66
00001000
00100000
00010000
01000000
00000000
00100000
10000000
00000000
,  // measure 67
00010000
00100000
01000000
10000000
00000000
00010000
01000000
00000000
,  // measure 68
00100000
10000000
00000000
00010000
00000000
00100000
00001000
00000000
,  // measure 69
00010000
00001000
00010000
00000100
00000000
00000010
00000100
00000000
,  // measure 70
00001000
00000010
00000100
00000001
00000000
00001000
00000100
00000000
,  // measure 71
00000110
00000000
00000000
00000011
00000000
00000000
00001100
00000000
,  // measure 72
00010100
00000000
00000000
00011000
00000000
00000000
01001000
00000000
,  // measure 73
01100000
00000000
00000000
00000000
,  // measure 74
00000000
00000000
00000000
00000000
,  // measure 75
00000100
00001000
00000010
00010000
,  // measure 76
00000100
00000000
00001000
00000000
00000010
00000000
00000100
00000001
,  // measure 77
00000010
00000100
00001000
00000010
,  // measure 78
00010000
00000000
00001000
00000000
00100000
00000000
00010000
01000000
,  // measure 79
00100000
00000000
10000000
00000000
01000000
00000000
00100000
00010000
,  // measure 80
01000000
00000000
00001000
00000000
00010000
00000100
00000010
00000001
,  // measure 81
00000100
00000000
00000010
00000000
00001000
00000000
00000100
00010000
,  // measure 82
00001000
01000000
00100000
10010000
,  // measure 83
20000000
00000000
30100000
01000000
00010000
00000000
00100000
00000000
,  // measure 84
00001000
00010000
00000100
00001000
,  // measure 85
00000010
00000000
00000100
00000001
00000010
00000000
00000100
00000000
,  // measure 86
00001000
00000000
00000001
00000000
00000100
00000020
00000000
00000000
,  // measure 87
00001030
00000000
00000100
00010000
00001000
00000000
01000000
00000000
,  // measure 88
00100000
10000000
00010000
00100000
,  // measure 89
00001000
00000000
00010000
00000010
00000100
00000000
00000010
00000000
,  // measure 90
00001000
00000000
00000100
00000000
00010000
00002000
00000000
00000000
,  // measure 91
00013000
00000000
00000100
00001000
00000010
00000000
00000100
00000000
,  // measure 92
00000001
00001000
00000100
00010000
,  // measure 93
00001000
00000000
01000000
00100000
10000000
00000000
00010000
00000000
,  // measure 94
00100000
00000000
01000000
00000000
10000000
00020000
00000000
00000000
,  // measure 95
10030000
00000000
00100000
01000000
00010000
00000000
00100000
00000000
,  // measure 96
00001000
00010000
00000100
00010000
,  // measure 97
00000010
00000000
00000100
00000001
00001000
00000000
00000100
00000000
,  // measure 98
00000010
00000000
00000001
00000000
00001000
00000020
00000000
00000000
,  // measure 99
00001030
00000100
00001000
00000100
00000010
00000001
00000100
00000000
,  // measure 100
00000010
00001000
00000010
00001000
00000000
00000001
00000100
00000000
,  // measure 101
00000010
00001000
00000010
00001000
00000100
00010000
00001000
00000000
,  // measure 102
00100000
00010000
00100000
00010000
01000000
00002000
00000000
00000000
,  // measure 103
00013000
00000100
00010000
00000100
00010000
00001000
01000000
00000000
,  // measure 104
00100000
10000000
00100000
10000000
00000000
00010000
01000000
00000000
,  // measure 105
00100000
10000000
00100000
10000000
00010000
00100000
01000000
00000000
,  // measure 106
00100000
00010000
00100000
01000000
10000000
00020000
00000000
00000000
,  // measure 107
10030000
01000000
10000000
01000000
00100000
00010000
01000000
00000000
,  // measure 108
00010000
01000000
00010000
01000000
00000000
00001000
00010000
00000000
,  // measure 109
00000100
00001000
00000100
00001000
00000010
00000100
00000010
00000000
,  // measure 110
00000010
00001000
00000010
00001000
00000001
00000200
00000000
00000000
,  // measure 111
00000310
00001000
00000100
00010000
00001000
00100000
00010000
00000000
,  // measure 112
00100000
00001000
00100000
00001000
00000000
00010000
00000010
00000000
,  // measure 113
00001010
00000000
00000000
00010010
00000000
00000000
00011000
00000000
,  // measure 114
00001000
00100000
01000000
10000000
00100000
20000000
00000000
30000000
,  // measure 115
10000000
01000000
00100000
01000000
00000000
10000000
00010000
00000000
,  // measure 116
01000000
00100000
01000000
00010000
00000000
00100000
00001000
00000000
,  // measure 117
00010000
00000100
00010000
00001000
00000000
00100000
00010000
00000000
,  // measure 118
01000000
00100000
00000000
10000000
00000000
00010000
01000000
00000000
,  // measure 119
00001000
00010000
00001000
00100000
00000000
00001000
00010000
00000000
,  // measure 120
00000100
00001000
00000010
00000100
00000000
00000010
00001000
00000000
,  // measure 121
00001001
00000000
00000000
00000101
00000000
00000000
00000110
00000000
,  // measure 122
00001010
00000000
00000000
00001100
00000000
00000000
00010100
00000000
,  // measure 123
00000100
00001000
00000010
00000100
00000001
00001000
00000100
00010000
,  // measure 124
00001000
00100000
00010000
01000000
00100000
00010000
00001000
00010000
,  // measure 125
00100000
01000000
00010000
10000000
01000000
00100000
00010000
01000000
,  // measure 126
00001000
00010000
00000100
00001000
00000010
00000100
00000001
00001000
,  // measure 127
00000100
00000010
00000001
00000100
00000010
00001000
00000100
00010000
,  // measure 128
00001000
00100000
00010000
10000000
00100000
01000000
00010000
00100000
,  // measure 129
00110000
00000000
00000000
00011000
00000000
00000000
00101000
00000000
,  // measure 130
00110000
00000000
00000000
01100000
00000000
00000000
11000000
00000000
,  // measure 131
20020000
00000000
00000000
00000000
,  // measure 132
30030000
00000000
00000000
00000000
;

//---------------dance-double - ----------------
#NOTES:
     dance-double:
     :
     Medium:
     9:
     0.610,0.686,0.064,0.741,0.000:
00000000
00000000
00000000
00000000
,
00000000
00000000
00000000
00000000
,
00000000
00000000
00000000
00000000
,
00000000
00000000
00000000
00000000
,
01000000
00000000
00100000
00000000
10000000
00000000
00010000
00100000
,
00000000
00100000
00010000
00000000
01000000
00000000
00001000
00000000
,
00010000
00000000
01000000
00000000
10000000
00000000
00100000
01000000
,
00000000
01000000
00001000
00000000
00010000
00000000
00000100
00000000
,
00000010
00000001
00000010
00000200
,
00000000
00000300
00001000
00000000
,
00000010
00000100
00000001
00001000
,
00000100
00010000
00011000
00000000
,
00010000
00000100
00001000
00000020
,
00000000
00000030
00001000
00000000
,
00000100
00000010
00000100
00001000
,
00000010
00010000
00011000
00000000
,
00001000
01000000
00100000
20000000
,
00000000
30000000
00010000
00000000
,
00100000
00010000
01000000
00100000
,
10000000
01000000
10010000
00000000
,
00100000
00010000
01000000
00002000
,
00000000
00003000
00010000
00000000
,
00000100
00001000
00000010
00000100
,
00000001
00001000
00001001
00000000
,
00001000
00000000
00000000
00000001
00000100
00000000
00000020
00000000
,
00000000
00000030
00001000
00000000
,
00000100
00000000
00010000
00001000
00010000
00000000
00001000
00000000
,
01000000
00100000
20000000
00000000
,
30010000
00000000
00000000
00100000
01000000
00000000
20000000
00000000
,
00000000
30000000
00010000
00000000
,
01000000
00000000
00100000
10000000
00100000
00000000
01000000
00000000
,
00010000
00100000
00002000
00000000
,
00013000
00000000
00000000
00000100
00001000
00000000
00000020
00000000
,
00000000
00000030
00000100
00000000
,
00000010
00000000
00001000
00000100
00001000
00000000
00000100
00000000
,
00010000
00001000
00200000
00000000
,
00310000
00000000
00000000
01000000
00100000
00000000
20000000
00000000
,
00000000
30000000
00100000
00000000
,
01000000
00000000
00010000
10000000
00010000
00000000
10000000
00000000
,
01000000
00100000
10010000
00000000
,
20000000
00000000
00000000
30200000
00000000
00000000
00320000
00000000
,
00000000
00032000
00000000
00000000
00003200
00000000
00000320
00000000
,
00002030
00000000
00000000
00003200
00000000
00000000
00020300
00000000
,
00000000
00030020
00000000
00000000
00000230
00000000
00000302
00000000
,
00000023
00000000
00000000
00000032
00000000
00000000
00002003
00000000
,
00000000
00003020
00000000
00000000
00000230
00000000
00000320
00000000
,
00020030
00000000
00000000
00032000
00000000
00000000
00203000
00000000
,
00000000
00320000
00000000
00000000
01030000
00100000
01000000
00000000
,
00020000
00000000
00000000
00230000
00000000
00000000
00302000
00000000
,
00000000
00003200
00000000
00000000
00000320
00000000
00002030
00000000
,
00003002
00000000
00000000
00000023
00000000
00000000
00002030
00000000
,
00000000
00023000
00000000
00000000
02030000
00000000
03200000
00000000
,
00320000
00000000
00000000
20030000
00000000
00000000
30200000
00000000
,
00000000
02300000
00000000
00000000
03020000
00000000
00230000
00000000
,
00302000
00000000
00000000
00023000
00000000
00000000
00030200
00000000
,
00000000
00002300
00000000
00000000
00003010
00000100
00000010
00000000
,
00000100
00000010
00001000
00000001
,
00000010
00000100
00001000
00000010
,
00010000
00001000
01000000
00100000
,
10000000
00000000
00010000
00000000
00100000
00010000
00100000
00010000
,
00100000
01000000
10000000
00010000
,
01000000
00001000
00010000
00000100
,
00002000
00000000
00000000
00003002
00000000
00000000
00000203
00000000
,
00000320
00000000
00000000
00002030
00000000
00000000
00003200
00000000
,
00010300
00001000
01000000
00100000
,
10000000
00010000
00100000
01000000
,
00100000
00010000
01000000
00001000
,
00010000
00000000
00000100
00000000
00000010
00000100
00000010
00000100
,
00000010
00000001
00000100
00000010
,
00001000
00000100
00010000
00001000
,
00200000
00000000
00000000
00320000
00000000
00000000
02030000
00000000
,
03200000
00000000
00000000
20300000
00000000
00000000
30020000
00000000
,
00130000
00000000
00000000
00000000
,
00000000
00000000
00000000
00000000
,
10000000
00010000
01000000
00100000
,
10000000
00010000
01000000
00001000
,
00010000
00000100
00000010
00000001
,
00000100
00000000
00000010
00000000
00001000
00000000
00000001
00000010
,
00001000
00000010
00000100
00001000
,
00000010
00000000
00010000
00000000
00001000
00000000
00100000
00010000
,
01000000
00100000
10000000
00010000
,
10000000
01000000
00100000
00010000
,
01000000
00001000
00010000
02000000
,
00000000
03000000
10000000
00000000
,
00100000
01000000
00010000
00100000
,
00001000
00010000
00000200
00000000
,
00000310
00000001
00001000
00000020
,
00000000
00000030
00000100
00000000
,
00000010
00001000
00000010
00000100
,
00000001
00001000
00000200
00000000
,
00010300
00001000
01000000
00200000
,
00000000
00300000
10000000
00000000
,
00010000
00100000
01000000
10000000
,
00010000
01000000
00200000
00000000
,
10300000
00010000
01000000
00002000
,
00000000
00003000
00010000
00000000
,
00000100
00001000
00000010
00000100
,
00000001
00001000
00000200
00000000
,
00001300
00000000
00000000
00000001
00000100
00000000
00000010
00000000
,
00001000
00000100
00010000
00000100
,
00001000
00000000
00000000
00000010
00000100
00000000
00000010
00000000
,
00001000
00000001
00000020
00000000
,
00000031
00000000
00000000
00001000
00000100
00000000
00010000
00000000
,
00001000
01000000
00010000
00100000
,
00001000
00000000
00000000
00010000
00001000
00000000
01000000
00000000
,
00100000
10000000
00020000
00000000
,
00130000
00000000
00000000
01000000
10000000
00000000
01000000
00000000
,
10000000
00100000
01000000
00010000
,
10000000
00000000
00000000
01000000
00100000
00000000
00010000
00000000
,
01000000
00001000
00020000
00000000
,
00031000
00000000
00000000
00010000
00000100
00000000
00001000
00000000
,
00000010
00000100
00000001
00001000
,
00000101
00000000
00000000
00001001
00000000
00000000
00001010
00000000
,
00001000
00000100
00020000
00000000
,
00031000
00000000
00000000
00100000
00000000
00000000
00001000
00000000
,
00010000
00000000
00000000
00000100
00000000
00000000
00001000
00000000
,
00000010
00000000
00000000
00000100
00000000
00000000
00000010
00000000
,
00001000
00000100
00000000
00010000
00000000
00000000
00001000
00000000
,
00100000
00000000
00000000
00010000
00000000
00000000
01000000
00000000
,
00100000
00000000
00000000
10000000
00000000
00000000
00010000
00000000
,
00200000
00000000
00000000
00320000
00000000
00000000
02030000
00000000
,
00000000
03002000
00000000
00000000
00023000
00000000
00030200
00000000
,
00001300
00000010
00000100
00000001
,
00001000
00000010
00000100
00000010
,
00001000
00000100
00010000
00001000
,
01000000
00100000
10000000
00010000
,
00100000
01000000
10000000
00010000
,
01000000
00100000
00010000
00001000
,
00000200
00000000
00000000
00000320
00000000
00000000
00002030
00000000
,
00003200
00000000
00000000
00020300
00000000
00000000
00032000
00000000
,
02003000
00000000
00000000
00000000
,
03000000
00000000
00000000
00000000
;

//---------------dance-double - ----------------
#NOTES:
     dance-double:
     :
     Easy:
     6:
     0.376,0.475,0.032,0.040,0.000:
00000000
00000000
00000000
00000000
,
00000000
00000000
00000000
00000000
,
00000000
00000000
00000000
00000000
,
00000000
00000000
00000000
00000000
,
10000000
00010000
00100000
01000000
,
10000000
00010000
01000000
00100000
,
01000000
00010000
00100000
00001000
,
00010000
00000100
00000010
00000001
,
00000100
00000000
00000000
00001001
,
00000000
00000000
00000010
00000000
,
00000100
00000000
00000001
00000000
,
00001000
00000100
00010000
00000000
,
00001000
00000000
00000000
00101000
,
00000000
00000000
00010000
00000000
,
01000000
00000000
00100000
00000000
,
10000000
00010000
00100000
00000000
,
01000000
00000000
00000000
10010000
,
00000000
00000000
00100000
00000000
,
01000000
00000000
00010000
00000000
,
00100000
00001000
00010000
00000000
,
00001000
00000000
00000000
00010100
,
00000000
00000000
00001000
00000000
,
00000100
00000000
00001000
00000000
,
00000010
00000100
00000001
00000000
,
00001000
00000000
00000010
00000000
,
00000100
00000001
00000010
00000000
,
00000001
00000000
00000100
00000000
,
00000010
00001000
00000100
00010000
,
00001000
00000000
01000000
00000000
,
00010000
00100000
00001000
00000000
,
00010000
00000000
00000100
00000000
,
00001000
00000000
00000010
00000000
,
00000100
00000000
00000001
00000000
,
00001000
00000100
00000010
00000000
,
00000001
00000000
00000100
00000000
,
00000010
00000000
00001000
00000000
,
00000100
00000000
00010000
00000000
,
00001000
01000000
00100000
00000000
,
10000000
00000000
00010000
00000000
,
00100000
00000000
01000000
00000000
,
10000000
00000000
00000000
00010000
00000000
00000000
10000000
00000000
,
00000000
00010000
00000000
00000000
01000000
00000000
00001000
00000000
,
00010000
00000000
00000000
00001000
00000000
00000000
00010000
00000000
,
00000000
00001000
00000000
00000000
00010000
00000000
00000100
00000000
,
00001000
00000000
00000000
00000010
00000000
00000000
00001000
00000000
,
00000000
00000010
00000000
00000000
00000100
00000000
00000001
00000000
,
00000010
00000000
00000001
00000000
,
00001000
00000000
00000010
00000000
,
00010000
00000000
00000000
00001000
00000000
00000000
00010000
00000000
,
00000000
00001000
00000000
00000000
00010000
00000000
00000100
00000000
,
00000010
00000000
00000000
00000001
00000000
00000000
00001000
00000000
,
00000000
00000001
00000000
00000000
00001000
00000000
00000010
00000000
,
00000100
00000000
00000000
00000001
00000000
00000000
00000100
00000000
,
00000000
00000001
00000000
00000000
00000100
00000000
00000010
00000000
,
00001000
00000000
00000100
00000000
,
00010000
00000000
00001000
00000000
,
00100000
00000000
00010000
00000000
,
01000000
00000000
00100000
00000000
,
10000000
00000000
00010000
00000000
,
00100000
00001000
00010000
00000100
,
00001000
00000000
00000010
00000000
,
00001000
00000000
00000100
00000000
,
00010000
00000000
00000000
00001000
00000000
00000000
00100000
00000000
,
00010000
00000000
01000000
00000000
,
00100000
00000000
10000000
00000000
,
00010000
00000000
00100000
00000000
,
00001000
00000000
00010000
00000000
,
00000100
00000010
00000100
00001000
,
00000001
00000000
00000100
00000000
,
00000010
00000000
00001000
00000000
,
00000100
00000000
00000000
00010000
00000000
00000000
00000100
00000000
,
00001000
00000000
00000010
00000000
,
00000100
00000000
00000000
00000000
,
00000000
00000000
00000000
00000000
,
00000010
00001000
00000010
00000100
,
00000001
00001000
00000100
00010000
,
00001000
01000000
00010000
00100000
,
00001000
00010000
00000100
00001000
,
00000010
00000100
00000000
00000010
,
00000000
00001000
00000000
00000100
,
00010000
00001000
00000000
01000000
,
00000000
00100000
00000000
10000000
,
01000000
00000000
10000000
00000000
,
00100000
00000000
01000000
00010000
,
00100000
00000000
00001000
00000000
,
00010000
00000000
00000100
00000000
,
00001000
00000000
00000010
00000000
,
00001000
00000000
00000100
00010000
,
00001000
00000000
00100000
00000000
,
00010000
00000000
10000000
00000000
,
00100000
00000000
01000000
00000000
,
00010000
00000000
00100000
00001000
,
00010000
00000000
00001000
00000000
,
00010000
00000000
00000100
00000000
,
00001000
00000000
00000010
00000000
,
00000100
00000000
00000001
00000010
,
00000100
00000000
00001000
00000000
,
00000010
00000000
00000100
00000000
,
00000020
00000000
00000000
00000000
,
00001030
00000100
00010000
00001000
,
00100000
00000000
00010000
00000000
,
10000000
00000000
00100000
00000000
,
02000000
00000000
00000000
00000000
,
03100000
10000000
00010000
00100000
,
00001000
00000000
00010000
00000000
,
00000100
00000000
00001000
00000000
,
00000020
00000000
00000000
00000000
,
00000130
00000010
00001000
00000100
,
00010000
00000000
00000100
00000000
,
00001000
00000000
00000010
00000000
,
00000200
00000000
00000000
00000000
,
00000301
00001000
00000010
00000100
,
00000001
00000000
00000000
00001000
00000000
00000000
00000100
00000000
,
00010000
00000000
00000000
00001000
00000000
00000000
00100000
00000000
,
00010000
00000000
01000000
00000000
,
00100000
00000000
10000000
00000000
,
00010000
00000000
00100000
00000000
,
00001000
00000000
00010000
00000100
,
00001000
00000000
00000100
00000000
,
00010000
00000000
00001000
00000000
,
00100000
00000000
00000000
00010000
00000000
00000000
01000000
00000000
,
00100000
00000000
10000000
00000000
,
00010000
01000000
00010000
01000000
,
00100000
10000000
00100000
10000000
,
00010000
00100000
00001000
00010000
,
00000100
00000010
00000001
00001000
,
00000001
00000100
00000001
00000100
,
00000010
00001000
00000010
00001000
,
00000100
00000000
00000000
00010000
00000000
00000000
00000100
00000000
,
00001000
00000000
00000000
00000010
00000000
00000000
00000100
00000000
,
00000002
00000000
00000000
00000000
,
00000003
00000000
00000000
00000000
;
