#TITLE:Straight Up;
#SUBTITLE:;
#ARTIST:Paula Abdul;
#TITLETRANSLIT:;
#SUBTITLETRANSLIT:;
#ARTISTTRANSLIT:;
#GENRE:;
#CREDIT:;
#MENUCOLOR:;
#METERTYPE:DDR;
#BANNER:Straight Up-bn.png;
#BACKGROUND:Straight Up-bg.png;
#LYRICSPATH:Straight Up.lrc;
#CDTITLE:ddrencorecdtitle.png;
#MUSIC:Straight Up.mp3;
#OFFSET:-0.014;
#SAMPLESTART:40.070;
#SAMPLELENGTH:20.610;
#SELECTABLE:YES;
#LISTSORT:;
#DISPLAYBPM:95.000;
#BPMS:0.000=95.890;
#STOPS:;
#BGCHANGES:;
#ATTACKS:;

//---------------dance-single - ----------------
#NOTES:
     dance-single:
     :
     Beginner:
     1:
     0.089,0.117,0.018,0.000,0.000:
0000
0000
0000
0000
,
0000
0000
0000
0000
,
0000
0000
0000
0000
,
0000
0000
0000
0000
,
1000
0000
0000
0001
,
0001
0000
0000
0100
,
0100
0000
0010
0000
,
1000
0000
0000
0000
,
0001
0000
0010
0000
,
0001
0000
0000
1000
,
1000
0000
0001
0000
,
0100
0000
0000
0000
,
0010
0000
1000
0000
,
0001
0000
0010
0000
,
0100
0000
0010
0000
,
1001
0000
0000
0000
,
0001
0000
0010
0000
,
0001
0001
0001
0000
,
1000
0000
0001
0000
,
1000
0000
0000
0000
,
1000
0000
0100
0000
,
1000
1000
1000
0000
,
0001
0000
0100
0000
,
0001
0000
0000
0000
,
1000
0000
0000
0000
,
0001
0000
0000
0000
,
0100
0000
0000
0000
,
1001
0000
0000
0000
,
0100
0000
0000
0000
,
0010
0000
0000
0000
,
1000
0000
0000
0000
,
0001
0000
0000
0000
,
1000
0000
0100
0000
,
0010
0000
0000
0000
,
0001
0000
0100
0000
,
0010
0000
0000
0000
,
1000
0000
0010
0000
,
1000
1000
1000
0000
,
0001
0000
0100
0000
,
0010
0000
0000
0000
,
0100
0000
0001
0000
,
1000
1000
1000
0000
,
0010
0000
1000
0000
,
0001
0000
0000
0000
;

//---------------dance-single - ----------------
#NOTES:
     dance-single:
     :
     Medium:
     5:
     0.239,0.239,0.027,0.054,0.000:
0000
0000
0000
0000
,
0000
0000
0000
0000
,
0000
0000
0000
0000
,
0000
0000
0000
0000
,
0001
0000
0100
0000
0100
0000
0001
1000
,
0100
0000
1000
0000
0001
0000
0010
0001
,
0100
0000
0010
1000
,
0001
0000
1000
0010
,
1000
0000
0000
0001
0100
0000
0001
1000
,
0100
0000
0010
0000
0100
0000
1000
0001
,
0010
0001
1000
0000
0100
0000
1000
0000
,
0001
0000
1000
1001
,
0001
0000
0010
0000
0100
0000
0010
0001
,
1000
0000
0010
0000
0100
0000
0010
1000
,
0001
0100
0010
1000
,
1002
0000
0103
0001
,
1000
0000
0100
0000
1000
0001
1000
0001
,
0100
0000
0010
0000
1000
0000
0001
0100
,
0001
1000
0010
0100
,
0001
0000
1000
0000
,
0100
0000
1000
0000
0001
1000
0001
1000
,
0100
0000
0010
0000
0001
0000
1000
0100
,
1000
0000
0010
0000
0100
0000
0001
0100
,
0010
0000
1000
0010
,
1000
0000
0001
0010
0001
0000
1000
0000
,
0010
0000
1000
0100
1000
0000
0001
0000
,
0100
0000
0010
1000
0001
0000
0010
0000
,
0100
0010
0000
0000
0001
0000
1001
0000
,
0100
0000
1000
0010
1000
0000
0010
0100
,
0010
0000
0100
0001
0100
0000
0001
0000
,
2000
0000
3002
0000
,
1003
0001
0100
0010
,
1000
0010
1000
0001
1000
0000
0100
0000
,
0020
0001
0000
0031
,
0001
0010
0001
1000
0001
0000
0100
0000
,
0020
0100
0000
0030
,
1000
0000
0010
0000
1000
0010
1000
0010
,
0100
0000
0001
0000
0010
0000
0100
0010
,
0001
1000
0010
0100
,
0001
0000
1000
0000
,
0100
0000
1000
0000
0001
0100
0001
0100
,
0010
0000
1000
0000
0001
0000
0010
0100
,
1000
0000
0010
0000
1000
0000
0001
0100
,
0001
0010
0200
0000
,
0300
0000
0000
0000
;

//---------------dance-single - ----------------
#NOTES:
     dance-single:
     :
     Easy:
     2:
     0.142,0.178,0.054,0.127,0.000:
0000
0000
0000
0000
,
0000
0000
0000
0000
,
0000
0000
0000
0000
,
0000
0000
0000
0000
,
0001
0000
0000
1000
,
0001
0000
0000
0100
,
0010
0000
1000
0100
,
1000
0000
0001
0000
,
0100
0000
0010
0000
,
1000
0000
0000
0001
,
0010
0000
0100
1000
,
0001
0000
0000
1001
,
1000
0000
0010
0000
,
1000
0000
0001
0000
,
0100
0000
0010
0000
,
2000
0000
3002
0000
,
1003
0000
0100
0000
,
1000
0001
0100
0001
,
1000
0000
0100
0000
,
2002
0000
3003
0000
,
0001
0000
0010
0000
,
0001
0100
0010
1000
,
0001
0000
0010
0000
,
2002
0000
3003
0000
,
0010
0001
0000
1000
,
0000
0100
0000
1000
,
0000
0010
0000
0100
,
0001
0000
0000
1001
,
0001
1000
0000
0100
,
0000
1000
0000
0001
,
2000
0000
3002
0000
,
0103
0010
0100
0010
,
1000
0000
0001
0000
,
0020
0000
0000
0030
,
0001
0000
1000
0000
,
0200
0000
0000
0300
,
1000
0000
0001
0000
,
0100
0001
0100
0010
,
1000
0000
0001
0000
,
2002
0000
3003
0000
,
1000
0000
0100
0000
,
1000
0001
0100
0001
,
1000
0000
0010
0100
,
2002
0000
3003
0100
;

//---------------dance-double - ----------------
#NOTES:
     dance-double:
     :
     Easy:
     3:
     0.182,0.199,0.027,0.154,0.000:
00000000
00000000
00000000
00000000
,
00000000
00000000
00000000
00000000
,
00000000
00000000
00000000
00000000
,
00000000
00000000
00000000
00000000
,
00000010
00000000
00000100
00000001
,
00001000
00000000
00000100
00010000
,
00000100
00000000
00010000
00001000
,
00022000
00000000
00033000
00000000
,
00001000
00000000
00100000
00001000
,
00100000
00000000
00010000
01000000
,
00100000
00000000
10000000
00010000
,
20020000
00000000
30030000
10010000
,
01000000
00010000
10000000
10000000
,
01000000
00100000
00010000
00010000
,
01000000
00001000
00010000
00000100
,
00002000
00000000
00003002
00000000
,
00000103
00000000
00000100
00000000
,
00000010
00010000
00001000
00010000
,
00000100
00000000
00000010
00000100
,
00002000
00000000
00003010
00000100
,
00000001
00000000
00001000
00000000
,
00000010
00010000
00000100
00010000
,
00001000
00000000
00100000
00010000
,
02000000
00000000
03010000
10000000
,
00100000
01000000
00010000
00100000
,
00100000
00010000
01000000
00001000
,
00001000
00010000
00000100
00001000
,
00000010
00000000
00000100
00000000
,
00000001
00000100
00000010
00001000
,
00001000
00000100
00010000
00001000
,
00002000
00000000
00203000
00000000
,
00310000
01000000
00010000
00100000
,
00002000
00000000
00023000
00000000
,
00030100
00001000
00000010
00000100
,
00000002
00000000
00002003
00000000
,
00003010
00010000
00001000
00000000
,
00010000
00000000
00001000
00000000
,
00100000
00010000
01000000
00001000
,
01000000
00000000
00010000
00100000
,
02000000
00000000
13000000
00010000
,
01000000
00000000
00010000
00000000
,
00100000
00001000
00010000
00001000
,
01000000
00000000
00010000
00100000
,
00002000
00000000
00023000
00000000
,
00030000
00000000
00000000
00000000
;

//---------------dance-double - ----------------
#NOTES:
     dance-double:
     :
     Medium:
     5:
     0.256,0.239,0.036,0.045,0.000:
00000000
00000000
00000000
00000000
,
00000000
00000000
00000000
00000000
,
00000000
00000000
00000000
00000000
,
00000000
00000000
00000000
00000000
,
00000100
00000000
00001000
00000000
00000001
00000000
00000100
00000010
,
00001000
00000000
00000100
00000000
00010000
00000000
00001000
00100000
,
00010000
00000000
00000000
00100000
01000000
00000000
00100000
00000000
,
00010000
10000000
00100000
01000000
,
00010000
00000000
00100000
00001000
00010000
00000000
00001000
00010000
,
00000100
00000000
00001000
00000000
00000010
00000000
00000100
00000001
,
00000100
00000010
00001000
00000000
00000100
00000000
00010000
00000000
,
00001000
00010000
00000010
00011000
,
00001000
00000000
00100000
00010000
00100000
00000000
01000000
00000000
,
10000000
00000000
00010000
01000000
00010000
00000000
01000000
00000000
,
00100000
00000000
10000000
01000000
00100000
00000000
00010000
00000000
,
02000000
00000000
03002000
00000000
,
00013000
00000000
00001000
00000000
00010000
00001000
00010000
00001000
,
00100000
00000000
00010000
00000000
01000000
00000000
00001000
00010000
,
00001000
00000000
00010000
00000000
00000100
00000000
00000010
00000001
,
00001000
00000010
00001000
00000001
,
00000100
00000000
00000010
00000000
00010000
00001000
00010000
00001000
,
01000000
00000000
00010000
00000000
00100000
00000000
00001000
00010000
,
00001000
00000000
00010000
00000000
01000000
00000000
00100000
00010000
,
10000000
00100000
01000000
00010000
,
10000000
00000000
01000000
10000000
01000000
00000000
00100000
00000000
,
00010000
00000000
01000000
00001000
01000000
00000000
00001000
00000000
,
00010000
00000000
00000100
00001000
00000100
00000000
00010000
00000000
,
00001000
00100000
00000000
00000000
00001000
00000000
00011000
00000000
,
00010000
00000000
00000100
00001000
00000100
00000000
00000010
00000001
,
00000010
00000000
00000100
00001000
00000001
00000000
00000100
00000000
,
00000020
00000000
00002030
00000000
,
00003100
00010000
00001000
00011000
,
00010000
00000100
00010000
00001000
00010000
00000000
00001000
00000000
,
01000000
00010000
00100000
10010000
,
01000000
00100000
01000000
00010000
01000000
00000000
00100000
00000000
,
01000000
00001000
00010000
00000000
,
00010000
00000000
00000100
00000000
00001000
00000001
00001000
00000001
,
00000100
00000000
00000010
00000000
00001000
00000000
00000100
00010000
,
00000100
00000000
00001000
00000000
00000010
00000000
00010000
00001000
,
00010000
00001000
00100000
00010000
,
01000000
00000000
00001000
00000000
00100000
00010000
00100000
00010000
,
01000000
00000000
00100000
00000000
10000000
00000000
00010000
00100000
,
00010000
00000000
01000000
00000000
00001000
00000000
00010000
00000100
,
00001000
00000010
00000200
00000000
,
00000300
00000000
00000000
00000000
;

//---------------dance-double - ----------------
#NOTES:
     dance-double:
     :
     Hard:
     7:
     0.393,0.418,0.136,0.036,0.317:
00000000
00000000
00000000
00000000
,
00000000
00000000
00000000
00000000
,
00000000
00000000
00000000
00000000
,
00000000
00000000
00000000
00000000
,
00100000
00000000
00000000
00000000
00010000
00000000
00000000
01000000
00100000
00000000
10000000
00000000
00010000
00000000
01000000
00000000
,
00001000
00000000
00010000
00000000
00000100
00000000
00010000
00001000
00000000
00000000
00000000
00010000
00000010
00000000
00001000
00000000
,
00000001
00000000
00001001
00000000
00001000
00000000
00000010
00010000
,
00001000
00000000
00010000
00000000
00000100
00000000
00001000
00000010
00000000
00000000
00000100
00000000
00000010
00000000
00010000
00000000
,
00001000
00000000
00000000
00000000
00100000
00000000
00000000
00001000
00010000
00000000
00001000
00000000
01000000
00000000
00100000
00000000
,
10000000
00000000
00010000
00000000
00100000
00000000
00010000
01000000
00000000
00000000
00000000
00100000
10000000
00010000
01000000
00000000
,
00001000
00010000
00001000
00000000
00010000
00000000
00000010
00001000
,
00000001
00000000
00000100
00000000
00000010
00000000
00010000
00001000
00000000
00000000
00000000
00000000
00011000
00000000
00000000
00000000
,
00010000
00000000
00000100
00000000
00001000
00000000
00000010
00000000
00000100
00000000
00000001
00001000
00000000
00000010
00000000
00000100
,
00000000
00000000
00000001
00000000
00001000
00000000
00000100
00000000
00010000
00000000
00001000
00100000
00000000
00001000
00000000
00010000
,
00000000
00000000
00010000
00000000
00000100
00000000
00001000
00000000
00000010
00000000
00000100
00000001
00000000
00001000
00000000
00000020
,
00000000
00000000
00000000
00000000
00001030
00000001
00000100
00000010
,
00001000
00000000
00000001
00000100
00000000
00000010
00000000
00010000
00000000
00001000
00010000
00000000
00001000
00000000
01000000
00000000
,
00100000
00000000
00000000
00100000
01000000
00000000
01000000
00010000
00000000
10000000
00000000
00000000
10010000
00000000
10010000
00000000
,
10010000
00000000
00000000
01000000
00010000
01000000
00000000
00001000
00000000
00010000
00000000
00010000
00000100
00000000
00001000
00000000
,
00000010
00000000
00000100
00000000
00000001
00001000
00000010
00000100
,
00000001
00000000
00001000
00000010
00000000
00000100
00000000
00000001
00000000
00001000
00000100
00000000
00010000
00000000
00000100
00000000
,
00001000
00000000
00000000
00001000
00000010
00000000
00000010
00000100
00000000
00000001
00000000
00000000
00001001
00000000
00001001
00000000
,
00001001
00000000
00000000
00000100
00010000
00000100
00000000
00001000
00000000
00000000
00000010
00000000
00000100
00000000
00000001
00000000
,
00001000
00000000
00000010
00000000
00000100
00000010
00010000
00001000
,
00100000
00000000
00010000
01000000
00010000
00000000
00100000
00001000
,
00100000
00000000
00001000
00010000
00001000
00000000
00010000
00000000
,
00000010
00000000
00000100
00000001
00000100
00000000
00000010
00000000
,
00010000
00001000
00000000
00000000
01000000
00000000
10010000
00000000
,
00010000
00000000
10000000
01000000
10000000
00010000
00100000
00010000
,
01000000
00000000
00001000
00010000
00000100
00000000
00001000
00000000
,
00000020
00000000
00000230
00000000
,
00000301
00000100
00000001
00000000
00000100
00000000
00000010
00001000
00000010
00001000
00000010
00000000
00000100
00000000
00000000
00000000
,
00000001
00000000
00000100
00000000
00000010
00000000
00010000
00001000
00000000
00000000
00010000
00000000
00001000
00000000
00100000
00010000
,
00000000
01000000
00010000
01000000
00001000
00010000
00000100
00001000
,
00000010
00000000
00000100
00000000
00000001
00000000
00001000
00000100
00000000
00000000
00000010
00000000
00000100
00000000
00001000
00000001
,
00000000
00000100
00000010
00010000
00002000
00000000
00000000
00000000
,
00013000
00000000
00001000
00100000
00000000
00010000
00000000
01000000
00000000
00100000
10000000
00000000
00010000
00000000
00100000
00000000
,
01000000
00000000
00000000
01000000
10000000
00000000
10000000
00010000
00000000
01000000
00000000
00000000
01010000
00000000
01010000
00000000
,
01010000
00000000
00000000
10000000
00010000
10000000
00000000
00010000
00000000
01000000
00000000
01000000
00001000
00000000
00010000
00000000
,
00000100
00000000
00001000
00000000
00000100
00001000
00000010
00010000
,
00001000
00000000
00010000
00000100
00000000
00001000
00000000
00000010
00000000
00000100
00000001
00000000
00001000
00000000
00000010
00000000
,
00000100
00000000
00000000
00000100
00000001
00000000
00000001
00001000
00000000
00000010
00000000
00000000
00001010
00000000
00001010
00000000
,
00001010
00000000
00000000
00000001
00001000
00000001
00000000
00000100
00000000
00000000
00000010
00000000
00010000
00000000
00000100
00000000
,
00001000
00000000
00000000
00000000
00000010
00000000
00000000
00000000
00010000
00000000
00001000
00000000
01000000
00000000
00100000
10000000
;

//---------------dance-single - ----------------
#NOTES:
     dance-single:
     :
     Hard:
     7:
     0.396,0.418,0.145,0.036,0.321: // measure 1
0000
0000
0000
0000
,  // measure 2
0000
0000
0000
0000
,  // measure 3
0000
0000
0000
0000
,  // measure 4
0000
0000
0000
0000
,  // measure 5
0001
0000
0000
0000
1000
0000
0000
0001
0100
0000
0001
0000
0010
0000
0100
0000
,  // measure 6
1000
0000
0001
0000
0100
0000
0010
1000
0000
0000
0000
1000
0001
0000
0010
0000
,  // measure 7
0001
0000
1100
0000
0010
0000
0100
1000
,  // measure 8
0001
0000
0100
0000
0010
0000
1000
0001
0000
0000
0010
0000
0001
0000
0100
0000
,  // measure 9
0001
0000
0000
0000
1000
0000
0000
0010
1000
0000
0001
0000
0100
0000
0010
0000
,  // measure 10
1000
0000
0100
0000
1000
0000
0001
0100
0000
0000
0000
0100
0010
1000
0001
0000
,  // measure 11
0100
0001
1000
0000
0100
0000
1000
0010
,  // measure 12
0100
0000
0001
0000
1000
0000
0100
1000
0000
0000
0000
0000
1001
0000
0000
0000
,  // measure 13
1000
0000
0010
0000
0100
0000
0001
0000
0100
0000
0010
1000
0000
0001
0000
0010
,  // measure 14
0000
0100
1000
0000
0010
0000
1000
0000
0001
0000
0100
0001
0000
0010
0000
0001
,  // measure 15
0000
0000
0100
0000
0001
0000
1000
0000
0100
0000
0010
0100
0000
1000
0000
0002
,  // measure 16
0000
0000
0010
0000
1003
0100
1000
0010
,  // measure 17
0100
0000
0001
1000
0000
0010
0000
1000
0000
0001
0010
0000
0001
0000
0100
0000
,  // measure 18
0010
0000
0000
0010
1000
0000
1000
0001
0000
1000
0000
0000
0011
0000
0011
0000
,  // measure 19
0011
0000
0000
0000
0001
1000
0000
0010
0000
0100
0000
0010
1000
0000
0001
0000
,  // measure 20
0010
0000
0000
0000
0100
0000
0100
0000
0010
0001
0000
1000
0000
0000
0001
0000
,  // measure 21
0100
0000
0010
1000
0000
0001
0000
0010
0000
0001
0100
0000
0010
0000
1000
0000
,  // measure 22
0001
0000
0000
0001
0010
0000
0010
0100
0000
0010
0000
0000
1001
0000
1001
0000
,  // measure 23
1001
0000
0000
0000
0001
0100
0000
0010
0000
0000
1000
0000
0001
0000
0100
0000
,  // measure 24
0001
0000
0010
0000
0100
1000
0000
0001
0000
0000
0000
0000
0100
0000
0000
0000
,  // measure 25
0010
0000
1000
0010
0100
0001
1000
0100
,  // measure 26
0010
0000
0100
1000
0001
0000
0100
0000
,  // measure 27
0010
0000
1000
0001
0010
0001
0100
0010
,  // measure 28
1000
0010
0000
0000
0100
0001
1001
0000
,  // measure 29
0001
0000
0010
0001
0010
0100
1000
0001
,  // measure 30
0100
0000
0010
1000
0001
0000
0010
0000
,  // measure 31
0002
0000
2003
0000
,  // measure 32
3001
0010
0001
0000
1000
0000
0010
0100
0010
0100
0010
0000
1000
0000
0000
0000
,  // measure 33
0100
0000
1000
0000
0001
0000
0010
0001
0000
0000
0100
0000
0010
0000
1000
0001
,  // measure 34
0000
0010
0001
0010
0100
1000
0001
0000
,  // measure 35
1000
0000
0010
0000
0100
0000
0001
1000
0000
0000
0100
0000
0010
0000
0100
1000
,  // measure 36
0000
0001
0000
1000
0020
0000
0000
0000
,  // measure 37
1030
0000
0001
0010
0000
0001
0000
0100
0000
0010
1000
0000
0001
0000
0010
0000
,  // measure 38
0100
0000
0000
0100
1000
0000
1000
0001
0000
0100
0000
0000
1010
0000
1010
0000
,  // measure 39
1010
0000
0000
0000
0100
0001
0000
1000
0000
0100
0000
0010
0100
0000
1000
0000
,  // measure 40
0001
0000
0100
0000
0010
1000
0001
0010
,  // measure 41
0100
0000
1000
0001
0000
1000
0000
0010
0000
0100
0001
0000
1000
0000
0100
0000
,  // measure 42
0010
0000
0000
0010
0100
0000
0100
1000
0000
0001
0000
0000
0110
0000
0110
0000
,  // measure 43
0110
0000
0000
0000
0001
1000
0000
0010
0000
0000
0100
0000
0010
0000
1000
0000
,  // measure 44
0001
0000
0000
0000
1001
0000
0000
0000
0100
0000
1000
0000
0010
0000
1000
0001
;
