#TITLE:Stars;
#SUBTITLE:(Almighty Mix);
#ARTIST:Roxette;
#TITLETRANSLIT:;
#SUBTITLETRANSLIT:;
#ARTISTTRANSLIT:;
#GENRE:;
#CREDIT:;
#MENUCOLOR:;
#METERTYPE:DDR;
#BANNER:Stars (Almighty Mix)-bn.png;
#BACKGROUND:Stars (Almighty Mix)-bg.png;
#LYRICSPATH:Stars (Almighty Mix).lrc;
#CDTITLE:ddrencorecdtitle.png;
#MUSIC:Stars (Almighty Mix).mp3;
#OFFSET:-0.019;
#SAMPLESTART:41.866;
#SAMPLELENGTH:15.448;
#SELECTABLE:YES;
#LISTSORT:;
#BPMS:0.000=134.000,160.000=134.004,228.000=134.000;
#STOPS:;
#BGCHANGES:-12.000=starsalmightycut_xvid.avi=1.000=0=0=1,
247.000=Stars (Almighty Mix)-bg.png=1.000=0=0=1,
99999=-nosongbg-=1.000=0=0=0 // don't automatically add -songbackground-
;
#ATTACKS:;

//---------------dance-single - ----------------
#NOTES:
     dance-single:
     :
     Beginner:
     1:
     0.111,0.167,0.099,0.018,0.000:
0000
0000
0000
0000
,
0000
0000
0000
0000
,
0000
0000
0000
0000
,
0000
0000
0000
0000
,
1000
0000
1000
0000
,
0001
0000
0001
0000
,
1000
0000
0001
0000
,
1001
0000
0000
0000
,
0001
0000
0000
0000
,
0001
0000
0000
0000
,
1000
0000
0100
0000
,
1001
0000
0000
0000
,
1000
0000
0000
0000
,
1000
0000
0000
0000
,
0001
0000
0100
0000
,
1001
0000
0000
0000
,
1000
0000
0001
0000
,
0100
0000
0100
0000
,
0001
0000
0000
0000
,
1000
0000
0000
0000
,
0001
0000
1000
0000
,
0100
0000
0100
0000
,
1000
0000
0000
0000
,
0001
0000
0000
0000
,
0110
0000
0000
0000
,
1001
0000
0000
0000
,
0001
0000
0010
0000
,
0100
0000
0000
0000
,
1001
0000
0000
0000
,
0110
0000
0000
0000
,
1000
0000
0010
0000
,
0100
0000
0000
0000
,
0001
0000
0000
0000
,
0001
0000
0000
0000
,
1000
0000
0010
0000
,
1001
0000
0000
0000
,
1000
0000
0000
0000
,
1000
0000
0000
0000
,
0001
0000
0010
0000
,
1001
0000
0000
0000
,
1000
0000
0000
0000
,
1000
0000
0000
0000
,
0001
0000
0000
0000
,
0001
0000
0000
0000
,
0100
0000
0000
0000
,
0100
0000
0000
0000
,
0010
0000
0010
0000
,
0010
0000
1000
0000
,
0001
0000
0000
0000
,
0001
0000
0000
0000
,
1000
0000
0000
0000
,
1000
0000
0000
0000
,
0100
0000
0000
0000
,
0100
0000
0000
0000
,
0010
0000
0010
0000
,
0010
0000
0000
0000
,
0000
0000
0000
0000
,
0001
0000
0000
0000
,
0100
0000
0000
0000
,
0010
0000
0000
0000
,
1001
0000
0000
0000
,
2002
0000
0000
3003
;

//---------------dance-single - ----------------
#NOTES:
     dance-single:
     :
     Easy:
     2:
     0.199,0.250,0.072,0.135,0.000:
0000
0000
0000
0000
,
0000
0000
0000
0000
,
0000
0000
0000
0000
,
0000
0000
0000
0000
,
1000
0000
1000
0000
,
0001
0000
0001
0000
,
0010
0000
0001
0000
,
1000
0100
1000
0001
,
0100
0000
0100
0000
,
0010
0000
0010
0000
,
2000
0000
3001
0000
,
0002
0000
0103
0000
,
0010
0000
0010
0000
,
0100
0000
0100
0000
,
0002
0000
1003
0000
,
2000
0000
3100
0000
,
1000
0100
0010
0000
,
0001
0000
0001
0000
,
1000
0000
1000
0000
,
0001
0000
0001
0000
,
0010
0001
0100
0000
,
0001
0000
0001
0000
,
1000
0000
1000
0000
,
0001
0000
0001
0100
,
0010
0000
0010
1000
,
0001
0000
0010
0000
,
0001
0100
0001
1000
,
0100
0000
0010
0001
,
0100
0000
0100
0010
,
1000
0000
0001
0000
,
1000
0100
1000
0001
,
0010
0000
0000
0000
,
0001
0000
0001
0000
,
1000
0000
1000
0000
,
0020
0000
0130
0000
,
0200
0000
0301
0000
,
1000
0000
1000
0000
,
0001
0000
0001
0000
,
0020
0000
0130
0000
,
0200
0000
1300
0000
,
1001
0000
0010
0000
,
0100
0000
0001
1000
,
0100
0000
0010
0000
,
0100
0000
1000
0001
,
0010
0000
0001
0000
,
0100
0000
0010
1000
,
1001
0000
1001
0000
,
1001
0000
0010
1000
,
0001
0000
0100
0000
,
0020
0000
1030
0001
,
0100
0000
0001
0000
,
2000
0000
3100
0010
,
0001
0000
1000
0000
,
0002
0000
0103
0001
,
1001
0000
1001
0000
,
2002
0000
3003
0000
,
0000
0000
0000
0000
,
0001
0000
0001
0000
,
1000
0000
1000
0000
,
0010
0000
0010
0000
,
1000
0100
0010
0001
,
2002
0000
0000
3003
;

//---------------dance-single - ----------------
#NOTES:
     dance-single:
     :
     Medium:
     4:
     0.300,0.361,0.171,0.234,0.000:
0000
0000
0000
0000
,
0000
0000
0000
0000
,
0000
0000
0000
0000
,
0000
0000
0000
0000
,
1000
0001
1000
0001
,
0100
0010
0100
0010
,
1000
0100
0010
0001
,
0101
0101
1001
0110
,
1000
0100
1000
0010
,
1000
0001
1000
0010
,
0100
0001
0100
1001
,
0010
0000
0000
0100
0001
1000
0000
0000
,
0001
0010
0001
0100
,
0001
1000
0001
0010
,
0100
1000
0100
1001
,
0010
0000
0000
0100
1000
0001
0000
0000
,
1000
0010
0100
0001
,
1000
0001
0010
0000
,
0001
0100
0010
0000
,
1000
0100
0010
0000
,
0001
0100
0010
1000
,
0001
1000
0010
0000
,
0100
0001
0010
0000
,
0100
1000
0001
0100
,
0020
0000
1030
0001
,
0200
0000
0310
1000
,
0001
0010
0100
0010
,
0001
1000
0010
0100
,
0002
0000
0013
0100
,
2000
0000
3010
1000
,
0001
0100
0010
1000
,
0001
0000
0010
0000
,
0001
0100
0001
0010
,
0001
1000
0001
0100
,
0010
1000
0010
1001
,
0100
0000
0000
0010
1000
0001
0000
0000
,
1000
0010
1000
0100
,
1000
0001
1000
0100
,
0010
0001
0010
1001
,
0100
0000
0000
0010
0001
1000
0000
0000
,
2000
0000
0000
0000
3200
0000
0000
0020
,
0300
0000
0000
0030
0001
0000
0100
0000
,
0002
0000
0000
0000
0023
0000
0000
0200
,
0030
0000
0000
0300
1000
0000
0001
0000
,
2000
0000
0000
0000
3020
0000
0000
0200
,
0030
0000
0000
0300
0001
0000
1000
0000
,
1001
0000
0110
0000
,
1001
0000
0100
1000
,
0002
0000
0000
0000
0203
0000
0000
2000
,
0300
0000
0000
3000
0100
0000
0001
0000
,
2000
0000
0000
0000
3200
0000
0000
0002
,
0300
0000
0000
0003
0100
0000
1000
0000
,
0020
0000
0000
0000
2030
0000
0000
0002
,
3000
0000
0000
0003
0010
0000
0001
0000
,
0101
0000
1010
0000
,
2002
0000
3003
0000
,
0000
0000
0000
0000
,
0001
0100
0001
0001
,
0010
0100
1000
1000
,
0010
1000
0001
0001
,
1100
1100
0011
0110
,
2002
0000
0000
3003
;

//---------------dance-single - ----------------
#NOTES:
     dance-single:
     :
     Hard:
     6:
     0.363,0.445,0.234,0.234,0.126:
0000
0000
0000
0000
,
0000
0000
0000
0000
,
0000
0000
0000
0000
,
0000
0000
0000
0000
,
0001
1000
0001
1000
,
0010
0100
0010
0100
,
0001
0010
0100
1000
,
0101
0101
1100
1100
,
0001
0000
0000
0001
0100
0000
0000
0100
0010
0000
0000
0010
1000
0000
0000
1000
,
0001
0000
0000
0001
0010
0000
0000
0010
0001
0000
0000
0001
1000
0000
0000
0000
,
0010
0100
0010
1001
,
0100
0000
0001
0010
0001
1000
0000
0000
,
1000
0000
0000
1000
0010
0000
0000
0010
0100
0000
0000
0100
0001
0000
0000
0001
,
1000
0000
0000
1000
0100
0000
0000
0100
1000
0000
0000
1000
0001
0000
0000
0000
,
0100
0010
0100
1001
,
0010
0000
1000
0100
1000
0001
0000
0001
,
0100
0000
0010
0000
1000
0100
0010
0000
,
0001
1000
0200
0000
,
1300
0001
0020
0000
,
0031
0000
0000
0100
0001
1000
0000
1000
,
0100
0000
0010
0000
0001
0100
0010
0000
,
1000
0001
0200
0000
,
0301
1000
0020
0000
,
1030
0001
1000
0100
,
1100
0000
0001
0100
,
0101
0000
0000
0000
0001
1000
0100
0000
,
0010
0001
0100
0010
,
1000
0000
0001
0010
,
0011
0000
1000
0010
,
1010
0000
0000
0000
1000
0001
0100
0000
,
0001
0010
0100
1000
,
0001
0000
0010
0000
,
1000
0000
0000
1000
0100
0000
0000
0100
1000
0000
0000
1000
0001
0000
0000
0001
,
0010
0000
0000
0010
0001
0000
0000
0001
0100
0000
0000
0100
0010
0000
0000
0000
,
1000
0001
0100
1001
,
0100
0000
1000
0100
1000
0001
0000
0000
,
0001
0000
0000
0001
0100
0000
0000
0100
0001
0000
0000
0001
1000
0000
0000
1000
,
0100
0000
0000
0100
1000
0000
0000
1000
0010
0000
0000
0010
0100
0000
0000
0000
,
0001
1000
0100
1001
,
0010
0000
0001
0100
0001
1000
0000
0000
,
0002
0000
0000
0000
2003
0000
0000
0200
,
3000
0000
0000
0300
1000
0000
0100
0000
,
2000
0000
0000
0000
3020
0000
0000
0200
,
0030
0000
0000
0300
0001
0000
0100
0000
,
0002
0000
0000
0000
2003
0000
0000
0200
,
3000
0000
0000
0300
0010
0000
0001
0000
,
1100
0000
0101
0000
,
1001
0000
0100
0001
,
0021
0000
0000
0000
0032
0000
0000
2000
,
0003
0000
0010
3000
0100
0000
0001
0000
,
0102
0000
0000
0000
0203
0000
0000
0020
,
0300
0000
0100
0030
0001
0000
1000
0000
,
2001
0000
0000
0000
3002
0000
0000
0200
,
0003
0000
0001
0300
1000
0000
0010
0000
,
1010
0000
0101
0000
,
2002
0000
3003
0000
,
1000
0000
0000
0000
,
0010
1000
0100
0100
,
0010
0001
1000
1000
,
0001
0100
0001
0001
,
1100
1100
0101
0101
,
2002
0000
0000
3003
;

//---------------dance-single - ----------------
#NOTES:
     dance-single:
     :
     Challenge:
     9:
     0.575,0.556,0.207,0.198,0.324: // measure 1
0000
0000
0000
0000
,  // measure 2
0000
0000
0000
0000
,  // measure 3
0000
0000
0000
0000
,  // measure 4
0000
0000
0000
0000
,  // measure 5
0001
0000
0100
0000
0001
0010
0100
0000
,  // measure 6
1000
0000
0010
0000
1000
0100
0010
0000
,  // measure 7
0001
0000
1000
0000
0001
0100
1000
0000
,  // measure 8
0101
1100
0101
1100
,  // measure 9
0001
0000
0000
0001
0010
0000
0000
0010
1000
0000
0000
1000
0100
0000
0000
0100
,  // measure 10
1000
0000
0000
1000
0010
0000
0000
0010
0001
0000
0000
0001
0100
0000
0000
0000
,  // measure 11
0001
0000
1000
0000
0100
0000
1000
0010
0000
0100
0000
0100
0001
0000
1000
0000
,  // measure 12
0100
0000
0000
0000
1001
0000
1000
0001
1000
0000
0020
0000
0000
0000
0000
0000
,  // measure 13
1030
0000
0000
1000
0100
0000
0000
0100
0001
0000
0000
0001
0010
0000
0000
0010
,  // measure 14
0001
0000
0000
0001
0100
0000
0000
0100
1000
0000
0000
1000
0010
0000
0000
0000
,  // measure 15
1000
0001
0000
0001
0100
0000
0001
0000
0000
0010
0000
0010
0100
0000
1000
0000
,  // measure 16
0010
0000
0000
0000
1001
0000
1000
0001
1000
0000
0020
0000
0000
0000
0100
0000
,  // measure 17
0130
0000
0001
1000
0100
0001
0100
1000
,  // measure 18
0010
0100
1000
0200
0000
0001
0301
0000
,  // measure 19
0010
0100
0001
0200
0000
1000
1300
0000
,  // measure 20
0001
0000
0100
0000
1000
0000
0100
0001
0100
0000
0002
0000
0000
0000
0100
0000
,  // measure 21
0103
0000
1000
0001
0010
1000
0010
0001
,  // measure 22
0100
0010
0001
0020
0000
1000
1030
0000
,  // measure 23
0100
0010
1000
0020
0000
0001
0031
0000
,  // measure 24
1000
0100
0001
0100
1000
0010
0100
0001
,  // measure 25
1001
0000
0010
1000
0100
0010
0001
1100
,  // measure 26
0000
0101
0000
0010
1000
0001
0010
0200
,  // measure 27
0010
0000
1300
0020
1000
0000
0130
0101
,  // measure 28
0000
1010
0000
0100
0001
1000
0100
0010
,  // measure 29
1001
0000
0010
0001
0100
0010
1000
0100
,  // measure 30
0010
0000
0100
1000
0010
0100
0010
2000
,  // measure 31
0010
0000
3001
0020
0001
0000
0130
1100
,  // measure 32
0000
0011
0000
0000
0001
0000
1000
0000
,  // measure 33
0001
0000
0000
0001
0100
0000
0000
0100
1000
0000
0000
1000
0010
0000
0000
0010
,  // measure 34
1000
0000
0000
1000
0100
0000
0000
0100
0001
0000
0000
0001
0010
0000
0000
0000
,  // measure 35
0100
0000
1000
0000
0001
0000
0100
0010
0000
1000
0000
1000
0001
0000
0010
0000
,  // measure 36
0100
0000
0000
0000
1001
0000
1000
0001
1000
0000
0200
0000
0000
0000
0000
0000
,  // measure 37
1300
0000
0000
1000
0010
0000
0000
0010
0001
0000
0000
0001
0100
0000
0000
0100
,  // measure 38
0001
0000
0000
0001
0010
0000
0000
0010
1000
0000
0000
1000
0100
0000
0000
0000
,  // measure 39
0010
0001
0000
0001
1000
0000
0010
0000
0000
0100
0000
0100
0001
0000
1000
0000
,  // measure 40
0010
0000
0000
0000
1001
0000
0001
1000
0001
0000
0020
0000
0000
0000
0000
0000
,  // measure 41
0031
0100
0010
1000
0100
0010
1000
0010
,  // measure 42
0001
0000
0100
0000
0010
0000
1000
0000
0001
0000
0100
0010
0100
0010
0100
0010
,  // measure 43
1000
0100
0010
0001
0100
0010
0001
0010
,  // measure 44
1000
0000
0100
0000
0010
0000
0001
0000
1000
0000
0010
0100
0010
0100
0010
0100
,  // measure 45
0001
0010
1000
0010
0100
1000
0010
0001
,  // measure 46
0010
0000
1000
0000
0100
0000
0010
0000
0001
0000
1000
0100
1000
0100
1000
0100
,  // measure 47
0020
1000
0230
0001
,  // measure 48
2300
0000
0000
0000
0010
0000
0000
0000
3001
0000
0000
0001
1000
0000
0010
0000
,  // measure 49
1000
0100
0001
0100
0010
0001
1000
0010
,  // measure 50
0100
0000
0001
0000
0100
0000
0010
0000
1000
0000
0100
0010
0100
0010
0100
0010
,  // measure 51
0001
0100
1000
0100
0010
1000
0001
0100
,  // measure 52
0010
0000
1000
0000
0010
0000
0100
0000
0001
0000
0010
0100
0010
0100
0010
0100
,  // measure 53
1000
0010
0001
0010
1000
0100
0001
0100
,  // measure 54
1000
0010
0100
0001
1000
0000
1001
0000
,  // measure 55
0200
0001
0320
1000
,  // measure 56
0031
0000
0000
0010
0100
0000
0000
1000
0010
0000
0000
0100
0001
0000
0000
0000
,  // measure 57
2002
0000
0000
3003
,  // measure 58
1000
0000
0100
0000
1000
0000
0010
0100
0000
0100
0001
0000
1000
0000
0000
0000
,  // measure 59
0001
0000
0100
0000
0001
0000
0010
0100
0000
0100
1000
0000
0001
0000
0000
0000
,  // measure 60
0010
0000
0001
0000
0100
0000
0010
1000
0000
1000
0001
0000
0100
0000
0000
0000
,  // measure 61
1010
0011
1010
0011
,  // measure 62
2002
0000
0000
3003
;

//---------------dance-double - ----------------
#NOTES:
     dance-double:
     :
     Easy:
     3:
     0.213,0.222,0.117,0.090,0.000:
00000000
00000000
00000000
00000000
,
00000000
00000000
00000000
00000000
,
00000000
00000000
00000000
00000000
,
00000000
00000000
00000000
00000000
,
00010000
00000000
01000000
00000000
,
00010000
00000000
10000000
00000000
,
01000000
00000000
00100000
00000000
,
00001000
00001000
00010000
00010000
,
00000100
00000000
00000010
00000000
,
00000001
00000000
00001000
00000000
,
00000010
00001000
00000001
00000100
,
00000010
00000000
00001001
00000000
,
00000010
00000000
00010000
00000000
,
00001000
00000000
01000000
00000000
,
00100000
10000000
00010000
01000000
,
00100000
00000000
10010000
00000000
,
10000000
01000000
00100000
00000000
,
00010000
00000000
00010000
00000000
,
01000000
00000000
01000000
00000000
,
00001000
00000000
00001000
00000000
,
00010000
00000100
00001000
00000000
,
00000001
00000000
00000001
00000000
,
00001000
00000000
00001000
00000000
,
00000010
00000000
00000010
00000100
,
00000001
00000000
00001000
00000100
,
00000010
00000000
00000001
00001000
,
00000100
00010000
00001000
01000000
,
00010000
00000000
10000000
01000000
,
00100000
00000000
00010000
01000000
,
00100000
00000000
10000000
01000000
,
00100000
00001000
00010000
00000100
,
00000010
00000000
00000001
00000000
,
00001000
00000000
00000010
00000000
,
00000100
00000000
00000001
00000000
,
00001000
00000100
00000010
00000100
,
00010000
00000000
00011000
00000000
,
00001000
00000000
01000000
00000000
,
00100000
00000000
10000000
00000000
,
00010000
00100000
01000000
00100000
,
00001000
00000000
00011000
00000000
,
00010000
00000000
00000100
00000000
,
00002100
00000000
00003010
00000100
,
00000001
00000000
00000010
00000000
,
00001200
00000000
00001300
00000010
,
00010000
00000000
00001000
00000000
,
02010000
00000000
03010000
10000000
,
01000000
00000000
00100000
00000000
,
10010000
00000000
00100000
00010000
,
10000000
00000000
00100000
00000000
,
02100000
00000000
03010000
00100000
,
00001000
00000000
00010000
00000000
,
00001200
00000000
00001300
00000001
,
00000100
00000000
00000010
00000000
,
00021000
00000000
00031000
01000000
,
00010000
00000000
00100000
00000000
,
20020000
00000000
30030000
00000000
,
00000000
00000000
00000000
00000000
,
00010000
00000000
00100000
00000000
,
00001000
00000000
00010000
00000000
,
00000010
00000000
00000100
00000000
,
00000001
00000010
00000100
00001000
,
00002002
00000000
00000000
00003003
;

//---------------dance-double - ----------------
#NOTES:
     dance-double:
     :
     Medium:
     5:
     0.314,0.361,0.234,0.234,0.000:
00000000
00000000
00000000
00000000
,
00000000
00000000
00000000
00000000
,
00000000
00000000
00000000
00000000
,
00000000
00000000
00000000
00000000
,
00001000
00000010
00000100
00000001
,
00001000
00000100
00000010
00000001
,
00001000
00000010
00010000
00001000
,
00011000
00011000
01001000
01010000
,
00010000
00100000
10000000
00100000
,
00010000
01000000
10000000
01000000
,
00010000
00100000
00001000
00010000
,
00011000
00000000
00000000
00010000
00000100
00001000
00000000
00000000
,
00001000
00000010
00000001
00000010
,
00001000
00000100
00000001
00000100
,
00001000
00000010
00010000
00001000
,
00011000
00000000
00000000
00001000
01000000
00010000
00000000
00000000
,
00100000
00010000
01000000
00100000
,
10000000
01000000
00200000
00000000
,
00310000
01000000
00002000
00000000
,
00013000
00000000
00000000
00010000
00001000
00010000
00000000
00000000
,
00001000
01000000
00100000
10000000
,
01000000
00100000
00002000
00000000
,
00013000
00000010
00002000
00000000
,
00003001
00000010
00000100
00001000
,
00001001
00000000
00000010
00000001
,
00001001
00000000
00000001
00000100
,
00000010
00010000
00001000
01000000
,
00100000
10000000
00010000
00100000
,
10010000
00000000
10000000
01000000
,
10010000
00000000
10000000
01000000
,
00100000
00001000
00010000
00000100
,
00001000
00000000
00000001
00000000
,
00001000
00000010
00000001
00000010
,
00001000
00000100
00000001
00000100
,
00001000
00000010
00010000
00001000
,
00011000
00000000
00000000
00001000
00100000
00010000
00000000
00000000
,
00010000
00100000
10000000
00100000
,
00010000
01000000
10000000
01000000
,
00010000
00100000
00001000
00010000
,
00011000
00000000
00000000
00010000
00001000
00010000
00000000
00000000
,
00000200
00000000
00000000
00000000
00002300
00000000
00000000
00000020
,
00003000
00000000
00000000
00000030
00000100
00000000
00000001
00000000
,
00002000
00000000
00000000
00000000
00003200
00000000
00000000
00020000
,
00000300
00000000
00000000
00030000
00001000
00000000
00001000
00000000
,
00200000
00000000
00000000
00000000
00320000
00000000
00000000
02000000
,
00030000
00000000
00000000
03000000
00100000
00000000
10000000
00000000
,
10100000
00000000
01010000
00000000
,
00011000
00000000
00001000
00100000
,
00120000
00000000
00000000
00000000
02030000
00000000
00000000
20000000
,
03000000
00000000
00000000
30000000
01000000
00000000
00010000
00000000
,
00210000
00000000
00000000
00000000
00302000
00000000
00000000
00020000
,
00003000
00000000
00000000
00030000
00000100
00000000
00001000
00000000
,
00002010
00000000
00000000
00000000
00003200
00000000
00000000
00000002
,
00000300
00000000
00000000
00000003
00000100
00000000
00001000
00000000
,
00001001
00000000
00001100
00000000
,
00022000
00000000
00033000
00000000
,
00000000
00000000
00000000
00000000
,
00001000
00000000
00100000
00000000
00010000
01000000
00010000
00000000
,
10000000
00000000
01000000
00000000
00100000
01000000
00100000
00000000
,
00001000
00000000
00010000
00000000
00000100
00001000
00000100
00000000
,
00001100
00001100
00000110
00000011
,
00002002
00000000
00000000
00003003
;

//---------------dance-double - ----------------
#NOTES:
     dance-double:
     :
     Hard:
     6:
     0.357,0.417,0.189,0.234,0.108:
00000000
00000000
00000000
00000000
,
00000000
00000000
00000000
00000000
,
00000000
00000000
00000000
00000000
,
00000000
00000000
00000000
00000000
,
10000000
01000000
10000000
10000000
,
00010000
00100000
00010000
00010000
,
01000000
00001000
00010000
00010000
,
00011000
00010100
00011000
01001000
,
00010000
00000000
00000000
00010000
00100000
00000000
00000000
00100000
01000000
00000000
00000000
01000000
10000000
00000000
00000000
00000000
,
10000000
00000000
00000000
10000000
00010000
00000000
00000000
00010000
00100000
00000000
00000000
00100000
00001000
00000000
00000000
00000000
,
00010000
01000000
00010000
00001000
,
00000010
00000000
00000001
00000100
00000010
00001000
00000000
00000000
,
00001000
00000000
00000000
00001000
00000100
00000000
00000000
00000100
00000010
00000000
00000000
00000010
00000001
00000000
00000000
00000000
,
00000001
00000000
00000000
00000001
00001000
00000000
00000000
00001000
00000010
00000000
00000000
00000010
00010000
00000000
00000000
00000000
,
00001000
00000010
00001000
00010000
,
01000000
00000000
10000000
00100000
01000000
00010000
00000000
00010000
,
10000000
00000000
01000000
00000000
10000000
00100000
01000000
00000000
,
00010000
00100000
00000000
00002000
00000000
00000000
00000000
00000000
,
00013000
00000100
00000000
00002000
00000000
00000000
00000000
00000000
,
00003010
00000100
00000000
00000100
00000001
00001000
00000000
00001000
,
00000001
00000000
00000010
00000000
00000001
00000100
00000010
00000000
,
00001000
00000100
00000000
00020000
00000000
00000000
00000000
00000000
,
00031000
01000000
00000000
00020000
00000000
00000000
00000000
00000000
,
00130000
00000000
00010000
00000000
10000000
01000000
00100000
00000000
,
10010000
00000000
00100000
00001000
,
00011000
00000000
00000000
00000000
00010000
00000100
00001000
00000000
,
00000010
00000000
00000010
00000100
00000000
00000000
00000100
00000001
,
00000000
00001000
00000000
00000001
00000100
00000001
00000010
00000000
,
00001001
00000000
00000100
00010000
,
00011000
00000000
00000000
00000000
00001000
00010000
00001000
01000000
,
00000000
00000000
01000000
00010000
00000000
00000000
00010000
10000000
,
00000000
01000000
00000000
00000000
00100000
00000000
00010000
00000000
,
10000000
00000000
00000000
10000000
00100000
00000000
00000000
00100000
01000000
00000000
00000000
01000000
00010000
00000000
00000000
00000000
,
00010000
00000000
00000000
00010000
00100000
00000000
00000000
00100000
00001000
00000000
00000000
00001000
00010000
00000000
00000000
00000000
,
00000010
00000100
00001000
00000100
,
00001001
00000000
00000000
00000010
00001000
00000100
00000000
00000000
,
00001000
00000000
00000000
00001000
00000010
00000000
00000000
00000010
00000100
00000000
00000000
00000100
00000001
00000000
00000000
00000000
,
00000001
00000000
00000000
00000001
00000010
00000000
00000000
00000010
00000100
00000000
00000000
00000100
00001000
00000000
00000000
00000000
,
00000010
00010000
00001000
00100000
,
00011000
00000000
00000000
00100000
00010000
10000000
00000000
00000000
,
00200000
00000000
00000000
00000000
02300000
00000000
00000000
00020000
,
03000000
00000000
00000000
00030000
10000000
00000000
01000000
00000000
,
00200000
00000000
00000000
00000000
00302000
00000000
00000000
00020000
,
00003000
00000000
00000000
00030000
00000010
00000000
00001000
00000000
,
00000200
00000000
00000000
00000000
00000320
00000000
00000000
00000002
,
00000030
00000000
00000000
00000003
00001000
00000000
00000010
00000000
,
00000101
00000000
00001100
00000000
,
00011000
00000000
00000000
00000000
00010000
00000000
00001000
02000000
,
00000000
00000000
00000000
03000000
00020000
00000000
00000000
20000000
,
00030000
00000000
00000000
30000000
10000000
00000000
00010000
00200000
,
00000000
00000000
00000000
00300000
00002000
00000000
00000000
00020000
,
00003000
00000000
00000000
00030000
00010000
00000000
00000010
00000200
,
00000000
00000000
00000000
00000300
00000002
00000000
00000000
00002000
,
00000003
00000000
00000000
00003000
00000100
00000000
00000010
00000000
,
00000110
00000000
00011000
00000000
,
02200000
00000000
03300000
00000000
,
00010000
00000000
00000000
00000000
,
10000000
00000000
01000000
00000000
00100000
00010000
01000000
00000000
,
00100000
00000000
10000000
00000000
00010000
01000000
00001000
00000000
,
00010000
00000000
00000010
00000000
00010000
00001000
00010000
00000000
,
00011000
00101000
00011000
00010010
,
00002002
00000000
00000000
00003003
;

//---------------dance-double - ----------------
#NOTES:
     dance-double:
     :
     Challenge:
     8:
     0.531,0.556,0.306,0.117,0.248:
00000000
00000000
00000000
00000000
,
00000000
00000000
00000000
00000000
,
00000000
00000000
00000000
00000000
,
00000000
00000000
00000000
00000000
,
00000001
00000000
00000010
00000000
00000001
00000100
00000010
00000000
,
00001000
00000000
00000100
00000000
00000010
00000100
00001000
00000000
,
00000010
00000000
00010000
00000000
00001000
01000000
00010000
00000000
,
00110000
11000000
01010000
00011000
,
00010000
00000000
00000000
00010000
00000100
00000000
00000000
00000100
00000010
00000000
00000000
00000010
00001000
00000000
00000000
00001000
,
00010000
00000000
00000000
00010000
01000000
00000000
00000000
01000000
00100000
00000000
00000000
00100000
00010000
00000000
00000000
00000000
,
10000000
01000000
00000000
00000000
00100000
00000000
00100000
00000000
00010000
01000000
00000000
00000000
00001000
00000000
00001000
00000000
,
00010000
00000000
00000000
00000000
00001010
00000000
00000100
00000001
00000100
00000000
00000020
00000000
00000000
00000000
00000000
00000000
,
00010030
00000000
00000000
00010000
00000010
00000000
00000000
00000010
00000100
00000000
00000000
00000100
00001000
00000000
00000000
00001000
,
00010000
00000000
00000000
00010000
00100000
00000000
00000000
00100000
10000000
00000000
00000000
10000000
00010000
00000000
00000000
00000000
,
01000000
00010000
00000000
00010000
00100000
00000000
01000000
00000000
10000000
00100000
00000000
01000000
00010000
00000000
00100000
00000000
,
00000000
00000000
00000000
00000000
01010000
00000000
00100000
10000000
00100000
00000000
02000000
00000000
00000000
00000000
00010000
00000000
,
03010000
00000000
10100000
00000000
10000000
01000000
00010000
01000000
,
00100000
00001000
00000000
00011000
00000000
00010000
00000010
00000000
,
00000100
00000001
00000000
00001100
00000000
00000010
00000100
00000000
,
00000100
00000000
00010000
00000000
00000000
00000000
00010000
00001000
00010000
00000000
00000200
00000000
00000000
00000000
00001000
00000000
,
00001300
00000000
00000011
00000000
00000001
00000100
00001000
00000100
,
00000010
00010000
00000000
00011000
00000000
00001000
00100000
00000000
,
01000000
10000000
00000000
01010000
00000000
00000000
10010000
00000000
,
00100000
10000000
00000000
10000000
00010000
00100000
00001000
00010000
,
00011000
00000000
00010000
00000010
00000100
00000001
00000010
00001100
,
00000000
00000011
00000000
00000000
00000001
00001000
00000010
00020000
,
00000000
00000000
00031000
02000000
00000000
00000000
03010000
10000000
,
00000000
01010000
00000000
00100000
10000000
00010000
01000000
00001000
,
00011000
00000000
00001000
01000000
00100000
10000000
01000000
00100000
,
00010000
00000000
01000000
00100000
10000000
00010000
00100000
00002000
,
00000000
00000000
00013000
00000200
00000000
00000000
00001300
00000001
,
00000000
00001001
00000000
00000000
00000010
00000000
00010000
00000000
,
00001000
00000000
00000000
00001000
00100000
00000000
00000000
00100000
01000000
00000000
00000000
01000000
00010000
00000000
00000000
00010000
,
00001000
00000000
00000000
00001000
00000010
00000000
00000000
00000010
00000100
00000000
00000000
00000100
00001000
00000000
00000000
00000000
,
00000001
00000010
00000000
00000000
00000100
00000000
00000100
00000000
00001000
00000010
00000000
00000000
00010000
00000000
00010000
00000000
,
00001000
00000000
00000000
00000000
00110000
00000000
01000000
10000000
01000000
00000000
00200000
00000000
00000000
00000000
00000000
00000000
,
00301000
00000000
00000000
00001000
01000000
00000000
00000000
01000000
00100000
00000000
00000000
00100000
00010000
00000000
00000000
00010000
,
00001000
00000000
00000000
00001000
00000100
00000000
00000000
00000100
00000001
00000000
00000000
00000001
00001000
00000000
00000000
00000000
,
00000010
00001000
00000000
00001000
00000100
00000000
00000010
00000000
00000001
00000100
00000000
00000010
00001000
00000000
00000100
00000000
,
00000000
00000000
00000000
00000000
00001001
00000000
00000010
00000001
00000010
00000000
00000200
00000000
00000000
00000000
00000000
00000000
,
00001300
00000000
00000010
00000100
00000001
00001000
00000010
00010000
,
00001000
00000000
00100000
00010000
01000000
01000000
00100000
00100000
,
10000000
00000000
01000000
10000000
00010000
00100000
00001000
01000000
,
00010000
00000000
00100000
00010000
01000000
01000000
00001000
00001000
,
00010000
00000000
00000010
00001000
00000100
00000010
00000001
00001000
,
00000010
00000000
00000100
00000001
00001000
00001000
00000010
00000010
,
00000101
00000010
00011000
00001000
,
01010000
00100000
10010000
01100000
,
10000000
01000000
00010000
01000000
10000000
00100000
01000000
00010000
,
00100000
00000000
00001000
00000000
00010000
00000000
00000010
00000000
00001000
00000000
00000100
00000010
00000100
00000010
00000100
00000010
,
00000001
00001000
00000010
00010000
00001000
01000000
00010000
00100000
,
01000000
00000000
10000000
00000000
01000000
00000000
00100000
00000000
00010000
00000000
01000000
00100000
01000000
00100000
01000000
00100000
,
10000000
01000000
00100000
00001000
00010000
00000100
00000010
00000001
,
00000100
00000010
00001000
00000100
00010000
00001000
01000000
00000000
,
00011000
00000000
00000000
00000000
00000000
00000000
00000000
00000000
10010000
00000000
00000000
00000000
00000000
00000000
00000000
00010000
,
01000000
00000000
00000000
00100000
10000000
00000000
00000000
01000000
00100000
00000000
00000000
00001000
00010000
00000000
00000000
00000000
,
00022000
00000000
00000000
00033000
,
00010000
00000100
00000010
00000001
00000100
00001000
00000100
00000000
,
00000001
00000010
00000100
00010000
00001000
00000010
00001000
00000000
,
00010000
00001000
01000000
00010000
00100000
10000000
00100000
00000000
,
00110000
00011000
00001100
00010100
,
00002002
00000000
00000000
00003003
;
