#TITLE:Starry Eyed;
#SUBTITLE:;
#ARTIST:Ellie Goulding;
#TITLETRANSLIT:;
#SUBTITLETRANSLIT:;
#ARTISTTRANSLIT:;
#GENRE:;
#CREDIT:;
#MENUCOLOR:;
#METERTYPE:DDR;
#BANNER:Starry Eyed-bn.png;
#BACKGROUND:Starry Eyed-bg.png;
#LYRICSPATH:;
#CDTITLE:;
#MUSIC:Starry Eyed.mp3;
#OFFSET:0.003;
#SAMPLESTART:36.803;
#SAMPLELENGTH:13.220;
#SELECTABLE:YES;
#LISTSORT:;
#BPMS:0.000=150.000;
#STOPS:224.000=1.200
;
#BGCHANGES:0.000=Starry Eyed-video.avi=1.000=1=0=0,
286.000=Starry Eyed-bg.png=1.000=0=0=1,
99999=-nosongbg-=1.000=0=0=0 // don't automatically add -songbackground-
;
#ATTACKS:;

//---------------dance-single - [Ness]----------------
#NOTES:
     dance-single:
     [Ness]:
     Hard:
     7:
     0.430,0.484,0.276,0.267,0.009: // measure 1
0000
0000
0000
0000
,  // measure 2
0000
0000
0000
0000
,  // measure 3
0000
0000
0000
0000
,  // measure 4
0000
0000
0000
0000
,  // measure 5
0010
1000
0100
0100
,  // measure 6
0010
0001
0100
0100
,  // measure 7
0010
1000
0001
0001
,  // measure 8
0010
0001
1000
1000
,  // measure 9
0100
0100
0100
0100
,  // measure 10
0100
0000
0100
0010
0001
0100
0010
0000
,  // measure 11
1000
0001
0201
1000
,  // measure 12
0301
0000
1000
0000
0001
0010
0001
0010
,  // measure 13
0100
1001
0100
1001
,  // measure 14
1000
0001
1000
0000
0010
0000
0110
0000
,  // measure 15
0100
0010
1020
0001
,  // measure 16
1030
0000
0001
0000
1000
0010
1000
0010
,  // measure 17
0100
1001
0100
1001
,  // measure 18
0001
1000
0001
0000
0010
0000
0110
0000
,  // measure 19
0100
2000
3002
0103
,  // measure 20
0020
0032
0023
1030
,  // measure 21
0001
0200
0320
2030
,  // measure 22
3100
0000
0000
0010
0000
0000
1000
0000
0020
0000
0000
0000
0032
0000
0000
0000
,  // measure 23
1003
0110
2002
0000
,  // measure 24
3003
1000
0001
1100
,  // measure 25
1001
0000
1000
0010
0100
0100
0100
0000
,  // measure 26
0001
1000
0000
0001
0100
0000
1001
0000
,  // measure 27
0010
0001
1000
0100
,  // measure 28
0010
0001
1000
0101
,  // measure 29
1001
0000
0001
0010
0100
0100
0100
0000
,  // measure 30
1000
0001
0000
1000
0100
0000
1001
0000
,  // measure 31
0010
1000
0001
0100
,  // measure 32
0020
0030
0110
1001
,  // measure 33
0110
0000
0000
1000
1000
0100
0001
0100
,  // measure 34
0000
0000
1100
0101
,  // measure 35
1100
0000
0000
0000
0000
0010
0100
0010
,  // measure 36
0000
0000
0110
1001
,  // measure 37
0110
0000
0000
0001
0001
0010
1000
0010
,  // measure 38
0001
0001
1000
1000
,  // measure 39
0010
0100
0001
1000
,  // measure 40
0200
0010
0310
0000
,  // measure 41
0001
1000
0010
0001
,  // measure 42
0020
0100
0130
0000
,  // measure 43
1000
0001
0100
1000
,  // measure 44
0200
0010
0310
1000
,  // measure 45
0001
0010
1000
0001
,  // measure 46
0200
0010
0310
0001
,  // measure 47
1000
0000
0000
0000
0010
0000
0000
0000
0100
0000
0000
0001
0000
0000
0100
0000
,  // measure 48
0002
0000
0013
0100
2000
0000
0001
0000
,  // measure 49
3100
0000
0000
0011
,  // measure 50
0000
0000
0000
0000
0010
0100
1000
0100
,  // measure 51
0000
0010
0000
0100
0010
0000
0000
0000
,  // measure 52
0000
0000
0000
0000
0001
1000
0001
1000
,  // measure 53
0100
0000
0010
0000
0001
0100
0001
0000
,  // measure 54
0000
0000
0010
0000
0100
1000
1000
0000
,  // measure 55
0001
0000
0100
0000
0010
1000
0001
0000
,  // measure 56
0010
0100
1000
0001
,  // measure 57
1000
0000
1001
0000
1000
0001
0100
0100
,  // measure 58
0100
0000
0001
0020
0000
0031
0100
0001
,  // measure 59
0000
0010
0000
1000
0000
0010
0000
0011
,  // measure 60
0000
1010
0000
0000
0001
0000
1000
0000
,  // measure 61
0101
0000
1001
0000
0001
1000
0100
0100
,  // measure 62
0100
0000
1000
0020
0000
1030
0100
0000
,  // measure 63
1001
0000
0010
0000
1000
0000
0001
1000
,  // measure 64
0001
1000
0200
0000
0310
0000
2000
0000
,  // measure 65
3010
0000
0002
0000
0013
0000
0001
0100
,  // measure 66
0000
0100
0000
0000
0010
0000
2000
0000
,  // measure 67
3010
0000
0002
0000
0013
0000
0100
0001
,  // measure 68
0000
0001
0000
0000
1000
0000
0200
0000
,  // measure 69
0310
0002
1003
0020
,  // measure 70
0130
0100
0001
0000
1000
0000
0100
0000
,  // measure 71
0010
0001
0000
0000
;

//---------------dance-single - [Ness]----------------
#NOTES:
     dance-single:
     [Ness]:
     Medium:
     5:
     0.327,0.363,0.181,0.095,0.000:
0000
0000
0000
0000
,
0000
0000
0000
0000
,
0000
0000
0000
0000
,
0000
0000
0000
0000
,
1000
0100
0010
0000
,
0001
0100
0010
0000
,
1000
0100
0010
0000
,
0001
0100
0010
0000
,
1000
0001
1000
0001
,
1000
0001
0010
0010
,
0100
1000
0001
0100
,
0010
0000
1000
0000
,
0001
0010
0100
1000
,
0001
0000
0000
0000
1000
0100
1000
0000
,
0001
0100
0010
1000
,
0001
0000
0010
0000
,
0001
0010
0100
1000
,
0001
0000
0000
0000
0100
0001
0100
0000
,
0010
1000
0200
0300
,
0010
0001
0200
0300
,
0001
0010
0100
0010
,
0100
1000
0001
1000
,
0010
0100
0220
0000
,
0330
0000
0000
1001
,
0000
0000
0010
0000
1000
0001
1000
0001
,
0000
0101
0101
0000
,
1000
0100
1000
0100
,
0010
0000
0000
1001
,
0000
0000
0100
0000
0001
1000
0001
1000
,
0000
1010
1010
0000
,
0001
0010
0001
0010
,
0100
0000
0110
0110
,
1100
0000
0000
0000
1000
0001
0000
0001
,
0000
0000
0101
0101
,
0011
0000
0000
0000
0010
0100
0000
0100
,
0000
0000
1001
1001
,
1010
0000
0000
0000
0010
0100
0000
0100
,
0000
0001
1000
0100
,
0001
1000
0010
0001
,
2000
0010
3010
0000
,
0002
0010
0013
0000
,
2000
0010
3010
0000
,
0002
0010
0013
0001
,
1000
0100
1000
0001
,
0001
0100
0001
1000
,
1000
0010
1000
0001
,
0001
0010
0001
0001
,
0200
0000
0000
0000
0310
0100
0010
0100
,
0001
0000
0000
1001
,
0000
0000
0000
0000
0001
1000
0001
1000
,
0000
0100
0100
0000
,
0000
0000
0010
0010
,
0001
0100
0001
1001
,
1000
0100
1000
0010
,
0100
0110
0110
0100
,
0001
1000
0001
1000
,
0010
0000
0000
0000
0010
0000
1000
0001
,
1000
0002
0000
0100
0003
0001
0100
0000
,
0010
1000
0100
0001
,
0100
0010
0000
0000
,
1001
0000
0000
0000
0100
0000
0001
1000
,
0001
2000
0000
0010
3000
1000
0010
0000
,
0100
0001
0010
1000
,
0010
0100
1000
0001
,
1000
0010
1000
0001
,
1000
0100
1000
0001
,
1000
0010
1000
0001
,
1000
0010
0100
0001
,
0010
0100
1000
0010
,
0100
0001
0010
0001
,
0010
1000
0000
0000
;

//---------------dance-single - [Ness]----------------
#NOTES:
     dance-single:
     [Ness]:
     Easy:
     4:
     0.244,0.272,0.026,0.078,0.000:
0000
0000
0000
0000
,
0000
0000
0000
0000
,
0000
0000
0000
0000
,
0000
0000
0000
0000
,
0020
0000
0030
0000
,
0200
0000
0300
0000
,
0002
0000
0003
0000
,
2000
0000
3000
0000
,
0001
0000
0000
0000
,
0000
0000
1000
1000
,
0010
0000
0100
0000
,
0110
0000
0000
0000
,
0010
0000
1000
0000
,
0100
0000
0010
0001
,
0010
0000
0100
0000
,
0110
0000
0000
0000
,
0010
0000
0001
0000
,
0100
0000
0010
1000
,
0010
0100
0100
0000
,
0001
1000
1000
0000
,
0100
0010
0010
0000
,
1000
0001
0001
0000
,
0010
0000
0000
0000
,
0100
1000
0100
1000
,
0001
1000
0001
1000
,
0010
1000
0010
1000
,
0010
0100
0010
0100
,
0001
0100
0001
0100
,
0001
1000
0001
1000
,
0001
0010
0001
0010
,
0100
0010
0100
0010
,
0200
0000
1300
0001
,
1000
0000
0010
0010
,
0010
0000
1000
0001
,
1000
0000
0010
0010
,
0010
0000
0001
1000
,
0001
0000
0010
0010
,
0010
0000
0001
1000
,
0001
0000
0010
0010
,
0010
0000
0100
0000
,
1000
0000
0001
0000
,
0100
0000
0010
0000
,
1000
0000
0100
0000
,
0010
0000
0001
0000
,
0100
0000
0010
0000
,
1000
0000
0100
0000
,
0010
0000
0001
0000
,
1001
0000
0010
0010
,
0001
0000
0000
1000
,
0000
0000
0010
0010
,
0000
0100
0100
0000
,
0001
0000
1000
0000
,
0001
0010
0001
0010
,
0001
0100
0001
0100
,
0010
0100
0010
0100
,
0010
1000
0010
1000
,
0001
1000
0100
1000
,
0100
0010
0100
0010
,
0100
0010
0001
0010
,
0001
1000
0001
1000
,
0001
1000
0010
1000
,
0010
0100
0001
0100
,
0001
0010
0001
0010
,
0001
0200
0000
0310
,
0100
0010
0000
1000
,
1000
2000
0000
3100
,
0010
0100
0000
0010
,
0010
0020
0000
0031
,
1000
0001
0000
0100
,
0100
0200
0000
0310
,
1000
0010
0000
0000
;

//---------------dance-single - [Ness]----------------
#NOTES:
     dance-single:
     [Ness]:
     Beginner:
     1:
     0.087,0.121,0.000,0.000,0.000:
0000
0000
0000
0000
,
0000
0000
0000
0000
,
0000
0000
0000
0000
,
0000
0000
0000
0000
,
0010
0000
0000
0000
,
1000
0000
0000
0000
,
0010
0000
0000
0000
,
0001
0000
0000
0000
,
0010
0000
0000
0000
,
0000
0000
0000
0000
,
0100
0000
0000
0000
,
0001
0000
0000
0000
,
1000
0000
0000
0000
,
0100
0000
0000
0000
,
0010
0000
0000
0000
,
0001
0000
0000
0000
,
1000
0000
0000
0000
,
0010
0000
0000
0000
,
0100
0000
0000
0000
,
0100
0000
0000
0000
,
0010
0000
0000
0000
,
0010
0000
0000
0000
,
1000
0000
0000
0000
,
0000
0000
0000
0001
,
0000
0000
0000
0000
,
0010
0000
0010
0000
,
0100
0000
0100
0000
,
1000
0000
0000
0001
,
0000
0000
0000
0000
,
0100
0000
0100
0000
,
0010
0000
0010
0000
,
1000
0000
0000
0000
,
0100
0000
0000
0000
,
0001
0000
0000
0000
,
0100
0000
0000
0000
,
1000
0000
0000
0000
,
0100
0000
0000
0000
,
0001
0000
0000
0000
,
0100
0000
0000
0000
,
1000
0000
0000
0000
,
0001
0000
0000
0000
,
1000
0000
0000
0000
,
0001
0000
0000
0000
,
0010
0000
0000
0000
,
0100
0000
0000
0000
,
0010
0000
0000
0000
,
0100
0000
0000
0000
,
1000
0000
0000
0000
,
0010
0000
0000
0000
,
0000
0000
0000
0000
,
0100
0000
0000
0000
,
0000
0000
0000
0000
,
0001
0000
0000
0010
,
0000
0000
0000
0000
,
0100
0000
0000
0000
,
0100
0000
0000
0000
,
0100
0000
0000
0000
,
0000
1000
0000
1000
,
0000
0010
0000
0010
,
0000
0100
0000
0000
,
0001
0000
0000
0000
,
0000
0010
0000
0010
,
0000
0100
0000
0100
,
0000
0000
0000
1000
,
0000
1000
0000
0000
,
0000
0000
0000
0001
,
0000
0001
0000
0000
,
0000
0000
0000
0100
,
0000
0100
0000
0000
,
0000
0000
0000
0010
,
0000
0010
0000
0000
;

//---------------dance-double - [Ness]----------------
#NOTES:
     dance-double:
     [Ness]:
     Easy:
     4:
     0.240,0.272,0.009,0.138,0.000:
00000000
00000000
00000000
00000000
,
00000000
00000000
00000000
00000000
,
00000000
00000000
00000000
00000000
,
00000000
00000000
00000000
00000000
,
10000000
00000000
01000000
00000000
,
00010000
00000000
00100000
00000000
,
00001000
00000000
00000100
00000000
,
00000001
00000000
00000010
00000000
,
00000001
00000000
00000000
00000000
,
00000000
00000000
00000010
00000100
,
00000010
00000000
00000100
00000000
,
00010000
00000000
00001000
00000000
,
01000000
00000000
00010000
00000000
,
10000000
00000000
00100000
00100000
,
01000000
00000000
00010000
00000000
,
00100000
00000000
00001000
00000000
,
00010000
00000000
00000100
00000000
,
00000010
00000000
00000001
00000001
,
00000100
00000000
00000010
00000000
,
00000100
00000010
00000100
00000000
,
00000001
00000000
00001000
00000000
,
00000100
00000000
00010000
00001000
,
00010000
00000000
00000000
00000000
,
00001000
01000000
00001000
01000000
,
00010000
01000000
00010000
01000000
,
00100000
01000000
00100000
01000000
,
10000000
01000000
10000000
01000000
,
00100000
01000000
00100000
01000000
,
00100000
10000000
00100000
10000000
,
00100000
01000000
00100000
01000000
,
00100000
00010000
00100000
00010000
,
00001000
00000000
00000100
00000100
,
00000001
00000000
00000010
00000000
,
00000100
00000000
00010000
00010000
,
00001000
00000000
01000000
00000000
,
10000000
00000000
01000000
01000000
,
00010000
00000000
00100000
00000000
,
00001000
00000000
00010000
00000000
,
00001000
00000000
00010000
00000000
,
00000200
00000300
00000020
00000030
,
00000002
00000003
00000200
00000300
,
00000020
00000030
00020000
00030000
,
00002000
00003000
00200000
00300000
,
02000000
03000000
20000000
30000000
,
00200000
00300000
02000000
03000000
,
00020000
00030000
00200000
00300000
,
00002000
00003000
00020000
00030000
,
00001000
00000000
00010000
00000000
,
00011000
00000000
00000000
00000010
,
00000000
00000000
00000100
00000000
,
00000000
00000000
00000001
00000000
,
00000000
00000000
00000010
00000000
,
00000100
00010000
00000100
00010000
,
00000100
00001000
00000100
00001000
,
00000100
00000010
00000100
00000010
,
00000100
00000001
00000100
00000001
,
00000100
00010000
00001000
00010000
,
00001000
00010000
00100000
00010000
,
00100000
01000000
00100000
01000000
,
00100000
10000000
01000000
10000000
,
01000000
00100000
01000000
00100000
,
01000000
00010000
01000000
00010000
,
01000000
00100000
01000000
00100000
,
01000000
00100000
00000000
00010000
,
10000000
00010000
00000000
01000000
,
00000000
00001000
00000000
00010000
,
00001000
00010000
00000000
00000100
,
00000000
00000010
00000000
00000100
,
00000010
00000100
00000000
00000010
,
00000000
00000001
00000000
00001000
,
00000001
00001000
00000000
00000000
;

//---------------dance-double - [Ness]----------------
#NOTES:
     dance-double:
     [Ness]:
     Medium:
     6:
     0.367,0.454,0.250,0.233,0.000:
00000000
00000000
00000000
00000000
,
00000000
00000000
00000000
00000000
,
00000000
00000000
00000000
00000000
,
00000000
00000000
00000000
00000000
,
10000000
00100000
01000000
00010000
,
10000000
01000000
00100000
00001000
,
00010000
00000010
00000100
00000001
,
00001000
00000100
00000010
00000001
,
00001000
00000000
00001000
00000000
,
00001000
00000000
00000100
00010000
,
00001000
01000000
00010000
01000000
,
00100000
10000000
00100000
10000000
,
01000000
00100000
00001000
00010000
,
00001000
00000100
00000010
00001000
,
00000100
00001000
00000100
00000010
,
00000001
00000010
00000001
00000100
,
00000010
00010000
00001000
00010000
,
01000000
00100000
00010000
10000000
,
00020000
01000000
01030000
00000000
,
00001000
00010000
00011000
00000000
,
00002000
00000100
00003100
00000000
,
00010000
00001000
00011000
00000000
,
00000000
00000000
00100000
00002000
00020000
00000000
00000000
00000000
,
00033000
00000000
00000000
00011000
,
00000000
00000000
00000100
00000000
00000010
00000100
00000010
00000100
,
00000000
00001100
00001100
00000100
,
00010000
00000000
00001000
00000000
01000000
00010000
01000000
00000000
,
00100000
00000000
00000000
01100000
,
00000000
00000000
01000000
00000000
00001000
00010000
00001000
00010000
,
00000000
00101000
00101000
00000000
,
00001000
00010000
00000100
00000010
,
00000001
00000000
00000110
00000110
,
00001010
00000000
00000000
00000000
00000100
00001000
00000000
00001000
,
00000100
00000000
00011000
00011000
,
01010000
00000000
00000000
00000000
00010000
10000000
00000000
10000000
,
01000000
00000000
01100000
01100000
,
00110000
00000000
00000000
00000000
00100000
00001000
00000000
00001000
,
00010000
00000100
00001000
00010000
,
00100000
00001000
00010000
00000010
,
00000100
00000002
00000203
00000300
,
00000002
00000023
00000230
00000300
,
00010000
00002000
02003000
03000000
,
00020000
00230000
02300000
13000000
,
10000000
00200000
02300000
03010000
,
00200000
00302000
00023000
00030010
,
00000100
00000002
00000023
00000130
,
00020000
00032000
02003000
03200000
,
10300000
00000000
01000000
10000000
00010000
00000000
10010000
00000000
,
00100000
00000000
00000000
00001000
,
00000000
00000000
00000000
00000000
00010000
00001000
00010000
00001000
,
00000000
00010000
00000000
00001000
00010000
00000000
00000000
00000000
,
00000000
00000000
00000100
00000010
,
00000001
00000100
00000001
00001001
,
00001000
00000000
00000100
00000000
00010000
00001000
00010000
00001000
,
00000000
00010000
00000000
00001000
00010000
00000000
00001000
00000000
,
01000000
00010000
00100000
01000000
,
10000000
00000000
00000000
00000000
01000000
00000000
00100000
01000000
,
00100000
01000000
00000000
00200000
00000000
00310000
00100000
00000000
,
00100000
00000000
00001000
00000000
00010000
00000000
00000010
00001000
,
00000010
00000100
00000000
00000000
,
00000110
00000000
00000000
00000000
00000010
00000000
00010000
00001000
,
00010000
00001000
00000000
00020000
00000000
00030100
00010000
00000000
,
00000000
00010000
00001000
00100000
,
01000000
10000000
00000000
01100000
,
00110000
00000000
01100000
00000000
00000000
00000000
00100000
00010000
,
00000000
00010000
00001000
00000000
00000000
00000000
00011000
00000000
,
00011000
00000000
00001100
00000000
00000000
00000000
00000100
00000010
,
00000000
00000010
00000001
00000000
00000000
00000000
00000110
00000000
,
00000110
00000000
00000101
00000000
00000000
00000000
00000100
00000001
,
00000000
00000001
00001000
00000000
00000010
00000000
00010000
00000000
,
00001000
00000010
00000000
00000000
;

//---------------dance-double - [Ness]----------------
#NOTES:
     dance-double:
     [Ness]:
     Hard:
     8:
     0.458,0.484,0.345,0.302,0.013:
00000000
00000000
00000000
00000000
,
00000000
00000000
00000000
00000000
,
00000000
00000000
00000000
00000000
,
00000000
00000000
00000000
00000000
,
00001000
01000000
00010000
00010000
,
00100000
00001000
00010000
00010000
,
00000010
00000100
00000001
00000001
,
00000010
00000100
00010000
00010000
,
00001000
00001000
00001000
00001000
,
00001000
00000000
00001000
01000000
00010000
00100000
01000000
00000000
,
10000000
01000000
02100000
00010000
,
13000000
00000000
00010000
00000000
01000000
00010000
01000000
00010000
,
00001000
00000010
00001000
00000000
00000001
00000000
00001001
00000000
,
00000001
00000000
00000010
00000000
00000001
00001000
00000010
00000000
,
00000100
00000010
00000120
00001000
,
00000031
00000000
00001000
00000000
00000010
00001000
00000010
00001000
,
00010000
01000000
00010000
00000000
10000000
00000000
10010000
00000000
,
10000000
00000000
01000000
00000000
10000000
00010000
01000000
00000000
,
00000000
00011000
00011000
00000000
,
00000010
00011000
00100000
00000000
,
00010000
00000000
01000000
00000000
00100000
10000000
01000000
00100000
,
00001000
00000000
00000000
00010000
00000000
00000000
00000010
00000000
00000001
00000000
00000010
00000000
00001000
00000000
00000000
00000000
,
00000000
00000000
00000100
00002000
00020000
00000000
00000000
00000000
,
00033000
00100000
01000000
00110000
,
00011000
00000000
00000100
00001000
00000010
00000010
00000010
00000000
,
00000100
00000001
00000000
00000100
00010000
00000000
00011000
00000000
,
00001000
00010000
00100000
00000000
01000000
00100000
01000000
00100000
,
00011000
00000010
00000100
00001010
,
00011000
00000000
01000000
00010000
00100000
00100000
00100000
00000000
,
01000000
10000000
00000000
01000000
00001000
00000000
00011000
00000000
,
00010000
00001000
00000010
00000000
00000100
00000010
00000100
00000010
,
00002000
00000001
00003100
00011000
,
00001100
00000000
00000100
00010000
00010000
00001000
01000000
00100000
,
10000000
00010000
10010000
10100000
,
00110000
00000000
00000000
00000000
00000000
01010000
00000000
01010000
,
00020000
10000000
01030000
00011000
,
01010000
00000000
01000000
00001000
00001000
00010000
00000100
00000010
,
00000001
00001000
00000001
00000010
,
00000100
00010000
00000010
00001000
,
00020000
00130000
02000000
03100000
,
20000000
30100000
20000000
30010000
,
20000000
31000000
00200000
01300000
,
00020000
01030000
00020000
00031000
,
00002000
00003010
00000200
00000310
,
00000002
00000013
00000002
00001003
,
00000002
00000103
00000020
00000130
,
00002000
00000000
00000000
00000000
00003100
00000000
00000000
00000000
00001000
00000000
00000000
00010000
00000000
00000000
00010000
00000000
,
00001000
00000000
00000000
00100000
00000000
00000000
00010000
00000000
00100000
00000000
01000000
00000000
10000000
00000000
00000000
00000000
,
10010000
00000000
00000000
00011000
,
00000000
00000000
00000000
00000000
00010000
00001000
00010000
00001000
,
00000000
00000200
00000000
00001300
00010000
00000000
00000000
00000000
,
00000000
00000000
00000010
00001000
,
00001001
00000000
00000000
00011000
,
00000000
00000000
00000000
00000000
00001000
00010000
00001000
00010000
,
00000000
00200000
00000000
00310000
00001000
00000000
00000000
00000000
,
00000000
00000000
00100000
00020000
,
10030000
00000000
00011000
00000000
01000000
00010000
00100000
00100000
,
00100000
00000000
01000000
10000000
00000000
01000000
00100000
00001000
,
00010000
00000000
00001000
00000000
00000100
00000000
00000010
00000100
,
00000010
00000100
00000001
00000000
00000010
00000000
00000100
00000000
,
00001100
00000000
00011000
00000000
00000010
00001000
00000100
00000100
,
00000100
00000000
00000010
00000001
00000000
00000010
00000100
00010000
,
00001000
00000000
00100000
00000000
00110000
00000000
01000000
00100000
,
01000000
00100000
20000000
00000000
31000000
00000000
11000000
00000000
,
10010000
01020000
01030000
00020000
,
00130000
00002000
00013000
00011000
,
00001100
00000210
00000310
00000200
,
00001300
00000002
00001003
00001001
,
00000011
00002010
00003010
00002000
,
00003100
00000020
00000031
00000200
,
00000310
00001000
00000000
00000000
;
