#TITLE:Starry Eyed;
#SUBTITLE:(Dexcell Remix);
#ARTIST:Ellie Goulding;
#TITLETRANSLIT:;
#SUBTITLETRANSLIT:;
#ARTISTTRANSLIT:;
#GENRE:;
#CREDIT:;
#MENUCOLOR:;
#METERTYPE:DDR;
#BANNER:Starry Eyed (Dexcell Remix)-bn.png;
#BACKGROUND:Starry Eyed (Dexcell Remix)-bg.png;
#LYRICSPATH:;
#CDTITLE:;
#MUSIC:Starry Eyed (Dexcell Remix).mp3;
#OFFSET:0.001;
#SAMPLESTART:53.043;
#SAMPLELENGTH:11.163;
#SELECTABLE:YES;
#LISTSORT:;
#BPMS:0.000=172.000;
#STOPS:;
#BGCHANGES:;
#ATTACKS:;

//---------------dance-single - [Ness]----------------
#NOTES:
     dance-single:
     [Ness]:
     Hard:
     9:
     0.664,0.701,0.298,0.269,0.104: // measure 1
0000
0000
0000
0000
,  // measure 2
0000
0000
0000
0000
,  // measure 3
0000
0000
0000
0000
,  // measure 4
0000
0000
0000
0000
,  // measure 5
0010
0100
1100
0000
1000
0001
0100
0010
,  // measure 6
0100
0001
0010
0000
0001
0010
0001
0001
,  // measure 7
0100
0010
1000
0100
0000
0001
0100
1000
,  // measure 8
1000
2000
0000
3010
0001
0010
1000
0000
,  // measure 9
1001
1000
0010
0000
1000
0100
1000
0100
,  // measure 10
0001
0100
0010
0001
0000
0001
0100
0010
,  // measure 11
1000
0000
0110
0000
1010
1000
0001
0000
,  // measure 12
0010
0010
0001
1000
0000
1000
0010
0001
,  // measure 13
0010
0100
0101
0000
0001
1000
0100
0010
,  // measure 14
0100
1000
0010
0000
1000
0010
1000
1000
,  // measure 15
0100
0010
0001
0100
0000
1000
0100
0001
,  // measure 16
0001
0002
0000
0013
1000
0010
0001
0001
,  // measure 17
1001
0100
0001
0100
,  // measure 18
1000
0000
0100
0010
1000
0100
0010
0001
,  // measure 19
1001
1000
0001
0001
,  // measure 20
1000
1000
0001
0001
,  // measure 21
1000
0010
0001
0100
0010
1000
0001
0010
,  // measure 22
1000
0100
0010
0001
1000
0010
0001
0010
,  // measure 23
1000
0000
0000
0000
0001
0000
0000
0200
0010
0000
0010
0000
0310
0000
0000
1000
,  // measure 24
0100
0000
1000
0000
0001
0000
1000
0000
0010
0000
0100
0000
0001
0000
0000
0001
,  // measure 25
0010
0000
0001
0000
1000
0000
0000
1000
0010
0000
1000
0000
0001
0000
0000
0001
,  // measure 26
1000
0100
0010
0000
0011
0010
1100
0000
,  // measure 27
0001
0000
0000
0000
1000
0000
0000
0200
0010
0000
0010
0000
0310
0000
0000
0001
,  // measure 28
0100
0000
0001
0000
1000
0000
0001
0000
0010
0000
0100
0000
1000
0000
0000
1000
,  // measure 29
0010
0000
1000
0000
0001
0000
0000
0001
0010
0000
0001
0000
1000
0000
0000
1000
,  // measure 30
0001
0100
0010
0000
2010
0000
0001
0000
,  // measure 31
3100
0000
0000
0000
0010
0000
0000
0001
1000
0000
0010
0000
0100
0000
0000
0001
,  // measure 32
0010
0001
1000
0010
0001
0010
1000
0100
,  // measure 33
0010
0000
0100
0000
1000
0000
0000
0100
0010
0000
0001
0000
0100
0000
0000
0001
,  // measure 34
0100
0000
0010
0000
1000
0000
0000
0000
1000
0100
1000
0000
0001
0000
0000
0000
,  // measure 35
0100
0000
0000
0000
0010
0000
0000
1000
0001
0000
0010
0000
0100
0000
0000
1000
,  // measure 36
0010
1000
0001
0010
1000
0010
0001
0100
,  // measure 37
0010
0000
0100
0000
0001
0000
0100
0010
0100
0000
0010
0000
1000
0000
0100
0010
,  // measure 38
0100
0000
0010
0000
0001
0000
1000
0000
0001
1000
0001
0000
0010
0000
0100
0000
,  // measure 39
2000
0000
0010
0000
3001
1000
1100
0000
,  // measure 40
0100
0000
1000
0000
0001
0000
0000
0100
0010
0000
0100
0000
0001
0000
0010
0000
,  // measure 41
0100
2100
0000
0001
3100
0000
1100
0000
,  // measure 42
0100
1000
0010
0000
1000
0010
0001
0010
,  // measure 43
0200
0000
1000
0000
0301
0100
0110
0000
,  // measure 44
0100
0000
0001
0000
1000
0000
0001
1000
0001
0000
0100
0000
0010
0000
0100
0000
,  // measure 45
0001
0201
0000
0301
0100
0000
1001
0000
,  // measure 46
0001
1000
0010
0000
1000
0100
0001
0100
,  // measure 47
2000
0000
0100
0000
3001
1000
1010
0000
,  // measure 48
0010
0000
1000
0000
0001
0000
0000
0010
0100
0000
0010
0000
0001
0000
0100
0000
,  // measure 49
0010
2010
0000
0001
3010
0000
1010
0000
,  // measure 50
0010
1000
0100
0000
1000
0100
0001
0100
,  // measure 51
0020
0000
1000
0000
0031
0010
0110
0000
,  // measure 52
0100
0000
0001
0000
1000
0000
0001
1000
0001
0000
0010
0000
0100
0000
0010
0000
,  // measure 53
0001
0021
0000
0031
0010
0000
1001
0000
,  // measure 54
0001
1000
0100
0000
1000
0010
0001
0010
,  // measure 55
1001
0001
0100
0000
0001
1000
0001
1000
,  // measure 56
0010
1000
0100
0010
0000
0010
1000
0100
,  // measure 57
0001
0000
1100
0000
0101
0001
0010
0000
,  // measure 58
0100
0100
0010
0001
0000
0001
0100
0010
,  // measure 59
0100
0001
1001
0000
0010
0001
1000
0100
,  // measure 60
1000
0001
0100
0000
0001
0100
0001
0001
,  // measure 61
1000
0100
0010
1000
0000
0001
1000
0010
,  // measure 62
0010
0020
0000
0130
0001
0100
0010
0010
,  // measure 63
2002
0000
0000
3003
,  // measure 64
0000
0000
0000
0000
,  // measure 65
0000
0100
0100
0000
,  // measure 66
0002
1000
1003
0000
,  // measure 67
0010
1000
0001
0000
,  // measure 68
0020
0001
0031
0000
,  // measure 69
2000
0100
3100
0000
,  // measure 70
0002
0010
0013
0000
,  // measure 71
0001
0100
0020
0000
0031
0000
0000
0000
,  // measure 72
1000
0010
0200
0000
1300
0000
0000
0000
,  // measure 73
0001
0010
0200
0000
0301
0000
0000
0000
,  // measure 74
1000
0100
0020
0000
1030
0000
0000
0000
,  // measure 75
0010
0001
2000
0000
3100
0000
0000
0000
,  // measure 76
0001
1000
0020
0000
0031
0000
0000
0000
,  // measure 77
0010
1000
0002
0000
0103
0000
0000
0000
,  // measure 78
1000
0001
0020
0000
1030
0000
0000
0000
,  // measure 79
0210
0000
1000
0000
0310
0100
0101
0000
,  // measure 80
0001
0000
0100
0000
0010
0000
0000
1000
0001
0000
1000
0000
0010
0000
1000
0000
,  // measure 81
0001
0201
0000
0310
1000
0001
0101
0000
,  // measure 82
0001
1000
0100
0000
0100
1000
0010
1000
,  // measure 83
0002
0000
0100
0000
0013
0001
1001
0000
,  // measure 84
0001
0000
0010
0000
0100
0000
0010
0100
0010
0000
0001
0000
1000
0000
0001
0000
,  // measure 85
0010
0012
0000
0013
0001
0000
1001
0000
,  // measure 86
0001
0100
0010
0000
0100
0001
0010
0001
,  // measure 87
0200
0000
0001
0000
0310
0100
1100
0000
,  // measure 88
1000
0000
0100
0000
0010
0000
0000
1000
0001
0000
0001
0000
1000
0000
0010
0000
,  // measure 89
1000
1200
0000
1300
0100
0000
1001
0000
,  // measure 90
1000
0001
0100
0000
0100
0001
0010
0001
,  // measure 91
2000
0000
0100
0000
3010
1000
1001
0000
,  // measure 92
0001
0000
0010
0000
0100
0000
0010
0100
0010
0000
0001
0000
1000
0000
0010
0000
,  // measure 93
0100
2010
0000
3010
1000
0000
1001
0000
,  // measure 94
1000
0001
0100
0000
0001
0010
0100
1000
,  // measure 95
0001
0000
0000
0000
;

//---------------dance-double - [Ness]----------------
#NOTES:
     dance-double:
     [Ness]:
     Hard:
     9:
     0.664,0.701,0.298,0.269,0.104:
00000000
00000000
00000000
00000000
,
00000000
00000000
00000000
00000000
,
00000000
00000000
00000000
00000000
,
00000000
00000000
00000000
00000000
,
00000001
00000100
00000101
00000000
00000100
00000010
00001000
00000100
,
00000010
00000001
00001000
00000000
00000001
00000010
00000100
00010000
,
00001000
01000000
00010000
00100000
00000000
01000000
10000000
00100000
,
00010000
00200000
00000000
10300000
01000000
00100000
00010000
00000000
,
10010000
10000000
00100000
00000000
10000000
01000000
00100000
00010000
,
01000000
00001000
00010000
00001000
00000000
00100000
00001000
00010000
,
00000010
00000000
00000110
00000000
00000101
00000100
00000001
00000000
,
00001000
00000100
00001000
00000010
00000000
00000001
00000010
00001000
,
00000001
00000100
00000101
00000000
00000001
00000010
00000100
00010000
,
00001000
01000000
10000000
00000000
01000000
00100000
10000000
00010000
,
00100000
00001000
00010000
00000100
00000000
00000001
00000100
00010000
,
00001000
02000000
00000000
13000000
01000000
00100000
10000000
00010000
,
10010000
00010000
00001000
00000001
,
00000010
00000000
00000001
00000100
00001000
00000100
00000010
00000100
,
00000001
00000001
00001000
00001000
,
00010000
00010000
10000000
10000000
,
00010000
00100000
10000000
01000000
00100000
00010000
01000000
00001000
,
00010000
00000010
00001000
00000100
00000010
00000001
00001000
00000001
,
00000100
00000000
00000000
00000000
00000010
00000000
00000000
00002000
00000100
00000000
00000100
00000000
00003100
00000000
00000000
01000000
,
00010000
00000000
00010000
00000000
00100000
00000000
01000000
00000000
10000000
00000000
00010000
00000000
10000000
00000000
00000000
10000000
,
00100000
00000000
01000000
00000000
00010000
00000000
00000000
10000000
01000000
00000000
00100000
00000000
00001000
00000000
00000000
00010000
,
00001000
00000100
00000010
00000000
00001010
00000010
00000101
00000000
,
00000001
00000000
00000000
00000000
00000010
00000000
00000000
00000200
00010000
00000000
00010000
00000000
00010300
00000000
00000000
00001000
,
01000000
00000000
01000000
00000000
00100000
00000000
10000000
00000000
00010000
00000000
01000000
00000000
00010000
00000000
00000000
10000000
,
01000000
00000000
00100000
00000000
00010000
00000000
00000000
10000000
00100000
00000000
01000000
00000000
00001000
00000000
00000000
00010000
,
00000010
00000100
00000001
00000000
00000012
00000000
00001000
00000000
,
00000103
00000000
00000000
00000000
00000010
00000000
00000000
00001000
00000100
00000000
00000010
00000000
00000001
00000000
00000000
00000100
,
00000001
00001000
00000100
00010000
00001000
01000000
10000000
01000000
,
00100000
00000000
10000000
00000000
01000000
00000000
00000000
00100000
00001000
00000000
00010000
00000000
00001000
00000000
00000000
01000000
,
00010000
00000000
00100000
00000000
01000000
00000000
00000000
00000000
10000000
01000000
10000000
00000000
00010000
00000000
00000000
00000000
,
10000000
00000000
00000000
00000000
00100000
00000000
00000000
01000000
00001000
00000000
00010000
00000000
00001000
00000000
00000000
00100000
,
00010000
01000000
00010000
00100000
00001000
00010000
00000010
00000100
,
00000001
00000000
00000010
00000000
00000100
00000000
00001000
00000100
00001000
00000000
00000010
00000000
00001000
00000000
00000100
00010000
,
00000100
00000000
00000010
00000000
00000001
00000000
00000100
00000000
00000001
00000100
00000001
00000000
00001000
00000000
00000100
00000000
,
00000020
00000000
00000001
00000000
00000130
00000010
00000110
00000000
,
00000010
00000000
00000100
00000000
00010000
00000000
00000000
00001000
01000000
00000000
00100000
00000000
10000000
00000000
01000000
00000000
,
00100000
00120000
00000000
10000000
01030000
00000000
01010000
00000000
,
01000000
00001000
00010000
00000000
00000100
00000010
00000100
00000010
,
00000002
00000000
00001000
00000000
00000103
00000001
00000101
00000000
,
00000001
00000000
00000010
00000000
00000100
00000000
00010000
00001000
00010000
00000000
00000010
00000000
00000100
00000000
00000001
00000000
,
00000010
00000210
00000000
00001300
00000001
00000000
00001001
00000000
,
00000010
00001000
00000100
00000000
00010000
00001000
00010000
00001000
,
02000000
00000000
10000000
00000000
03100000
01000000
01100000
00000000
,
01000000
00000000
00100000
00000000
10000000
00000000
00000000
01000000
00100000
00000000
00001000
00000000
00010000
00000000
00000100
00000000
,
00000010
00000210
00000000
00001300
00000100
00000000
00000110
00000000
,
00001000
00000100
00001000
00000000
00000010
00010000
00001000
00100000
,
00020000
00000000
01000000
00000000
10030000
00010000
01010000
00000000
,
00010000
00000000
00100000
00000000
01000000
00000000
10000000
01000000
10000000
00000000
00100000
00000000
01000000
00000000
00010000
00000000
,
10000000
20010000
00000000
30010000
00100000
00000000
00110000
00000000
,
00100000
00001000
00010000
00000000
00100000
00001000
00010000
00000010
,
00000110
00000100
00000001
00000000
00000010
00000001
00001000
00000001
,
00000100
00000010
00001000
00000100
00000000
00000001
00000100
00001000
,
00000001
00000000
00001001
00000000
00001010
00000010
00010000
00000000
,
00001000
01000000
00100000
10000000
00000000
00010000
01000000
10000000
,
01000000
00100000
01100000
00000000
00100000
10000000
00010000
01000000
,
10000000
01000000
00010000
00000000
00100000
00001000
00010000
00000010
,
00000100
00000001
00000010
00000100
00000000
00010000
00000100
00001000
,
00010000
00200000
00000000
01300000
10000000
00010000
10000000
00010000
,
20020000
00000000
00000000
30030000
,
00000000
00000000
00000000
00000000
,
00000000
00100000
00001000
00000000
,
00020000
00000010
00031000
00000000
,
00000010
00000100
00000001
00000000
,
00000020
00000100
00000031
00000000
,
00020000
01000000
00031000
00000000
,
20000000
00100000
30010000
00000000
,
10000000
00100000
00020000
00000000
10030000
00000000
00000000
00000000
,
10000000
01000000
00020000
00000000
00031000
00000000
00000000
00000000
,
00010000
00001000
00000020
00000000
00000031
00000000
00000000
00000000
,
00000010
00001000
00000200
00000000
00000301
00000000
00000000
00000000
,
00000001
00000100
00002000
00000000
00013000
00000000
00000000
00000000
,
00001000
00010000
00200000
00000000
10300000
00000000
00000000
00000000
,
10000000
00100000
02000000
00000000
13000000
00000000
00000000
00000000
,
10000000
00100000
00020000
00000000
00130000
00000000
00000000
00000000
,
10020000
00000000
00100000
00000000
10030000
00010000
10010000
00000000
,
01000000
00000000
00100000
00000000
00001000
00000000
00000000
00010000
00000010
00000000
00000100
00000000
00000001
00000000
00000010
00000000
,
00000100
00002100
00000000
00003100
00001000
00000010
00001010
00000000
,
00000010
00010000
00001000
00000000
01000000
00010000
00100000
01000000
,
20000000
00000000
00010000
00000000
30100000
10000000
10100000
00000000
,
10000000
00000000
01000000
00000000
00100000
00000000
00001000
00010000
00001000
00000000
01000000
00000000
00100000
00000000
10000000
00000000
,
01000000
02100000
00000000
03100000
00010000
10000000
10010000
00000000
,
10000000
00010000
00100000
00000000
00001000
00010000
00001000
00010000
,
00000020
00000000
00000001
00000000
00000130
00000010
00000110
00000000
,
00000010
00000000
00000100
00000000
00000001
00000000
00000000
00000010
00000100
00000000
00010000
00000000
00001000
00000000
00100000
00000000
,
01000000
01200000
00000000
00310000
00100000
00000000
01100000
00000000
,
00010000
00100000
00010000
00000000
01000000
00001000
00010000
00000100
,
00002000
00000000
00000010
00000000
00003001
00001000
00001010
00000000
,
00001000
00000000
00000100
00000000
00000010
00000000
00000001
00000010
00000001
00000000
00000100
00000000
00000010
00000000
00001000
00000000
,
00000001
00001002
00000000
00001003
00000100
00000000
00001100
00000000
,
00000100
00010000
00001000
00000000
00010000
00001000
00100000
00000000
,
00011000
00000000
00000000
00000000
;

//---------------dance-single - [Ness]----------------
#NOTES:
     dance-single:
     [Ness]:
     Medium:
     7:
     0.455,0.491,0.216,0.075,0.000:
0000
0000
0000
0000
,
0000
0000
0000
0000
,
0000
0000
0000
0000
,
0000
0000
0000
0000
,
1000
0100
1000
0000
0010
0000
0100
0000
,
0001
0100
0001
0000
0010
0000
0100
0000
,
1000
0010
1000
0000
0100
0000
0010
0000
,
0001
0100
0001
0000
0010
0000
0100
0000
,
1000
1000
0010
0010
,
0001
0001
0010
0010
,
1000
0001
1000
0000
0100
0000
0100
0000
,
0010
0001
0100
0010
,
1000
0001
1000
0000
0010
0000
1000
0000
,
0100
1000
0100
0000
0010
0000
0001
0000
,
0100
0001
0100
0000
0010
0000
1000
0000
,
0001
1000
0001
0000
0010
0000
0100
0000
,
1001
1000
0010
1000
,
0001
1000
0010
1000
,
0001
0100
0001
1000
,
0001
0100
0001
1000
,
0001
0010
0001
0000
1000
0010
1000
0000
,
0001
0100
0001
0000
1000
0000
0100
0000
,
0010
0000
0010
0000
0001
1000
0001
0000
,
0100
0000
0010
1000
,
0100
0010
0100
0010
,
0001
0000
0100
0000
0010
1000
0001
0000
,
1000
0000
0100
0000
0010
0100
0010
0000
,
0001
0000
1000
0001
,
0100
0010
0100
0000
0010
0000
1000
0000
,
0100
0010
0100
0000
0010
0000
0001
0000
,
1000
0000
1000
0000
0001
0100
0010
0000
,
1000
0000
0001
1000
,
0010
0100
0010
0100
,
0001
0000
0100
0000
0010
1000
0001
0000
,
1000
0000
0100
0000
0010
0100
0010
0000
,
0001
0000
1000
0001
,
0100
0001
0100
0000
0001
0000
1000
0000
,
0100
0010
0100
0000
0010
0000
1001
0000
,
1000
0000
1000
0000
0010
0100
0001
0000
,
1000
0000
1000
0000
0010
0100
0001
0000
,
0000
1001
0000
1000
0100
0000
0010
0000
,
0001
1000
0001
0000
0100
0000
1001
0000
,
0001
0000
0001
0000
0010
0100
1000
0000
,
0001
0000
0001
0000
0010
0100
1000
0000
,
0000
1001
0000
0001
0100
0000
0010
0000
,
1000
0001
1000
0000
0100
0000
1001
0000
,
0010
0000
0010
0000
0001
0100
0010
0000
,
0010
0000
0010
0000
0001
0100
0010
0000
,
0000
1001
0000
0001
0100
0000
1001
0000
,
0001
1000
0001
0000
0010
0000
0110
0000
,
0010
0000
0010
0000
1000
0100
0010
0000
,
0010
0000
0010
0000
1000
0100
0010
0000
,
0000
1001
0000
0001
0100
0000
1001
0000
,
0001
1000
0001
0000
0010
0000
0110
0000
,
1001
0000
1000
0000
0010
0001
0010
0000
,
0001
0000
1000
0000
0010
0001
0010
0000
,
1000
0101
0101
1000
,
0001
0000
0010
0100
0000
0100
0010
0000
,
0100
0000
1000
0000
0001
1000
0100
0000
,
0010
0000
0001
0000
0100
0001
0100
0000
,
0010
0000
1000
0000
1000
0100
1000
0000
,
0001
0010
0001
0000
1000
0000
0001
0000
,
0202
0000
0000
0303
,
0000
0000
0000
0000
,
0000
0001
1000
0000
,
0010
1000
0001
0000
,
0010
0100
0010
0000
,
0100
1000
0001
0000
,
1000
0100
0010
0000
,
0001
0100
0010
0000
,
2000
0001
3100
0000
,
0002
1000
0013
0000
,
2000
0001
3010
0000
,
0002
1000
0103
0000
,
0020
0001
1030
0000
,
0200
1000
0301
0000
,
0020
1000
0031
0000
,
0200
0001
1300
0000
,
1001
0000
0001
0000
1000
0001
0100
0000
,
0001
0000
0001
0000
1000
0001
0100
0000
,
0000
1001
0000
1000
0010
0000
1010
0000
,
0010
1000
0100
0000
0010
0000
0110
0000
,
0010
0000
0010
0000
0001
1000
0010
0000
,
0010
0000
0010
0000
0001
1000
0010
0000
,
0000
1001
0000
1000
0010
0000
1010
0000
,
0010
1000
0100
0000
0010
0000
0110
0000
,
1000
0000
1000
0000
0010
0001
0100
0000
,
1000
0000
1000
0000
0010
0001
0100
0000
,
0000
1001
0000
0001
0010
0000
0011
0000
,
0010
0001
0100
0000
0010
0000
0110
0000
,
0010
0000
0010
0000
1000
0100
0010
0000
,
0010
0000
0010
0000
1000
0100
0010
0000
,
0000
1001
0000
0001
0100
0000
1001
0000
,
0001
0010
0100
0000
1000
0000
1001
0000
,
0010
0000
0000
0000
;

//---------------dance-single - [Ness]----------------
#NOTES:
     dance-single:
     [Ness]:
     Easy:
     5:
     0.384,0.421,0.127,0.075,0.000:
0000
0000
0000
0000
,
0000
0000
0000
0000
,
0000
0000
0000
0000
,
0000
0000
0000
0000
,
1000
1000
0001
0001
,
0100
0010
0100
0010
,
0100
0100
0001
0001
,
0010
0100
0010
0100
,
1000
0001
1000
0001
,
0010
0100
1000
0001
,
0100
0010
0100
0010
,
1000
0010
0100
0001
,
1000
1000
0001
0001
,
0010
0100
1000
0010
,
0100
0100
0010
0010
,
0100
0001
1000
0100
,
0010
0001
0010
0001
,
0010
0001
1000
0100
,
0010
0001
0010
0001
,
0010
0001
0010
0001
,
1000
0001
0100
0010
,
1000
0100
0010
0001
,
1000
0010
1000
0100
,
0010
0001
0100
0001
,
0010
0100
1000
0010
,
0100
0000
0001
1000
,
0001
0010
0001
0100
,
0010
1000
0100
0010
,
0001
1000
0010
0100
,
0001
1000
0100
0000
,
0010
0100
1000
0001
,
0100
0010
1000
0100
,
0010
0001
1000
0010
,
0100
0001
0010
0000
,
0100
1000
0001
0100
,
0010
1000
0100
0010
,
0001
0100
0010
1000
,
0100
0010
0100
0000
,
0001
0001
1000
1000
,
0010
0010
0100
0100
,
0000
0110
0110
0000
,
0010
0000
1000
0000
0001
1000
0001
0000
,
0010
0010
0100
0100
,
1000
1000
0001
0001
,
0000
1001
1001
0000
,
0010
0000
1000
0000
0001
1000
0001
0000
,
0100
0100
0010
0010
,
1000
1000
0100
0100
,
0000
0011
0011
0000
,
0010
0000
0100
0000
1000
0001
1000
0000
,
0010
0010
1000
1000
,
0001
0001
0100
0100
,
0000
1010
1010
0000
,
0010
0000
1000
0000
0001
1000
0001
0000
,
0100
0001
0100
0001
,
0100
0010
0100
0010
,
0100
1000
0100
1000
,
0100
0010
0100
0010
,
1000
0010
1000
0010
,
1000
0001
1000
0001
,
1000
0100
1000
0100
,
0010
0100
0010
0100
,
2002
0000
0000
3003
,
0000
0000
0000
0000
,
0000
0001
0001
0000
,
1000
1000
1000
0000
,
0000
0100
0100
0000
,
0010
0010
0010
0000
,
0000
0001
0001
0000
,
1000
1000
1000
0000
,
0010
0100
0002
0000
,
0013
0100
2000
0000
,
3001
1000
0020
0000
,
0130
0001
2000
0000
,
3100
0010
0002
0000
,
0013
0100
2000
0000
,
3010
0100
0002
0000
,
0013
0100
2000
0000
,
3001
0001
1000
1000
,
0010
0010
0100
0100
,
0001
0101
0101
0001
,
1000
0000
0100
0000
0010
0100
0010
0000
,
0001
0001
0010
0010
,
0100
0100
1000
1000
,
0001
0011
0011
0001
,
0010
0000
0100
0000
1000
0001
1000
0000
,
0010
0010
0100
0100
,
0001
0001
1000
1000
,
0010
1010
1010
1000
,
0100
0000
0010
0000
0001
1000
0001
0000
,
0100
0100
0010
0010
,
1000
1000
0001
0001
,
1000
1100
1100
0100
,
0010
0000
0001
0000
1000
0001
0100
0000
,
0010
0000
0000
0000
;

//---------------dance-single - Blank----------------
#NOTES:
     dance-single:
     Blank:
     Beginner:
     2:
     0.103,0.140,0.000,0.000,0.000:
0000
0000
0000
0000
,
0000
0000
0000
0000
,
0000
0000
0000
0000
,
0000
0000
0000
0000
,
0010
0000
0000
0000
,
1000
0000
0000
0000
,
0010
0000
0000
0000
,
0100
0000
0000
0000
,
0001
0000
0000
0000
,
0010
0000
0000
0000
,
0100
0000
0000
0000
,
1000
0000
0000
0000
,
0001
0000
0000
0000
,
0100
0000
0000
0000
,
0010
0000
0000
0000
,
1000
0000
0000
0000
,
0100
0000
0000
0000
,
0000
0000
0000
0000
,
0010
0000
0000
0000
,
0000
0000
0000
0000
,
0001
0000
0001
0000
,
0001
0000
0000
0000
,
1000
0000
0000
0000
,
0010
0000
0000
0000
,
0100
0000
0000
0000
,
0001
0000
0001
0000
,
0010
0000
0000
0000
,
0100
0000
0000
0000
,
1000
0000
0000
0000
,
0010
0000
0100
0000
,
0100
0000
0000
0000
,
0010
0000
0000
0000
,
1000
0000
0000
0000
,
0100
0000
0100
0000
,
0010
0000
0000
0000
,
0001
0000
0000
0000
,
0100
0000
0000
0000
,
0010
0000
1000
0000
,
1000
0000
0000
0000
,
0100
0000
0000
0000
,
0001
0000
0000
0000
,
0100
0000
1000
0000
,
1000
0000
0000
0000
,
0001
0000
0000
0000
,
0010
0000
0000
0000
,
0100
0000
0010
0000
,
0010
0000
0000
0000
,
0001
0000
0000
0000
,
0100
0000
0000
0000
,
0010
0000
1000
0000
,
1000
0000
0000
0000
,
0100
0000
0000
0000
,
0010
0000
0000
0000
,
0001
0000
1000
0000
,
1000
0000
0000
0000
,
0010
0000
0000
0000
,
0100
0000
0000
0000
,
0001
0000
0000
0000
,
0010
0000
0000
0000
,
0100
0000
0000
0000
,
1000
0000
0000
0000
,
0001
0000
0000
0000
,
0100
0000
0000
0000
,
0000
0000
0000
0000
,
0000
0000
0000
0000
,
0000
0000
0000
0000
,
0010
0000
0000
0000
,
0000
0000
0000
0000
,
0100
0000
0000
0000
,
0000
0000
0000
0000
,
0010
0000
0000
0000
,
0010
0000
0000
0000
,
1000
0000
0000
0000
,
1000
0000
0000
0000
,
0001
0000
0000
0000
,
0001
0000
0000
0000
,
0010
0000
0000
0000
,
0010
0000
0000
0000
,
0100
0000
0000
0000
,
1000
0000
0000
0000
,
0001
0000
0000
0000
,
0100
0000
0010
0000
,
0010
0000
0000
0000
,
1000
0000
0000
0000
,
0001
0000
0000
0000
,
0010
0000
0100
0000
,
0100
0000
0000
0000
,
1000
0000
0000
0000
,
0001
0000
0000
0000
,
0100
0000
0010
0000
,
0010
0000
0000
0000
,
1000
0000
0000
0000
,
0100
0000
0000
0000
,
0010
0000
0001
0000
,
0001
0000
0000
0000
;

//---------------dance-double - [Ness]----------------
#NOTES:
     dance-double:
     [Ness]:
     Medium:
     7:
     0.415,0.421,0.112,0.104,0.000:
00000000
00000000
00000000
00000000
,
00000000
00000000
00000000
00000000
,
00000000
00000000
00000000
00000000
,
00000000
00000000
00000000
00000000
,
00100000
10000000
01000000
00000000
00100000
00000000
00001000
00000000
,
00010000
00000100
00001000
00000000
00000010
00000000
00000100
00000000
,
00000001
00000010
00000100
00000000
00010000
00000000
00001000
00000000
,
01000000
00010000
10000000
00000000
00100000
00000000
01000000
00000000
,
00011000
00010000
00000100
00000100
,
00000010
00000001
00000100
00000100
,
00000010
00010000
00001000
00001000
,
01000000
00010000
10000000
01000000
,
00100000
00001000
00010000
00000000
00000100
00000000
00000010
00000000
,
00000001
00000100
00000010
00000000
00010000
00000000
00001000
00000000
,
00100000
00010000
10000000
00000000
00100000
00000000
01000000
00000000
,
00001000
00010000
00000100
00000000
00000010
00000000
00000100
00000000
,
00001000
00000010
00000001
00000010
,
00001000
00010000
01000000
10000000
,
01000000
00010000
00001000
00000010
,
00000001
00000010
00001000
00010000
,
01000000
10000000
00100000
00010000
,
00100000
10000000
00010000
10010000
,
00100000
00001000
00020000
00001000
,
00031000
01000000
00100000
10000000
,
01000000
00100000
00001000
00010000
,
00000010
00001000
00000001
00000010
,
00000100
00000010
00000002
00000100
,
00000103
00000010
00001000
00000100
,
00010000
00001000
01000000
00010000
,
10000000
00100000
01100000
01000000
,
00010000
00100000
02000000
10000000
,
13000000
00100000
10000000
00010000
,
00100000
00001000
00010000
00000010
,
00000001
00000010
00001000
00000100
,
00000010
00000001
00000200
00000010
,
00000310
00001000
00000100
00010000
,
00001000
01000000
00010000
00100000
,
01000000
10000000
10010000
00010000
,
10000000
10000000
00100000
01100000
,
01000000
00010000
00100000
00001000
,
00000000
00010000
00000000
00010000
00001000
00000000
00011000
00000000
,
00010000
00000100
00001000
00000010
,
00000100
00000100
00000001
00000101
,
00000001
00000010
00000100
00010000
,
00000000
00001000
00000000
00001000
00010000
00000000
00011000
00000000
,
00001000
01000000
00010000
00100000
,
01000000
01000000
10000000
10010000
,
10000000
00100000
01000000
00010000
,
00000000
00100000
00000000
00100000
01000000
00000000
01100000
00000000
,
00100000
00001000
00010000
00000010
,
00000100
00000100
00000001
00001001
,
00000001
00000010
00000100
00010000
,
00000000
00001000
00000000
00001000
00010000
00000000
00011000
00000000
,
00001000
01000000
00010000
00100000
,
01100000
01000000
10000000
10000000
,
00100000
10000000
00010000
00010000
,
00100000
00001000
00010000
00000100
,
00001000
00000010
00000100
00000001
,
00000010
00000001
00001000
00000000
00000100
00000000
00000010
00000000
,
00000100
00010000
00001000
00000000
01000000
00000000
00100000
00000000
,
01000000
00010000
10000000
00000000
00100000
00000000
01000000
00000000
,
00010000
00100000
00001000
00000000
00010000
00000000
00000100
00000000
,
00000220
00000000
00000000
00000330
,
00000000
00000000
00000000
00000000
,
00000000
00000001
00001000
00000000
,
00000001
00001000
00000100
00000000
,
00010000
00001000
00010000
00000000
,
00001000
01000000
00100000
00000000
,
10000000
01000000
00100000
00000000
,
00001000
00010000
00001000
00000000
,
02000000
00100000
03010000
00000000
,
20000000
00100000
30010000
00000000
,
00200000
00001000
00310000
00000000
,
00002000
00010000
00003010
00000000
,
00000200
00001000
00001300
00000000
,
00000002
00000100
00000013
00000000
,
00000200
00001000
00000310
00000000
,
00000200
00010000
00010300
00000000
,
00011000
00000000
01000000
00000000
00100000
10000000
00100000
00000000
,
10000000
01000000
00100000
00001000
,
00000000
00010000
00000000
00010000
00000100
00000000
00000010
00000000
,
00000001
00000100
00000010
00010000
,
00001000
00000000
01000000
00000000
00010000
10000000
00010000
00000000
,
00100000
01000000
10000000
00100000
,
00000000
01000000
00000000
01000000
00001000
00000000
00010000
00000000
,
00000100
00000000
00000010
00000000
00000001
00001000
00000001
00001000
,
00000010
00000000
00000100
00000000
00000001
00000100
00000010
00000000
,
00010000
00001000
00100000
00010000
,
00000000
01000000
00000000
01000000
00100000
00000000
10000000
00000000
,
01000000
00000000
00100000
00000000
00001000
00010000
00001000
00010000
,
00000100
00000000
00000010
00000000
00000001
00001000
00000001
00000000
,
00000100
00000010
00010000
00001000
,
00000000
01000000
00000000
01000000
00100000
00000000
10000000
00000000
,
01000000
00000000
00100000
00000000
00001000
00010000
00001000
00000000
,
00000010
00000000
00000000
00000000
;

//---------------dance-double - [Ness]----------------
#NOTES:
     dance-double:
     [Ness]:
     Easy:
     5:
     0.365,0.351,0.366,0.045,0.000:
00000000
00000000
00000000
00000000
,
00000000
00000000
00000000
00000000
,
00000000
00000000
00000000
00000000
,
00000000
00000000
00000000
00000000
,
01000000
00100000
00001000
00010000
,
00000100
00001000
00000010
00000100
,
00000001
00000010
00000100
00010000
,
00001000
01000000
00010000
10000000
,
00100000
01000000
00001000
00010000
,
00000100
00000010
00000001
00000100
,
00000010
00010000
00001000
00100000
,
00010000
10000000
00100000
01000000
,
00010000
00100000
00001000
00010000
,
00000100
00000010
00000001
00000100
,
00000010
00010000
00001000
01000000
,
00010000
00100000
01000000
10000000
,
00010000
00010000
00010000
00010000
,
00010000
00010000
01000000
00001000
,
00010000
00010000
00001000
00001000
,
00010000
00010000
00001000
00001000
,
00010000
00000100
00001000
00000010
,
00000100
00000001
00000010
00000100
,
00010000
00001000
02000000
00100000
,
03100000
10000000
01000000
00100000
,
00001000
00010000
00000100
00001000
,
00000010
00000100
00000001
00001000
,
00000001
00000010
00000200
00000010
,
00000310
00000100
00010000
00001000
,
01000000
00010000
10000000
00010000
,
00100000
01000000
00100000
00000000
,
01000000
10000000
00200000
01000000
,
01300000
00010000
00100000
00001000
,
00010000
00000100
00001000
00000010
,
00000001
00000010
00000100
00000001
,
00001000
00000100
00020000
00001000
,
00031000
01000000
00010000
10000000
,
00100000
01000000
00010000
00100000
,
01000000
00100000
01000000
00000000
,
10000000
10100000
00000000
10100000
,
00000000
00110000
00000000
00110000
,
00000000
00011000
00000000
00011000
,
00000000
00010000
00000010
00001000
,
00000001
00000011
00000000
00000011
,
00000000
00001010
00000000
00001010
,
00000000
00011000
00000000
00011000
,
00000000
00001000
00100000
00010000
,
10000000
11000000
00000000
11000000
,
00000000
01010000
00000000
01010000
,
00000000
00011000
00000000
00011000
,
00000000
00010000
00000100
00001000
,
00000001
00000101
00000000
00000101
,
00000000
00001100
00000000
00001100
,
00000000
00011000
00000000
00011000
,
00000000
00001000
01000000
00010000
,
10000000
01000000
00100000
00001000
,
00010000
00000010
00000100
00000001
,
00000010
00000100
00010000
00001000
,
01000000
00010000
00100000
01000000
,
10000000
00100000
01000000
00001000
,
00010000
00000100
00000010
00000001
,
00001000
00000100
00010000
00001000
,
01000000
00010000
10000000
00100000
,
02200000
00000000
00000000
03300000
,
00000000
00000000
00000000
00000000
,
00000000
00001000
00010000
00000000
,
00001000
00010000
00001000
00000000
,
00000000
00010000
00001000
00000000
,
00010000
00001000
00010000
00000000
,
00000000
00001000
00010000
00000000
,
00001000
00010000
00001000
00000000
,
01000000
00010000
01000000
00000000
,
00100000
10000000
00100000
00000000
,
10000000
01000000
10000000
00000000
,
00010000
00100000
00010000
00000000
,
01000000
00001000
01000000
00000000
,
00001000
00010000
00001000
00000000
,
00010000
00000100
00010000
00000000
,
00000100
00000010
00000100
00000000
,
00000010
00001001
00000000
00000110
,
00000000
00001001
00000000
00001100
,
00000000
00011000
00000000
01001000
,
00000000
01000000
00010000
00100000
,
01000000
01100000
00000000
10010000
,
00000000
00110000
00000000
00101000
,
00000000
00011000
00000000
00001010
,
00000000
00000010
00001000
00000001
,
00000100
00000101
00000000
00001001
,
00000000
00001100
00000000
00011000
,
00000000
01001000
00000000
01010000
,
00000000
01000000
00100000
10000000
,
01000000
01100000
00000000
00110000
,
00000000
00011000
00000000
00001010
,
00000000
00000110
00000000
00000101
,
00000000
00000001
00000010
00000100
,
00010000
00000000
00000000
00000000
;
