#TITLE:Splatterbrain;
#SUBTITLE:;
#ARTIST:Messy Mass & Baba Gnohm;
#TITLETRANSLIT:;
#SUBTITLETRANSLIT:;
#ARTISTTRANSLIT:;
#GENRE:;
#CREDIT:;
#MENUCOLOR:;
#METERTYPE:DDR;
#BANNER:Splatterbrain-bn.png;
#BACKGROUND:Splatterbrain-bg.png;
#LYRICSPATH:;
#CDTITLE:DDREncore2.png;
#MUSIC:Splatterbrain.mp3;
#OFFSET:-0.015;
#SAMPLESTART:60.445;
#SAMPLELENGTH:11.760;
#SELECTABLE:YES;
#LISTSORT:;
#BPMS:0.000=127.000;
#STOPS:;
#BGCHANGES:;
#ATTACKS:;

//---------------dance-single - Spork!----------------
#NOTES:
     dance-single:
     Spork!:
     Hard:
     8:
     0.492,0.474,0.212,0.212,0.286: // measure 1
0000
0000
0000
0000
,  // measure 2
0000
0000
0000
0000
,  // measure 3
0000
0000
0000
0000
,  // measure 4
0000
0000
0000
0000
,  // measure 5
0010
0000
0000
0010
0000
0000
2010
0000
0000
0000
3010
0000
0000
0000
0000
0000
,  // measure 6
0100
0000
0000
0100
0000
0000
2100
0000
0000
0000
3100
0000
0000
0000
0000
0000
,  // measure 7
0010
0000
0000
0010
0000
0000
0012
0000
0000
0000
0013
0000
0000
0000
0000
0000
,  // measure 8
0100
0000
0000
0100
0000
0000
0102
0000
0000
0000
0103
0000
0000
0000
0000
0000
,  // measure 9
0001
0010
0100
0100
1000
0010
0100
0000
,  // measure 10
0010
1000
0001
0001
0010
0001
0100
0000
,  // measure 11
0001
1000
0100
0010
0001
0100
0010
1000
,  // measure 12
0001
0000
0010
0000
0001
0000
0000
0000
0100
0000
0000
1001
0000
0000
0001
0000
,  // measure 13
1000
0010
0100
0100
0001
0010
0100
0000
,  // measure 14
0010
0001
1000
1000
0010
1000
0100
0000
,  // measure 15
0020
0130
0200
0310
,  // measure 16
0001
1000
0010
0000
0110
0000
1001
0000
,  // measure 17
0100
0000
0001
0010
0000
0010
0001
0000
0000
0100
0000
0010
1000
0000
0001
1000
,  // measure 18
0001
0002
0000
1003
2000
0000
3000
0000
,  // measure 19
0001
0010
0100
0001
1000
0010
0100
1000
,  // measure 20
0001
0002
0000
1003
2000
0000
3000
0000
,  // measure 21
0010
0000
1000
0100
0000
0100
1000
0000
0000
0010
0000
0100
0001
0000
1000
0001
,  // measure 22
1000
0000
0001
0000
0000
0100
0000
0010
0000
0000
0000
0000
1001
0000
0000
0000
,  // measure 23
0200
0320
1030
0001
,  // measure 24
0010
0000
0001
0000
1000
0000
0000
0000
0010
0000
0000
1001
0000
0000
1000
0000
,  // measure 25
0001
0100
0010
0010
,  // measure 26
1000
0100
0010
0010
,  // measure 27
0001
1000
0010
0010
,  // measure 28
1000
0001
0010
0010
,  // measure 29
1001
1001
1001
0000
0100
0000
0100
0000
,  // measure 30
1000
0010
0100
0100
,  // measure 31
0001
1000
0100
0100
,  // measure 32
1000
0000
0001
0000
0200
0000
0000
0300
,  // measure 33
0010
0000
0010
0000
1000
0001
0000
0001
0000
0000
0010
0000
0000
0100
0000
0000
,  // measure 34
0011
0000
1001
0000
0011
0000
0000
0000
1000
0000
0000
0010
0100
0000
0001
0000
,  // measure 35
0001
1000
0000
1000
0000
0000
0010
0100
0000
0100
0001
0000
1000
0000
0100
0000
,  // measure 36
0010
0000
0000
0010
0000
0000
0020
0000
0000
0000
0130
0000
0010
0000
0100
0000
,  // measure 37
0000
0000
0010
0000
0001
1000
0000
1000
0000
0000
0100
0000
0000
0010
0000
0000
,  // measure 38
1100
1001
1100
0000
0001
0100
0010
1000
,  // measure 39
1000
0001
0000
0001
0000
0000
0100
0010
0000
0000
1000
0000
0001
0000
0010
0000
,  // measure 40
0100
0000
0000
0100
0000
0000
0200
0000
0020
0000
0000
0000
0330
0000
0000
0000
,  // measure 41
0001
0010
1000
0010
0001
0010
1000
0010
,  // measure 42
0100
0001
0100
1000
0100
0001
0100
0000
,  // measure 43
1000
0001
0000
0001
0000
0000
0000
0000
1001
0000
0000
0100
0001
0000
0010
0000
,  // measure 44
0001
1000
0000
1000
0000
0000
0010
0100
0000
0000
0001
0000
0000
0000
0001
0000
,  // measure 45
1000
0010
0001
0010
1000
0010
0001
0010
,  // measure 46
0100
1000
0100
0001
0100
1000
0100
0000
,  // measure 47
0001
1000
0001
0000
0010
0000
0200
0000
0000
0000
0000
0000
0310
0000
0000
0000
,  // measure 48
0001
1000
0000
1000
0000
0000
0020
0000
0000
0000
0000
0000
0130
0000
0000
0000
,  // measure 49
1000
0000
0001
0000
0000
0010
0001
0010
0000
0001
1000
0000
0000
0010
0100
0010
,  // measure 50
0100
0010
0100
0000
0001
0000
0000
0000
0000
0010
0000
0001
0000
0000
1000
0000
,  // measure 51
0100
1000
0020
0000
0130
0000
1001
0000
,  // measure 52
1000
0100
0010
1000
0001
0100
0010
0001
,  // measure 53
0000
0000
1000
0000
0000
0010
1000
0010
0000
1000
0001
0000
0000
0010
0100
0010
,  // measure 54
0100
0010
0100
0000
1000
0000
0000
0000
0000
0010
0000
1000
0000
0000
0001
0000
,  // measure 55
0010
0010
0001
0100
0010
1000
0010
0010
,  // measure 56
1000
0100
0010
0001
0100
0010
0000
0010
,  // measure 57
1001
1001
1001
0200
0000
0000
1300
0000
,  // measure 58
0001
1000
0000
1000
0000
0000
0020
0000
0000
0000
0000
0000
0130
0000
0000
0000
,  // measure 59
0001
0010
0000
0010
0100
0000
0100
2000
0000
0000
0000
0000
3001
0000
0000
0000
,  // measure 60
1000
0001
1000
0000
0100
0000
0010
0000
2002
0000
0000
0000
3003
0000
0000
0000
;

//---------------dance-single - Spork!----------------
#NOTES:
     dance-single:
     Spork!:
     Beginner:
     1:
     0.126,0.184,0.079,0.053,0.000:
0000
0000
0000
0000
,
0000
0000
0000
0000
,
0000
0000
0000
0000
,
0000
0000
0000
0000
,
0000
0000
0000
1000
0000
0000
0000
0000
,
0000
0000
0000
0100
0000
0000
0000
0000
,
0000
0000
0000
0010
0000
0000
0000
0000
,
0000
0000
0000
0001
0000
0000
0000
0000
,
1000
0000
0000
0000
,
1000
0000
0000
0000
,
1000
0000
0000
0000
,
0010
0000
0100
0000
,
0001
0000
0000
0000
,
0001
0000
0000
0000
,
2002
0000
0000
0000
,
3003
0000
0000
0000
,
0010
0000
0000
0000
,
0100
0000
0100
0000
,
0000
0000
0000
0000
,
0010
0000
0010
0000
,
1000
0000
0000
0000
,
0001
0000
0000
0000
,
0010
0010
0000
0000
,
0110
0000
0000
0000
,
1000
0000
1000
0000
,
0001
0000
0001
0000
,
1000
0000
1000
0000
,
0001
0000
0001
0000
,
0100
0100
0100
0000
,
0010
0000
0010
0000
,
0100
0000
0100
0000
,
0010
0000
0010
0000
,
1001
0000
0000
0000
,
1000
0001
0000
0000
,
0100
0000
0010
0000
,
2000
0000
3000
0000
,
1001
0000
0000
0000
,
0001
1000
0000
0000
,
0100
0000
0010
0000
,
0002
0000
0003
0000
,
0001
0001
0000
0000
,
1000
0000
0100
0000
,
0001
0000
0000
0000
,
1001
0000
0100
0000
,
1000
1000
0000
0000
,
0001
0000
0100
0000
,
1000
0000
0000
0000
,
1001
0000
0000
0000
,
0001
0000
0100
0000
,
0001
0002
0000
0003
,
1001
0000
0100
0000
,
0010
0000
0100
0000
,
1000
0000
0010
0000
,
1000
2000
0000
3000
,
1001
0000
0100
0000
,
0010
0000
0100
0000
,
0001
0000
0000
0000
,
1000
0000
0000
0000
,
0001
0000
0000
0000
,
0010
0000
1001
0000
;

//---------------dance-single - Spork!----------------
#NOTES:
     dance-single:
     Spork!:
     Medium:
     5:
     0.329,0.342,0.106,0.167,0.040:
0000
0000
0000
0000
,
0000
0000
0000
0000
,
0000
0000
0000
0000
,
0000
0000
0000
0000
,
0010
0000
0000
0010
0000
0000
0020
0000
0000
0000
0000
0000
0030
0000
0000
0000
,
0001
0000
0000
0001
0000
0000
0002
0000
0000
0000
0000
0000
0003
0000
0000
0000
,
1000
0000
0000
1000
0000
0000
2000
0000
0000
0000
0000
0000
3000
0000
0000
0000
,
0010
0000
0000
0010
0000
0000
0020
0000
0000
0000
0000
0000
0030
0000
0000
0000
,
1000
0000
0001
0000
0010
0001
1000
0000
,
0001
0000
1000
0000
0010
1000
0001
0000
,
0010
0010
0001
1000
,
0010
0000
1000
0000
0010
0000
0000
0000
1000
0000
0000
0001
0000
0000
0010
0000
,
0001
0000
1000
0000
0100
1000
0001
0000
,
1000
0000
0001
0000
0100
0001
1000
0000
,
0100
0100
1000
0001
,
0100
0001
0100
0000
0010
0000
1001
0000
,
0100
0020
0000
0000
0000
0000
0030
0000
,
1000
0100
0000
0100
0020
0000
0030
0000
,
0001
0100
0010
1000
,
0001
0100
0000
0100
0020
0000
0030
0000
,
1000
0100
0010
1001
,
0001
0100
0010
1001
,
2000
3002
0003
1001
,
0010
0000
1000
0000
0100
0000
0000
0000
1000
0000
0000
0001
0000
0000
0100
0000
,
0010
0010
1000
0000
,
0010
0010
0100
0000
,
0010
0010
0001
0000
,
0010
0010
0010
0000
,
0100
0100
0001
0000
,
0100
0100
0010
0000
,
0100
0100
1000
0000
,
0100
0100
0200
0300
,
0001
1000
0001
0010
,
0010
0010
0010
0000
0100
0000
1001
0000
,
0100
1000
0001
0000
1000
0000
0100
0000
,
1000
0000
0000
0010
0000
0000
0100
0000
0000
0000
0100
0000
0000
0000
0010
0000
,
1000
0001
1000
0010
,
0010
0010
0010
0000
0100
0000
1001
0000
,
0100
0001
1000
0000
0100
1000
0001
0000
,
0001
0000
0000
0010
0000
0000
0100
0000
2000
0000
0000
0000
3000
0000
0000
0000
,
0001
0100
0010
0001
,
0010
0000
1000
0000
0001
1000
0001
0000
,
2000
0000
3010
1001
,
0100
1000
0010
0000
1000
0000
0001
0000
,
1000
0100
0010
1000
,
0010
0000
0001
0000
1000
0001
1000
0000
,
0002
0000
1003
0000
,
1001
0110
1001
0000
,
1000
0100
0010
0000
0100
0010
0001
0000
,
0010
0001
1000
0000
1000
0000
0001
0000
,
0100
0100
0010
0000
0100
0000
1001
0000
,
0001
0100
0010
1000
,
0001
0010
0100
0000
0010
0100
1000
0000
,
0100
1000
0001
0000
0001
0000
1000
0000
,
0020
0000
0230
0000
,
0310
1000
0001
0010
,
0001
0010
0100
2000
0000
0000
3010
0000
,
1000
0000
0000
0001
0000
0000
0200
0000
0000
0000
0000
0000
0310
0000
0000
0000
,
0100
0001
0010
0000
0100
1000
0010
0000
,
1000
0001
2002
3003
;

//---------------dance-single - Spork!----------------
#NOTES:
     dance-single:
     Spork!:
     Easy:
     3:
     0.217,0.263,0.071,0.273,0.000:
0000
0000
0000
0000
,
0000
0000
0000
0000
,
0000
0000
0000
0000
,
0000
0000
0000
0000
,
0010
0000
0000
0020
0000
0000
0030
0000
,
1000
0000
0000
2000
0000
0000
3000
0000
,
0001
0000
0000
0002
0000
0000
0003
0000
,
0010
0000
0000
0020
0000
0000
0030
0000
,
0001
0000
0001
1000
,
0100
0000
1000
0001
,
0100
0000
0001
0000
,
1000
0100
0010
0001
,
1000
0000
1000
0001
,
0010
0000
0001
1000
,
0020
0000
0230
0000
,
0301
0000
1001
0000
,
2000
0000
0000
3000
,
0200
0000
0020
0330
,
0100
0000
1000
0000
,
0020
0000
0200
0330
,
0001
0000
0001
0000
,
1000
0000
1000
0000
,
0002
2003
3000
1001
,
0010
0000
0010
0000
,
0001
0000
0001
0000
,
1000
0000
1000
0000
,
0001
0000
0001
0000
,
1000
0000
1000
0000
,
0100
0000
0100
0000
,
0010
0000
0010
0000
,
0100
0000
0100
0000
,
0010
0000
0020
0030
,
0100
0000
1001
0000
,
0010
1000
0000
1000
,
0001
0000
0010
0000
,
0200
0000
0000
0300
,
0010
0000
1001
0000
,
0100
0001
0000
0001
,
1000
0000
0100
0000
,
0020
0000
0000
0030
,
0001
0100
0010
0000
,
0010
0100
0001
0000
,
0020
0000
0130
0100
,
1000
0000
0001
0000
,
1000
0010
0100
0000
,
0100
0010
1000
0000
,
0200
0000
0320
0000
,
0130
0000
1001
0000
,
1000
0100
1000
0100
,
0010
0010
0000
0010
,
0002
0000
0203
0000
,
0320
0000
2030
0000
,
3001
0010
0001
0010
,
0100
0100
0000
0100
,
2000
0000
3020
0000
,
0230
0000
0302
0000
,
0013
1001
0000
1001
,
0100
0010
1000
1000
,
0002
0000
2003
0000
,
3001
1000
2002
3003
;

//---------------dance-double - Spork!----------------
#NOTES:
     dance-double:
     Spork!:
     Easy:
     3:
     0.207,0.237,0.150,0.212,0.000:
00000000
00000000
00000000
00000000
,
00000000
00000000
00000000
00000000
,
00000000
00000000
00000000
00000000
,
00000000
00000000
00000000
00000000
,
00000000
00000000
00000000
00200000
00000000
00000000
00300000
00000000
,
00000000
00000000
00000000
00002000
00000000
00000000
00003000
00000000
,
00000000
00000000
00000000
00020000
00000000
00000000
00030000
00000000
,
00000000
00000000
00000000
00000020
00000000
00000000
00000030
00000000
,
00010000
00000000
01000000
00000000
,
00001000
00000000
00000100
00000000
,
00010000
00000000
00100000
00000000
,
00001000
00000000
00000110
00000000
,
00001000
00000000
00000100
00000000
,
00010000
00000000
01000000
00000000
,
00001000
00000000
00000010
00000000
,
00010000
00000000
01100000
00000000
,
20000000
00000000
00000000
30000000
,
00200000
00000000
02000000
03300000
,
00010000
00100000
00001000
00010000
,
00000200
00000000
00000020
00000330
,
00001000
00000000
00000010
00000000
,
00010000
00000000
00001000
00000000
,
02000000
03200000
00300000
10010000
,
10000000
00000000
01000000
00000000
,
00100000
00100000
00100000
00000000
,
00001000
00001000
00001000
00000000
,
01000000
01000000
01000000
00000000
,
00001000
00010000
00011000
00000000
,
00000010
00000010
00000010
00000000
,
00010000
00010000
00010000
00000000
,
00000100
00000100
00000100
00000000
,
00010000
00001000
00020000
00030000
,
00000010
00000000
00001001
00000000
,
00000100
00000001
00000000
00000001
,
00001000
00000000
00010000
00000000
,
20000000
00000000
31000000
00000000
,
00100000
00000000
10010000
00000000
,
01000000
10000000
00000000
10000000
,
00010000
00000000
00001000
00000000
,
00000002
00000000
00000103
00000000
,
00001001
00000000
00000110
00000000
,
00001000
00000000
00010000
00000000
,
00200000
00000000
02300000
00000000
,
03020000
00000000
00130000
00000000
,
10010000
00000000
01100000
00000000
,
00010000
00000000
00001000
00000000
,
00000020
00000000
00000230
00000000
,
00002300
00000000
00003000
00000000
,
00000001
00000000
00001001
00000000
,
00000010
00000020
00000000
00010030
,
00011000
00000000
00001100
00000000
,
00011000
00000000
01010000
00000000
,
10000000
00000000
10010000
00000000
,
00100000
00200000
00000000
00301000
,
00010000
00000000
01000000
00000000
,
00010000
00000000
00001000
00000000
,
00000100
00000100
00000000
00000001
,
00000000
00001000
00000000
00000100
,
00000010
00000000
00001000
00000000
,
00010000
00001000
00022000
00033000
;

//---------------dance-double - Spork!----------------
#NOTES:
     dance-double:
     Spork!:
     Medium:
     5:
     0.300,0.369,0.132,0.273,0.022:
00000000
00000000
00000000
00000000
,
00000000
00000000
00000000
00000000
,
00000000
00000000
00000000
00000000
,
00000000
00000000
00000000
00000000
,
01000000
00000000
00000000
01000000
00000000
00000000
02000000
00000000
00000000
00000000
03000000
00000000
00000000
00000000
00000000
00000000
,
00100000
00000000
00000000
00100000
00000000
00000000
00200000
00000000
00000000
00000000
00300000
00000000
00000000
00000000
00000000
00000000
,
10000000
00000000
00000000
10000000
00000000
00000000
20000000
00000000
00000000
00000000
30000000
00000000
00000000
00000000
00000000
00000000
,
00010000
00000000
00000000
00010000
00000000
00000000
00020000
00000000
00000000
00000000
00030000
00000000
00000000
00000000
00000000
00000000
,
00010000
00100000
00001000
00001000
,
01000000
00001000
00010000
00010000
,
00000010
00000100
00000010
00000010
,
00001000
00000000
00000100
00000000
00000010
00000000
00000000
00000000
00000100
00000000
00000000
00001000
00000000
00000000
00000001
00000000
,
00001000
00000010
00010000
00010000
,
00000100
00010000
00001000
00001000
,
00110000
00011000
00002000
01000000
,
00013000
01000000
10000000
00000000
00100000
00000000
10010000
00000000
,
02000000
00200000
00000000
03000000
00300000
00000000
00000000
00000000
,
10000000
01000000
00000000
01000000
00200000
00000000
00000000
00000000
,
00301000
00010000
00000010
00000100
,
00000001
00000010
00000000
00000010
00000200
00000000
00000000
00000000
,
00001300
00000001
00000100
00000000
,
00000010
00010000
00001000
00000000
,
00000020
00000230
00000300
00001001
,
00000100
00010000
00001000
01000000
00100000
00000000
10000000
00000000
,
20000000
00000000
30000000
00000000
,
00020000
00000000
00030000
00000000
,
00002000
00000000
00003000
00000000
,
00000002
00000000
00000003
00000000
,
00000100
00000010
00000100
00000000
00002000
00000000
00000000
00000000
,
00003010
00000010
00000002
00000000
,
00000103
00000010
00020000
00000000
,
00031000
00000010
00000200
00000000
,
00000310
00000001
00000010
00000100
00000010
00000000
00000001
00000000
,
00000100
00001001
00000010
00010000
,
00001000
00100000
00010000
00000000
00100000
00010000
10000000
00000000
,
00100000
00200000
00300000
10010000
,
01000000
10000000
01000000
00100000
01000000
00000000
10000000
00000000
,
00100000
10010000
01000000
00001000
,
00010000
00000010
00001000
00000000
00000010
00001000
00000001
00000000
,
00000010
00000110
00002002
00003003
,
00000010
00000000
00001000
00000000
,
01000000
00000000
00010000
00000000
,
00000020
00000000
00000000
00000030
00000100
00000000
00001001
00000000
,
00000010
00000000
00010000
00000000
,
00001000
00000000
00000100
00000000
,
00010000
00000000
01000000
00000000
,
00002000
00000000
00013000
00000000
,
00100000
00000000
10010000
00000000
,
10000000
01000000
00000000
01000000
00100000
01000000
00000000
01000000
,
00100000
00010000
00100000
00000000
00000000
00001000
00010000
00000000
,
00022000
00033000
00011000
00000100
,
00010000
00001000
00000100
00000100
,
00000001
00000010
00000000
00000010
00000100
00000010
00000000
00000010
,
00000100
00001000
00000100
00000000
00000000
00010000
00001000
00000000
,
00000100
00000000
00010000
00000000
,
01000000
00000000
00001000
00000000
,
00000100
00000100
00000100
00000000
00000000
00000000
00001001
00000000
,
00000020
00000000
00010030
00000000
,
02000000
00000000
03200000
00000000
,
00310000
10000000
20020000
30030000
;

//---------------dance-double - Spork!----------------
#NOTES:
     dance-double:
     Spork!:
     Hard:
     8:
     0.451,0.527,0.106,0.141,0.212:
00000000
00000000
00000000
00000000
,
00000000
00000000
00000000
00000000
,
00000000
00000000
00000000
00000000
,
00000000
00000000
00000000
00000000
,
00000010
00000000
00000000
00001000
00000000
00000000
00000100
00000000
00000000
00000000
00001000
00000000
00000001
00000000
00000000
00000000
,
00000100
00000000
00000000
00001000
00000000
00000000
00010000
00000000
00000000
00000000
00100000
00000000
01000000
00000000
00000000
00000000
,
01000000
00000000
00000000
00010000
00000000
00000000
00100000
00000000
00000000
00000000
00010000
00000000
10000000
00000000
00000000
00000000
,
00100000
00000000
00000000
00010000
00000000
00000000
00002000
00000000
00000000
00000000
00000000
00000000
00003000
00000000
00000000
00000000
,
00010000
01000000
10000000
01000000
00100000
00001000
00010000
00000000
,
00001000
00000100
00000001
00000100
00000010
00010000
00001000
00000000
,
00000010
00000100
00001000
00000001
00000100
00000010
00010000
00000100
,
00001000
00000000
00000010
00000000
00012000
00000000
00000000
00000000
00013000
00000000
00000000
00000100
00000000
00000000
00010000
00000000
,
00001000
00000010
00000001
00000010
00000100
00010000
00001000
00000000
,
00010000
00100000
10000000
00100000
01000000
00001000
00010000
00000000
,
01000000
00100000
00010000
00000000
00000100
00000010
00001000
00000000
,
01000000
10000000
00010000
00000000
01000000
00000000
10010000
00000000
,
00100000
00200000
00000000
00000000
00000000
00000000
00300000
00000000
,
10000000
00010000
00000000
00010000
00002000
00000000
00000000
00000000
,
00013000
00100000
10000000
01000000
00100000
00001000
00010000
01000000
,
10000000
00010000
00000000
00010000
00002000
00000000
00000000
00003000
,
00000010
00000000
00000000
00000100
00000000
00000000
00000010
00000000
00000000
00000001
00000000
00000001
00000100
00000000
00000100
00000000
,
00000010
00000000
00001000
00000000
00000000
00100000
00000000
00010000
00000000
00000000
00000000
00000000
00011000
00000000
00000000
00000000
,
00020000
02030000
03000000
00110000
,
01000000
00000000
10000000
00000000
00100000
00000000
00010000
00000000
00001000
00000000
00000000
00001000
00000000
00000000
00001000
00000000
,
00010000
00010000
01000000
00100000
,
00001000
00001000
00000100
00000000
,
00001000
00001000
00000010
00000100
,
00010000
00010000
00100000
00000000
,
00011000
00011000
00011000
00000000
01000000
00000000
00100000
00000000
,
00001000
00000100
00000001
00000000
,
00000010
00001000
00010000
00001000
,
01000000
00100000
00020000
00000000
,
00130000
10000000
01000000
00100000
00001000
00010000
01000000
00100000
,
00001000
00000000
00001000
00000000
00001000
00000000
00010000
00000000
00001000
00000000
00000000
00001000
00000010
00000000
00000100
00000000
,
00001000
00000001
00000100
00000000
00000100
00001000
00010000
00000000
,
00001000
00000000
00000000
00000100
00000000
00000000
00000002
00000000
00000000
00000000
00000000
00000000
00001003
00000000
00001000
00000000
,
00000000
00000001
00000010
00000100
00010000
00001000
00000010
00000100
,
00010000
00010000
00010000
00001000
00010000
00100000
01000000
00010000
,
10000000
01000000
00000000
01000000
00000000
00000000
00100000
01000000
00000000
10000000
00010000
10000000
00010000
10000000
00000000
00000000
,
00100000
00000000
00000000
00010000
00000000
00000000
00001000
00000000
00000020
00000000
00000000
00000000
00000000
00000000
00000030
00000000
,
00000100
00001000
00000010
00000100
00000001
00000000
00001000
00000000
,
00000100
00010000
00001000
00000000
00001000
00000010
00000001
00000000
,
00000100
00000001
00000000
00000001
00000000
00000000
00000000
00000000
00000010
00000100
00000000
00000100
00001000
00000100
00001000
00000000
,
00000001
00000100
00001000
00000000
00001000
00010000
00000000
00010000
,
00100000
01000000
00010000
10000000
01000000
00000000
10010000
00000000
,
00100000
00001000
00010000
00000000
00010000
01000000
10000000
00000000
,
00010000
10000000
00010000
00000000
01000000
00000000
00200000
00000000
00000000
00000000
00000000
00000000
00300000
00000000
00000000
00000000
,
10000000
00010000
00000000
00010000
00000000
00000000
02000000
00000000
00000000
00000000
00000000
00000000
03000000
00000000
00000000
00000000
,
00010000
00100000
10000000
00100000
00001000
00010000
00000010
00000100
,
00001000
00000000
00000100
00000000
00000001
00000000
00000000
00000000
00000000
00000010
00000000
00000100
00000000
00000000
00001000
00000000
,
00000010
00000100
00000010
00000000
00010000
00000000
00001000
00010000
00000000
00010000
00001000
00000000
00000000
00000000
01000000
00000000
,
00010000
00100000
00000000
00100000
00010000
00000000
01000000
00000000
00100000
00000000
00100000
10000000
00000000
00000000
10000000
00000000
,
00010000
01000000
10000000
01000000
00001000
00010000
00000100
00000010
,
00001000
00000000
00000010
00000000
00000001
00000000
00000000
00000000
00000000
00000100
00000000
00000010
00000000
00000000
00001000
00000000
,
00000001
00000100
00000001
00000000
00000010
00000000
00000100
00010000
00000000
00010000
00001000
00000000
00000000
00000000
00001000
00000010
,
00000000
00000010
00000000
00000010
00000001
00000010
00000001
00000000
00000100
00000000
00000010
00000000
00000000
00000000
00000010
00000000
,
00001001
00001001
00001001
00000200
00000000
00000000
00010300
00000000
,
00010000
00001000
00000000
00001000
00000000
00000000
00000020
00000000
00000000
00000000
00000000
00000000
00000130
00000000
00000000
00000000
,
00000001
00000100
00001000
00000000
00010000
01000000
10000000
00000000
,
00010000
10000000
00010000
00000000
01000000
00000000
00100000
00000000
20020000
00000000
00000000
00000000
30030000
00000000
00000000
00000000
;

//---------------dance-single - ----------------
#NOTES:
     dance-single:
     :
     Challenge:
     11:
     0.842,0.925,0.494,0.273,1.000:
M000
0000
0000
0M00
0000
0000
000M
0000
0000
0000
M00M
0000
0000
0000
0000
0000
,
M000
0000
0000
00M0
0000
0000
000M
0000
0000
0000
M00M
0000
0000
0000
0000
0000
,
0M00
0000
0000
M000
0000
0000
00M0
0000
0000
0000
00MM
0000
0000
0000
0000
0000
,
0M00
0000
0000
00M0
0000
0000
000M
0000
0000
0000
MM00
0000
0000
0000
000M
0000
,
0M00
0000
0001
M000
0000
0000
10M0
0200
0000
0000
03MM
0000
0000
0000
0000
1000
,
001M
0000
0000
0000
0100
0000
00M0
0000
0000
0000
0000
0000
0M01
0000
2000
0000
0000
0000
0000
0000
30MM
0000
0000
0000
0000
0000
0000
0000
0010
1000
0000
0000
,
0M01
0000
0000
0000
0010
0000
M000
0000
0000
0000
0000
0000
010M
0000
0020
0000
0000
0000
0000
0000
M03M
0000
0000
0000
0100
1000
0000
0000
0000
0000
0001
0000
,
1M00
0000
0000
00M0
0000
0100
100M
0020
0000
0000
MM30
0000
0000
0000
0000
0000
,
1000
0100
0010
0100
1000
0001
0010
0001
0100
0010
1000
0001
0100
0000
0000
0010
,
1000
0000
0000
0000
0001
0000
0100
0010
0100
0000
0001
0000
1000
0000
0100
0000
1000
0000
0100
0010
0001
0000
1000
0000
0010
0000
0100
0000
0001
0000
1000
0100
,
1000
0000
0010
0100
0001
0000
0010
0000
0001
0000
1000
0001
1000
0000
0001
0010
0100
0000
1000
0000
0001
0000
0000
0000
0100
0000
0010
0000
0001
0000
0010
0000
,
0100
0000
0001
1000
0001
0000
0100
0000
0020
0000
0000
0000
0000
0000
0030
0000
0010
0000
1000
0001
1000
0000
0010
0000
0100
0000
0000
0000
0010
1000
0010
0000
,
0100
0000
0101
0000
0000
0010
1000
0001
0020
0000
0100
0030
0020
0000
0001
0000
,
0030
0000
0001
0000
1000
0000
0010
0000
0100
0001
0100
0000
0010
0000
1000
0000
0100
0000
1000
0000
0002
0000
0000
0000
0103
0000
0010
0000
1000
0000
0100
0000
,
1000
0000
0001
0000
0100
0000
0001
0000
0020
0000
0000
0000
0230
0000
0000
0000
0301
0000
0100
0000
0010
0000
0001
0000
1000
0000
0010
0000
0100
0001
0100
0000
,
0010
1000
0200
0000
030M
0000
M000
0M00
,
1002
0200
0000
0000
0303
0000
0101
0000
,
2001
0000
0200
0000
3300
0000
0012
0000
0200
0000
0303
0000
0010
0100
1000
0100
,
0010
1000
0001
0010
0100
0100
0010
0001
0100
0010
0001
0010
1000
0001
0010
0100
,
2000
0000
0000
0000
3020
0000
0000
0000
0130
0000
0001
1000
0001
0000
1000
0000
0010
0000
0000
0000
0000
0000
0000
0000
0100
0001
0100
0000
0010
0000
0000
0000
,
1000
0100
0000
0010
0100
1000
0001
0100
0010
0001
0010
1000
0100
0000
0000
1000
,
0001
0000
0000
0000
0000
0000
0101
0000
0000
0000
0000
0000
1001
0000
0000
0000
0001
0000
0010
0001
0010
0000
0001
0000
1000
0000
0010
0000
0000
0000
0100
0001
,
0100
0000
0000
0000
0010
0000
1000
0000
0100
0010
0001
0000
1000
0000
0001
0000
0100
0000
0010
0000
1000
0000
0000
0000
0100
0000
0010
0000
1000
0000
0010
0000
,
0001
0000
0000
0000
0001
0000
1000
0000
0010
0000
1000
0000
0100
0000
0010
0000
0001
0000
0100
0010
1000
0000
0100
0000
0000
0000
0000
0000
1000
0000
0001
0000
,
0MM0
0000
0100
0010
M00M
0000
1000
0001
0MM0
0000
0100
0010
M00M
0000
1000
0100
,
00MM
0000
0010
0001
MM00
0000
0100
0010
M00M
0000
0100
1000
00MM
0000
0100
0001
,
M0M0
0000
0001
1000
0MM0
0000
1000
0100
00MM
0000
0100
0010
M00M
0000
0010
0001
,
MM00
0000
0001
0100
M0M0
0000
0100
1000
00MM
0000
1000
0010
0M0M
0000
0010
0001
,
MM10
0001
0100
0010
1000
0000
0001
0100
0001
0000
0000
0000
1001
0000
0000
0000
,
0010
1000
0000
1010
0000
0000
0100
0001
1000
0000
0000
0000
1001
0000
0000
0000
,
0001
0010
0000
0011
0000
0000
0010
0100
1000
0000
0000
0000
1001
0000
0000
0000
,
0001
0000
0100
0000
0000
0000
0100
0000
0010
1000
0010
0000
1000
0000
0010
0000
0200
0000
0000
0000
0000
0000
0000
0000
0302
0000
0000
0000
0000
0000
0000
0000
,
0013
0100
1000
0000
0100
0100
1000
0001
0100
0000
0010
0000
0100
0002
0000
0003
,
0011
0000
0110
0000
1100
0000
1000
0000
0010
0000
0100
1000
0100
0010
0100
0000
,
0001
1000
0000
1200
0000
0000
0310
0001
0100
1000
0100
0010
1000
0100
0000
0000
,
0011
0000
0000
0000
0001
0000
1001
0000
0000
0000
1000
0000
1010
0000
0000
0000
0100
0000
0001
0000
0010
0000
0001
0000
1000
0000
0001
1000
0001
1000
0001
1000
,
0001
0000
0100
0000
0010
0000
0000
0000
1000
0000
0100
1000
0100
0000
0010
0000
0001
0000
0000
0000
0100
0000
0000
0000
0010
0000
1000
0000
0000
0000
0000
0000
,
1100
0000
0110
0000
0011
0000
0001
0000
0100
0010
0001
0000
0010
1000
0100
0100
,
0100
0010
0000
0012
0000
0000
1003
0010
0000
0001
0010
0100
0001
1000
0100
0000
,
1100
0000
1000
1010
0000
0100
0101
0000
0001
0000
0000
0000
0010
0000
0010
0000
,
0100
1000
0100
1000
0001
0100
0010
1000
1000
0000
0000
0000
1M11
0000
0000
0000
,
0001
1000
0001
0000
1000
0000
0010
0000
0100
0000
0000
0000
0001
0000
1000
0000
0100
0000
0000
0000
0000
0000
0000
0000
111M
0000
0000
0000
0000
0000
0000
0000
,
0010
0001
0000
1000
0000
0000
0000
0000
0010
0000
0000
0000
1M11
0000
0000
0000
,
0100
0001
0100
0000
0001
0000
1000
0000
0100
0000
0000
0000
0010
0000
0000
0000
0001
0000
0000
0000
0000
0000
0000
0000
111M
0000
0000
0000
0000
0000
0000
0000
,
0110
0000
1010
0000
1100
0000
0010
0001
0100
0000
0000
0000
M111
0000
0000
0000
,
0010
0000
0000
0000
0000
0000
1000
0000
0000
0000
0000
0000
0010
0000
0000
0000
0000
0000
0000
0000
0000
0000
0000
0000
1000
0000
0000
0000
0000
0000
0000
0000
0000
0000
0000
0000
0100
0000
0000
0000
0000
0000
0000
0000
0000
0000
0000
0000
0010
0000
0000
0000
0000
0000
0000
0000
0000
0000
0000
0000
0000
0000
0000
0000
0000
0000
0000
0000
0000
0000
0000
0000
0000
0000
0000
0000
0000
0000
0000
0000
0011
0000
0000
0000
0000
0000
0000
0000
0000
0000
0000
0000
0000
0000
0000
0000
0000
0000
0000
0000
0000
0000
0000
0000
0000
0000
0000
0000
0000
0000
0000
0000
1001
0000
0000
0000
0000
0000
0000
0000
0000
0000
0000
0000
0000
0000
0000
0000
0000
0000
0000
0000
0000
0000
0000
0000
0000
0000
0000
0000
0000
0000
0000
0000
1M11
0000
0000
0000
0000
0000
0000
0000
0000
0000
0000
0000
0000
0000
0000
0000
0000
0000
0000
0000
0000
0000
0000
0000
0000
0000
0000
0000
0000
0000
0000
0000
0000
0000
0000
0000
0000
0000
0000
0000
0000
0000
0000
0000
0000
0000
0000
0000
,
1010
0000
0000
0000
1001
0000
0000
0000
1100
0000
0000
0000
0010
0000
0001
0000
0100
0000
0001
0000
0000
0000
0000
0000
1000
0001
1000
0000
0000
0000
0000
0000
,
0010
0100
0010
0000
1000
0000
0100
0000
0010
0000
0000
0000
0011
0000
0000
0000
0000
0000
0000
0000
0100
0001
0000
0000
0100
0000
0100
0000
0000
0000
0000
0000
,
0001
1000
0001
0000
0001
0010
0100
1000
0000
1000
0010
0000
0100
1000
0100
0010
,
1000
0100
0010
0000
2200
0000
0000
0000
3300
1100
0000
1001
0000
0000
0101
0000
,
0010
1000
0001
0000
1000
0000
1M11
0000
,
0001
0000
0010
0001
0010
0000
0100
0000
1000
0100
1000
0000
0001
0000
0000
0000
0100
0000
0010
1000
0010
0000
0100
0000
0001
0000
0000
0000
1000
0000
0001
0000
,
0010
0000
1100
0000
0010
0001
0100
0010
0000
0010
1000
0000
1000
0001
0010
0001
,
0100
1000
0100
0000
0202
0000
0000
0000
0303
0101
0000
1001
0000
0000
1100
0000
,
0010
0001
0100
0100
0010
1000
0100
0100
0000
1000
0010
0100
0001
0001
0010
0100
,
1000
0000
0001
0000
0100
0000
0010
0000
1000
0000
0010
0000
0100
0000
0001
0000
0000
0000
0010
0000
0200
0000
0000
0000
1300
0000
0100
1000
0100
0000
0010
0000
,
0001
1010
0101
0000
0010
0000
M111
0000
,
0001
1000
0001
0000
0000
0000
1000
0000
0100
0000
0000
0000
0000
0000
0000
0000
0010
0000
0000
0000
0000
0000
0000
0000
M111
0000
0000
0000
0000
0000
0000
0000
,
0001
0000
0010
0000
0000
0000
0100
0000
1000
0000
0100
0010
0001
0000
1000
0000
0010
0000
0100
0001
0100
0000
0000
0000
0010
0000
1000
0000
1000
0000
0000
0000
,
0001
0010
0010
0001
0100
0100
0010
0000
2002
0000
0000
0000
0000
0000
0000
0000
,
3003
0000
0000
0000
;
