#TITLE:Something About You;
#SUBTITLE:;
#ARTIST:Lucas Prata ft. George Lamond;
#TITLETRANSLIT:;
#SUBTITLETRANSLIT:;
#ARTISTTRANSLIT:;
#GENRE:;
#CREDIT:;
#MENUCOLOR:;
#METERTYPE:DDR;
#BANNER:Something About You-bn.png;
#BACKGROUND:Something About You-bg.png;
#LYRICSPATH:Something About You.lrc;
#CDTITLE:ddrencorecdtitle.png;
#MUSIC:Something About You.mp3;
#OFFSET:-0.008;
#SAMPLESTART:51.692;
#SAMPLELENGTH:12.000;
#SELECTABLE:YES;
#LISTSORT:;
#BPMS:0.000=130.000;
#STOPS:;
#BGCHANGES:;
#ATTACKS:;

//---------------dance-single - ----------------
#NOTES:
     dance-single:
     :
     Beginner:
     1:
     0.093,0.130,0.029,0.000,0.000:
0000
0000
0000
0000
,
0000
0000
0000
0000
,
0000
0000
0000
0000
,
0000
0000
0000
0000
,
0001
0000
0000
0000
,
0001
0000
0000
0000
,
1000
0000
0000
0000
,
1000
0000
0000
0000
,
0010
0000
0000
0000
,
0010
0000
0000
0000
,
0100
0000
0000
0000
,
1001
0000
0000
0000
,
0001
0000
0000
0000
,
0010
0000
0001
0000
,
1000
0000
0000
0000
,
0010
0000
1000
0000
,
0100
0000
0100
0000
,
1000
0000
0010
0000
,
0100
0000
0000
0000
,
0100
0000
0001
0000
,
1000
0000
0000
0000
,
0001
0000
1000
0000
,
0010
0000
0000
0000
,
0100
0000
0001
0000
,
0010
0000
0100
0000
,
1000
0000
0010
0000
,
0100
0000
0000
0000
,
0010
0000
1000
0000
,
0001
0000
0000
0000
,
1001
0000
0000
0000
,
0100
0000
0000
0000
,
0010
0000
0000
0000
,
0100
0000
0000
0000
,
1000
0000
0001
0000
,
0010
0000
0000
0000
,
0100
0000
0000
0000
,
0010
0000
0000
0000
,
0001
0000
1000
0000
,
0010
0000
0000
0000
,
0100
0000
0000
0000
,
0010
0000
0000
0000
,
1000
0000
0001
0000
,
0100
0000
0000
0000
,
0010
0000
0000
0000
,
0100
0000
0000
0000
,
0001
0000
0000
0000
,
1000
0000
0000
0000
,
1000
0000
0000
0000
,
0100
0000
0000
0000
,
0100
0000
0000
0000
,
0010
0000
0000
0000
,
0010
0000
0000
0000
,
0001
0000
0000
0000
,
1000
0000
0000
0000
,
1001
0000
0000
0000
;

//---------------dance-single - ----------------
#NOTES:
     dance-single:
     :
     Easy:
     4:
     0.235,0.266,0.164,0.039,0.000:
0000
0000
0000
0000
,
0000
0000
0000
0000
,
0000
0000
0000
0000
,
0000
0000
0000
0000
,
1000
0100
0000
0010
,
0001
0100
0000
0010
,
1000
0001
0000
0010
,
0100
1000
0000
0010
,
1001
0000
0100
0001
,
0011
0000
0100
1000
,
1010
0000
0010
0100
,
0001
0001
1000
1000
,
0100
0000
1000
0000
,
0100
0000
1000
0010
,
0100
0000
0010
0000
,
0100
0001
0100
0001
,
0010
0000
0100
0000
,
0010
0000
0001
1000
,
0100
0000
0010
0000
,
0100
0000
1000
0010
,
1001
0000
0100
0000
,
0010
0000
1000
0100
,
1001
0000
0010
0000
,
0001
0100
0010
1000
,
1001
0000
0010
0001
,
0100
0000
0010
1000
,
1001
0000
0010
0000
,
1000
0100
0010
0001
,
2002
0000
0000
3003
,
0110
0000
0000
0000
,
0001
0010
0001
0100
,
0010
1000
0001
0010
,
0100
0000
0010
0000
,
0100
0000
0100
1000
,
1000
0010
1000
0100
,
0010
0001
1000
0010
,
0100
0000
0010
0000
,
0100
0001
0010
0100
,
1000
0001
1000
0010
,
0100
0001
1000
0100
,
0010
0000
0100
0000
,
0010
0000
0010
0001
,
0001
1000
0001
0100
,
0010
1000
0001
0010
,
0100
0000
0010
0000
,
1001
0000
0001
1000
,
1100
0000
1000
0001
,
0101
0000
0010
1000
,
1001
0000
0010
0000
,
0100
0001
0100
0001
,
1100
0000
0100
1000
,
0101
0000
0010
0100
,
1001
0000
0001
0000
,
0010
0100
0010
0100
,
2002
0000
0000
0000
,
3003
0000
0000
0000
;

//---------------dance-single - ----------------
#NOTES:
     dance-single:
     :
     Medium:
     6:
     0.315,0.346,0.077,0.203,0.000:
0000
0000
0000
0000
,
0000
0000
0000
0000
,
0000
0000
0000
0000
,
0000
0000
0000
0000
,
0001
0100
0010
0100
,
1000
0100
0010
0100
,
0001
0010
0100
0010
,
1000
0010
0100
0010
,
0002
0000
0013
0001
,
2000
0000
3010
0100
,
0002
0000
0103
0001
,
1000
0001
1000
0001
0100
0010
0100
0010
,
1000
0010
1000
0001
,
0100
0000
0001
0000
0010
0000
0100
1000
,
0001
0000
0100
0000
0001
0000
1000
0010
,
0100
0000
0001
0000
1000
0000
0001
1000
,
0010
0000
0100
0000
0001
1000
0001
0000
,
0010
0000
0001
0000
1000
0000
0100
1000
,
0010
0000
0100
0000
0001
0000
1000
0100
,
0010
0000
0100
0000
1000
0000
0001
0100
,
0020
0100
0000
1030
,
0001
0000
0010
0000
0001
0000
1000
0010
,
0200
0000
0010
0000
0000
0000
0301
1000
,
0100
0000
0010
0000
0001
0000
0100
0001
,
1000
0000
0100
0000
1000
0010
0100
0000
,
0001
0000
0001
0000
1000
0000
0010
1000
,
0001
0000
0010
0000
0001
0000
0100
0010
,
0100
0001
1000
0100
,
0220
0000
0000
0330
,
1001
0000
0000
0000
,
1000
0000
0010
0000
0100
0000
0001
0010
,
0000
0000
0010
0100
0000
0000
0100
2000
,
0000
0000
0000
0002
3000
0000
0000
0000
,
0103
0001
1000
0000
0100
1000
0001
0000
,
0001
0000
0100
0000
0010
0000
1000
0100
,
0000
0000
0100
0010
0000
0000
0010
0002
,
0000
0000
0003
0000
,
1000
0001
0100
0000
0001
0100
0010
0000
,
1000
0000
0100
0000
1000
0000
0010
0100
,
0000
0000
0010
1000
0000
0000
0100
0020
,
0000
0000
0000
0200
0030
0000
0000
0000
,
0310
0001
1000
0000
0100
1000
0001
0000
,
0010
0000
0001
0000
1000
0000
0010
0100
,
0000
0000
0010
1000
0000
0000
0100
0020
,
0000
0000
0031
0100
,
0010
0000
0000
0000
0010
1000
0010
1000
,
0002
0000
0013
0001
,
2000
0000
3010
1000
,
0002
0000
0013
0000
,
0001
0010
0100
1000
,
2010
0100
0000
3001
,
0102
0010
0000
1003
,
2001
0010
0000
3001
,
0100
1001
0010
1001
,
2002
0000
0000
0000
,
3003
0000
0000
0000
;

//---------------dance-single - ----------------
#NOTES:
     dance-single:
     :
     Hard:
     7:
     0.380,0.399,0.155,0.184,0.034:
0000
0000
0000
0000
,
0000
0000
0000
0000
,
0000
0000
0000
0000
,
0000
0000
0000
0000
,
1000
0000
0010
0000
1000
0100
0010
0000
,
0001
0000
0100
0000
0001
0010
0100
0000
,
1000
0000
0001
0000
1000
0010
0100
0000
,
0001
0000
1000
0000
0001
0100
0010
0000
,
0102
0000
0013
0001
,
2100
0000
3010
0100
,
1002
0000
0103
0010
,
1000
0100
0010
0001
0100
0010
0100
0010
,
1000
0010
0100
0001
,
0010
0000
0000
0000
0100
0000
0000
0000
0010
0000
0000
0001
0000
0000
1000
0000
,
0001
0000
0100
0000
0010
0000
1000
0100
,
1000
0000
0010
0000
0100
0001
0010
0001
,
0100
0000
0010
0000
1000
0001
0100
0000
,
0010
0000
0000
0000
1000
0000
0000
0000
0001
0000
0000
0010
0000
0000
0001
0000
,
1000
0000
0010
0000
0100
0000
0001
0010
,
0100
0000
0010
0000
0100
1000
0010
1000
,
0101
0000
0010
0000
1000
0000
0100
0010
,
0001
0000
0000
0000
1000
0000
0000
0000
1000
0000
0000
0001
0000
0000
0010
0000
,
1100
0000
0010
0000
0001
0000
0100
0001
,
1000
0000
0000
0000
0010
0000
0000
0000
0100
0000
0000
0001
0000
0000
1000
0000
,
0100
0000
0110
0000
0001
0010
0100
1000
,
0001
0000
0000
0000
0010
0000
0000
0000
0001
0000
0000
0100
0000
0000
0010
0000
,
1001
0000
0100
0000
0001
0000
0010
0001
,
1000
1000
0001
0001
,
2002
0000
0000
3003
,
1001
0000
0000
0000
0000
0000
0000
0000
0000
0000
0000
0000
0001
0100
0001
0100
,
0002
0000
0100
0000
0013
0000
1000
0200
,
0000
0000
0310
0002
0000
0000
0103
0010
,
1000
0000
0100
0000
1000
0010
0100
0000
,
0100
0001
1000
0010
0100
0001
0010
0100
,
2000
0000
0100
0000
3010
0000
0001
0200
,
0000
0000
0310
2000
0000
0000
3010
0100
,
0001
1000
0100
0010
,
0001
0100
0010
1000
0010
0100
0001
1000
,
0200
0010
1300
0001
,
0200
0010
0301
1000
,
0100
1000
0010
0000
0100
0001
0010
0000
,
0001
0100
0010
1000
0100
0010
0001
1000
,
0020
1000
0130
0001
,
0020
0001
0130
1000
,
0002
0000
1003
0001
,
2000
0000
3000
0000
,
0101
0010
1000
0001
,
1100
0010
0100
1000
,
0110
0001
1000
0001
,
0010
0000
0100
0000
1000
0000
0010
0100
,
0101
0000
0010
0000
1000
0100
0010
0000
,
1100
0000
0010
0000
0001
0100
0010
0000
,
1001
0000
0100
0000
0010
1000
0001
0000
,
0100
0001
0010
0000
0100
1000
0010
0000
,
2002
0000
0000
0000
,
3003
0000
0000
0000
;

//---------------dance-double - ----------------
#NOTES:
     dance-double:
     :
     Easy:
     3:
     0.200,0.239,0.087,0.164,0.000:
00000000
00000000
00000000
00000000
,
00000000
00000000
00000000
00000000
,
00000000
00000000
00000000
00000000
,
00000000
00000000
00000000
00000000
,
00000020
00000000
00000030
00000000
,
00000200
00000000
00000300
00000000
,
00000020
00000000
00000030
00000000
,
00000200
00000000
00000300
00000000
,
00000001
00000000
00001000
00000010
,
00010000
00000000
00010000
00001000
,
01000000
00000000
01000000
00010000
,
10000000
00000000
01000000
00000000
,
10010000
00000000
00100000
00000000
,
00001000
00000000
00100000
00010000
,
01000000
00000000
00100000
00000000
,
10000000
00000000
00010000
00100000
,
00001000
00000000
00010000
00000000
,
00000010
00000000
00001000
00000100
,
00000010
00000000
00000001
00000000
,
00000100
00000000
00000010
00001000
,
00000002
00000000
00000103
00000000
,
00000010
00000000
00010000
00001000
,
02000000
00000000
03010000
00000000
,
10000000
00000000
01000000
10000000
,
00010000
00000000
00100000
00001000
,
00010000
00000000
00000010
00010000
,
00001000
00000000
01000000
00000000
,
00100000
10000000
00010000
00100000
,
02000000
00000000
00000000
03000000
,
10010000
00000000
00000000
00000000
,
00001000
00010000
00001000
00010000
,
00000010
00010000
00001000
01000000
,
00020000
00000000
00230000
00000000
,
02300000
00000000
23000000
00000000
,
30010000
00100000
01000000
10000000
,
00010000
01000000
00100000
10000000
,
00010000
00000000
00100000
00000000
,
00001000
00000000
00010000
00000000
,
00010000
00001000
00010000
00001000
,
00100000
00001000
00010000
00000010
,
00002000
00000000
00003200
00000000
,
00000320
00000000
00000032
00000000
,
00001003
00000100
00000010
00000001
,
00001000
00000010
00000100
00000001
,
00001000
00000000
00000010
00000000
,
00010000
00000000
00000000
00000000
,
00011000
00000000
00000000
00000000
,
10010000
00000000
00000000
00000000
,
00011000
00000000
00000000
00000000
,
00000010
00000100
00000001
00001000
,
00000101
00000000
00000000
00000000
,
00011000
00000000
00000000
00000000
,
00000101
00000000
00000000
00000000
,
00010000
00000000
00001000
00000000
,
00022000
00000000
00000000
00000000
,
00033000
00000000
00000000
00000000
;

//---------------dance-double - ----------------
#NOTES:
     dance-double:
     :
     Medium:
     5:
     0.246,0.266,0.126,0.155,0.000:
00000000
00000000
00000000
00000000
,
00000000
00000000
00000000
00000000
,
00000000
00000000
00000000
00000000
,
00000000
00000000
00000000
00000000
,
00000001
00000100
00000010
00000000
,
00001000
00000100
00010000
00000000
,
00001000
01000000
00010000
00000000
,
00100000
00001000
00010000
00000000
,
00001001
00000000
00000000
00000000
,
00011000
00000000
00000000
00000000
,
10010000
00000000
00000000
00000000
,
00100000
00000000
01000000
00000000
00010000
10000000
00010000
10000000
,
01000000
00100000
00001000
00010000
,
00000100
00000010
00000001
00000100
,
00000001
00001000
00000010
00010000
,
00001000
00100000
00010000
01000000
,
00100000
00000000
00100000
00000000
10000000
00010000
10000000
00000000
,
00100000
10000000
01000000
00100000
,
00010000
01000000
00001000
00010000
,
00001000
00000000
00010000
00000100
,
00022000
00000000
00033000
00000000
,
00000010
00000000
00000100
00000001
,
00002002
00000000
00003003
00000000
,
00000010
00000000
00010000
00001000
,
00011000
00000000
00100000
00010000
,
01000000
00000000
00100000
10000000
,
20020000
00000000
30030000
00000000
,
10000000
01000000
00100000
00001000
,
00022000
00000000
00000000
00033000
,
00011000
00000000
00000000
00000000
,
00100000
00000000
00010000
00000000
01000000
00000000
00100000
10000000
,
00000000
00000000
10000000
00010000
00000000
00000000
00010000
02000000
,
00000000
00000000
00000000
03002000
00000000
00000000
00000000
00003000
,
00010000
00000100
00001000
00000010
,
00001000
00000000
00000100
00000000
00000010
00000000
00000001
00000100
,
00000000
00000000
00000100
00000010
00000000
00000000
00000010
00002000
,
00000000
00000000
00000000
00003000
,
00000000
00000001
00000100
00000000
00000010
00001000
00000100
00000000
,
00000010
00000000
00000001
00000000
00001000
00000000
00000100
00010000
,
00000000
00000000
00010000
00001000
00000000
00000000
00001000
02000000
,
00000000
00000000
00000000
03020000
00000000
00000000
00000000
00030000
,
00100000
00010000
01000000
00001000
,
00100000
00000000
00010000
00000000
01000000
00000000
00100000
10000000
,
00000000
00000000
10000000
00010000
00000000
00000000
00010000
00200000
,
00000000
00000000
00000000
00000000
,
01300000
00000000
00000000
00000000
,
11000000
00000000
00010000
00000000
,
01010000
00000000
00001000
00000000
,
00011000
00000000
00000010
00000000
,
00000100
00000001
00001000
00000100
,
00000010
00000000
00000100
00001000
,
00000001
00000000
00000100
00000010
,
00001000
00000000
00000100
00000000
,
00010000
00001000
00010000
00000010
,
00002002
00000000
00000000
00000000
,
00003003
00000000
00000000
00000000
;

//---------------dance-double - ----------------
#NOTES:
     dance-double:
     :
     Hard:
     7:
     0.417,0.478,0.087,0.155,0.068:
00000000
00000000
00000000
00000000
,
00000000
00000000
00000000
00000000
,
00000000
00000000
00000000
00000000
,
00000000
00000000
00000000
00000000
,
10000000
01000000
10000000
01000000
10000000
00000000
00000000
00000000
00010000
00000000
00000000
00000000
00100000
00000000
00000000
00000000
,
00001000
00010000
00001000
00010000
00001000
00000000
00000000
00000000
00000010
00000000
00000000
00000000
00000001
00000000
00000000
00000000
,
00000001
00000100
00000001
00000100
00000001
00000000
00000000
00000000
00001000
00000000
00000000
00000000
00000010
00000000
00000000
00000000
,
00010000
00001000
00010000
00001000
00010000
00000000
00000000
00000000
00100000
00000000
00000000
00000000
10000000
00000000
00000000
00000000
,
10000000
01000000
00010000
01000000
,
00100000
00001000
00000010
00000100
,
00010000
01000000
00010000
00001000
,
00000100
00000001
00000010
00000100
00000010
00000001
00001000
00000010
,
00010000
01000000
10000000
00010000
,
01000000
00000000
00001000
00000000
00010000
00000000
00000010
00001000
,
00000001
00000000
00000100
00000000
00000010
00000000
00010000
00000010
,
00001000
00000000
00000000
00000000
00001000
00000000
00000100
00000000
00010000
00000000
00000000
01000000
00000000
00000000
10000000
00000000
,
00100000
00000000
01000000
00000000
00010000
00100000
00001000
00000000
,
00000100
00000000
00000000
00000000
00001000
00000000
00000100
00000000
00000001
00000000
00000000
00000100
00000000
00000000
00000010
00000000
,
00001000
00000000
00000100
00000000
00000010
00000000
00000001
00001000
,
00000100
00000000
00000000
00000000
00010000
00000000
00000000
00000000
01000000
00000000
00000000
00100000
00000000
00000000
00010000
00000000
,
10000000
01000000
10000000
00100000
,
01000000
00000000
00001000
00000000
00010000
00000000
00000000
00000000
00010000
00000000
00000000
00000010
00000000
00000000
00000100
00000000
,
00000001
00000000
00000010
00000000
00000001
00000000
00000100
00000010
,
00010000
00000000
00000000
00000000
00000010
00000000
00001000
00000000
00000100
00000000
00000000
00010000
00000000
00000000
00001000
00000000
,
01000000
00000000
00100000
00000000
10000000
01000000
00100000
00010000
,
01000000
00000000
00000000
00000000
00001000
00000000
00000000
00000000
00100000
00000000
00000000
00010000
00000000
00000000
01000000
00000000
,
00001000
00000000
00010000
00000000
00000010
00000000
00000100
00000001
,
00000010
00001000
00010000
01000000
,
20020000
00000000
00000000
30030000
,
01100000
00000000
00000000
00000000
,
00001000
00100000
00010000
01000000
00100000
00010000
00001000
00000100
,
00000010
00001000
00000001
00000010
00001000
00010000
01000000
10000000
,
00020000
02030000
03002000
00023000
,
00030010
00000100
00000001
00000000
00000001
00000010
00000100
00000000
,
00010000
00000100
00001000
00000010
00000100
00001000
00010000
00100000
,
01000000
00010000
10000000
01000000
00010000
00001000
00000010
00000001
,
00002000
00003200
00020300
00032000
,
01003000
00010000
00100000
01000000
10000000
01000000
00100000
00010000
,
01000000
00001000
00010000
00100000
10000000
00100000
01000000
00010000
,
00100000
00001000
00000010
00000100
00001000
00000100
00000010
00000001
,
00000200
00000000
00000301
00000100
,
00000010
00001000
00000100
00000010
00000001
00000010
00000100
00001000
,
00000010
00010000
00001000
00000100
00000001
00000100
00000010
00001000
,
00000100
00010000
01000000
00100000
00010000
00100000
01000000
10000000
,
00200000
00000000
02300000
00010000
,
00020000
00000000
03030000
00000000
,
11000000
00000000
00100000
00000000
00010000
01000000
00100000
00000000
,
10010000
00000000
00100000
00000000
00001000
00010000
00000100
00000000
,
00001010
00000000
00000100
00000000
00000001
00001000
00000010
00000000
,
00000100
00000001
00000000
00001000
00000000
00000100
00000000
00010000
,
00011000
00000000
00001000
00100000
00010000
01000000
00100000
10000000
,
01010000
00000000
00100000
00001000
00010000
00000010
00000100
00000001
,
00001100
00000000
00000010
00000001
00000000
00001000
00000000
00000010
,
00000100
00001000
00010000
00100000
,
20020000
00000000
00000000
00000000
,
30030000
00000000
00000000
00000000
;

//---------------dance-single - Spork!----------------
#NOTES:
     dance-single:
     Spork!:
     Challenge:
     9:
     0.598,0.611,0.251,0.329,0.391: // measure 1
0000
0000
0000
0000
,  // measure 2
0000
0000
0000
0000
,  // measure 3
0000
0000
0000
0000
,  // measure 4
0000
0000
0000
0000
,  // measure 5
0001
0100
0001
0100
0000
0000
0010
0001
0000
0010
1000
0000
0000
0000
0000
0000
,  // measure 6
1000
0100
1000
0100
0000
0000
0010
1000
0000
0010
0001
0000
0000
0000
0000
0000
,  // measure 7
0001
1000
0001
1000
0000
0000
0100
0001
0000
0100
1000
0000
0000
0000
0000
0000
,  // measure 8
1000
0001
1000
0001
0000
0000
0100
0000
0110
0000
0010
0000
1000
0000
0001
0000
,  // measure 9
2100
0000
0010
3010
0101
1000
000M
1000
,  // measure 10
0012
0000
0100
0103
1010
0100
10M0
0001
,  // measure 11
2001
0000
0000
0000
0010
0000
3010
0000
1001
0000
0000
M000
000M
00M0
0100
0000
,  // measure 12
0001
0M00
0001
0000
1000
0000
1000
0000
0001
0000
1001
0000
1000
0001
1000
0001
,  // measure 13
1000
0100
0001
0100
0010
0100
1000
0100
,  // measure 14
0010
0000
0001
0000
0100
0000
0010
0000
1000
0000
0000
0010
0000
0000
0100
0000
,  // measure 15
0M01
0000
0010
0000
1000
0000
0010
0000
0100
0000
1000
0000
0001
0000
0100
0001
,  // measure 16
0010
0000
00M0
0000
1M1M
0000
0000
0000
1000
0001
0000
0010
0000
0000
0001
0000
,  // measure 17
0100
0000
0000
1100
0000
0000
0010
0000
0100
0000
0001
0000
1000
0000
0001
0000
,  // measure 18
0010
0000
0000
0000
1100
0000
0001
0000
1000
0000
0000
0100
0000
0000
1000
0000
,  // measure 19
M001
0000
0010
0000
1000
0000
0010
0000
0100
0000
1000
0000
0001
0000
0100
0001
,  // measure 20
0010
0000
00M0
0000
1M1M
0000
0000
0000
1000
0001
0000
0100
0000
0000
0010
0000
,  // measure 21
1002
0000
0010
0000
2003
0000
0000
0000
020M
0000
0000
0010
3300
0000
0000
0000
,  // measure 22
2000
0000
0100
0000
3002
0000
0000
0000
M023
0000
0000
0100
0030
0000
0010
0000
,  // measure 23
2001
0000
0010
0000
3002
0000
0000
0000
02M0
0000
0000
0010
0303
0000
0001
1000
,  // measure 24
0200
0000
0000
0000
0301
0000
0100
0000
001M
0000
0000
1010
0000
0000
0001
0000
,  // measure 25
0210
0000
0302
0000
1M03
0010
0001
1000
,  // measure 26
0200
0000
0000
0000
0310
0000
1000
0000
0M01
0000
0000
0010
0000
0000
0001
0000
,  // measure 27
2100
0000
0000
0000
3020
0000
0000
0000
023M
0000
0000
0000
1300
0000
0100
0001
,  // measure 28
0020
0230
23M0
3001
,  // measure 29
4004
0000
0000
0000
0000
0000
0000
3003
,  // measure 30
M22M
0000
0000
0000
0000
0000
0000
0000
0000
0000
0330
0000
0001
1000
0100
1000
,  // measure 31
0001
0000
0100
0000
0010
0000
0001
0010
0100
0000
0010
0000
1000
0000
M000
0000
,  // measure 32
1000
0000
0010
0000
0100
0000
0010
1000
0100
0000
0010
0000
0001
0000
000M
0000
,  // measure 33
1000
0100
1000
0100
0000
0000
0010
1000
0000
0010
0001
0000
MM00
0000
00MM
0000
,  // measure 34
0001
0100
0001
0100
0000
0000
0010
0000
0001
0000
0010
0000
1M0M
0000
M0M1
0000
,  // measure 35
1000
0000
0010
0000
0100
0000
1000
0100
0010
0000
1000
0000
0001
0000
000M
0000
,  // measure 36
0001
0000
0010
0000
0100
0000
0001
0100
0010
0000
0001
0000
1000
0000
M000
0000
,  // measure 37
1000
0010
1000
0010
0000
0000
0100
1000
0000
0100
0001
0000
MM00
0000
00MM
0000
,  // measure 38
2100
0001
3001
0010
0100
1000
MM10
01MM
,  // measure 39
0001
0000
1000
0010
0100
0000
0010
1000
0001
0000
0100
0001
0010
0000
0100
0000
,  // measure 40
1000
0000
0001
0100
0010
0000
0100
0001
1000
0000
0010
1000
0100
0000
0010
0000
,  // measure 41
0001
000M
1M1M
0000
0010
0001
0100
0000
,  // measure 42
0010
1000
0010
1000
0000
0000
0100
0000
0001
0000
0100
0000
1000
0000
0010
0000
,  // measure 43
1000
0000
0001
0100
0010
0000
0001
0010
0100
0000
0010
1000
0100
0000
0010
0000
,  // measure 44
0001
0000
1000
0010
0100
0000
1000
0100
0010
0000
0100
0001
0010
0000
0100
0000
,  // measure 45
1000
M000
M1M1
0000
0100
1000
0010
0100
,  // measure 46
0002
0000
0000
0000
1003
0000
0000
0000
0100
0000
0100
0000
0100
0010
1000
0001
,  // measure 47
0020
0100
0030
0M10
0001
1000
0010
1000
,  // measure 48
0102
0000
0013
010M
1000
0001
0100
0001
,  // measure 49
1000
0100
0010
0001
0000
0000
0010
0100
0010
0001
0010
0000
MM00
0000
00MM
0000
,  // measure 50
0001
0100
0010
1000
0000
0000
0010
0100
0010
1000
0010
0000
0M0M
0000
M0M0
0000
,  // measure 51
0201
0010
0300
0M10
1000
0001
0100
0001
,  // measure 52
2010
0000
3100
M010
0001
1000
0100
1000
,  // measure 53
0001
0100
0001
0010
0000
0000
0100
1000
0010
0100
0001
0000
M0M0
0000
0M0M
0000
,  // measure 54
1000
0010
1000
0100
0000
0000
0010
0000
1000
0000
0010
0000
M0M1
0000
1M0M
0000
,  // measure 55
2MM2
0000
0000
0000
,  // measure 56
3003
0000
0000
0000
;
