#TITLE:Snow Goose;
#SUBTITLE:;
#ARTIST:Mitsuhiko Izumi;
#TITLETRANSLIT:;
#SUBTITLETRANSLIT:;
#ARTISTTRANSLIT:;
#GENRE:;
#CREDIT:;
#MENUCOLOR:;
#METERTYPE:DDR;
#BANNER:Snow Goose-bn.png;
#BACKGROUND:Snow Goose-bg.png;
#LYRICSPATH:;
#CDTITLE:ddrencorecdtitle.png;
#MUSIC:Snow Goose.mp3;
#OFFSET:-0.410;
#SAMPLESTART:6.960;
#SAMPLELENGTH:11.980;
#SELECTABLE:YES;
#LISTSORT:;
#BPMS:0.000=200.000;
#STOPS:263.750=2.400
;
#BGCHANGES:;
#ATTACKS:;

//---------------dance-single - ----------------
#NOTES:
     dance-single:
     :
     Beginner:
     2:
     0.201,0.268,0.059,0.089,0.000:
0000
0000
0000
0000
,
0000
0000
0000
0000
,
0000
0000
0000
0000
,
0000
0000
0000
0000
,
0000
0000
0000
0000
,
1001
0000
0000
0000
,
1001
0000
0000
0000
,
0010
0000
0000
0000
,
0200
0000
0000
0300
,
0001
0000
0001
0000
,
1000
1000
0000
0000
,
0010
0010
0000
0000
,
0100
0100
0000
0000
,
0001
0001
0000
0000
,
1000
1000
0000
0000
,
0100
0100
0000
0000
,
0010
0010
0000
0000
,
0001
0000
0001
0000
,
2000
0000
3000
0000
,
0010
0000
0010
0000
,
0200
0000
0300
0000
,
0001
0000
0001
0000
,
0010
0000
0000
0000
,
0100
0000
0000
0000
,
1000
0000
0001
0000
,
1000
0000
0001
0000
,
1000
0000
1000
0000
,
0010
0000
0000
0000
,
0100
0000
0100
0000
,
0001
0000
0000
0000
,
0100
0000
0100
0000
,
0010
0000
0010
0000
,
2000
0000
3000
0000
,
1001
0000
0000
0000
,
1000
0000
0010
0000
,
1000
0000
0000
0000
,
0001
0000
0100
0000
,
0001
0000
0000
0000
,
1000
0000
0001
0000
,
1000
0000
0001
0000
,
0020
0000
0030
0000
,
0200
0000
0300
0000
,
1000
0000
1000
0000
,
0010
0000
0010
0000
,
0100
0000
0100
0000
,
0001
0000
0001
0000
,
1000
0000
0001
0000
,
1000
0000
0001
0000
,
0010
0000
0010
0000
,
0100
0000
0100
0000
,
1000
1000
1000
0000
,
0001
0001
0001
0000
,
0010
0010
0010
0000
,
0100
0000
0100
0000
,
0001
0001
0001
0000
,
1000
1000
1000
0000
,
0010
0000
0100
0000
,
0010
0000
0100
0000
,
0001
0000
0001
0000
,
2000
0000
3000
0000
,
0010
0000
0010
0000
,
0200
0000
0300
0000
,
0001
0000
0001
0000
,
0020
0000
0030
0000
,
0001
0000
1000
0000
,
0001
0000
1000
0000
,
0000
0000
0000
0110
,
0000
0000
0000
1001
,
0000
0000
0000
0000
,
0010
0010
0010
0000
,
1000
1000
1000
0000
,
0001
0000
0010
0000
,
0001
0000
1000
0000
,
0100
0000
1000
0000
,
0010
0000
0000
0000
,
0010
0000
1000
0000
,
0001
0000
0000
0000
,
0000
1001
0000
0000
;

//---------------dance-single - ----------------
#NOTES:
     dance-single:
     :
     Easy:
     5:
     0.400,0.423,0.079,0.485,0.000:
0000
0000
0000
0000
,
0000
0000
0000
0000
,
0000
0000
0000
0000
,
0000
0000
0000
0000
,
0000
0000
0000
0000
,
1000
0010
0200
0301
,
0001
0010
0200
1300
,
0001
1000
0001
1000
,
0020
1000
1000
1030
,
2000
0100
0100
3100
,
0010
0000
0000
2002
0000
0000
3003
0000
,
0100
0000
0000
2002
0000
0000
3003
0000
,
0010
0000
0000
2002
0000
0000
3003
0000
,
1000
0010
1000
0001
,
1000
0000
0000
0220
0000
0000
0330
0000
,
0001
0000
0000
0220
0000
0000
0330
0000
,
1000
0000
0000
0220
0000
0000
0330
0000
,
0001
0010
0100
1000
,
0001
0000
0100
0010
,
2000
0000
0000
3010
,
0100
0000
0001
0010
,
0200
0000
0000
1300
,
0001
0000
0010
0100
,
0010
0000
0100
1000
,
0002
0000
0000
0003
,
2000
0000
0000
3000
,
0010
0000
0100
0001
,
0020
0000
0000
0130
,
1000
0000
0001
0100
,
0020
0000
0000
1030
,
0001
0000
0100
0010
,
1000
0000
0001
0010
,
0200
0000
0000
0300
,
0020
0001
0001
0031
,
1000
0100
1000
0100
,
0020
0000
0001
0031
,
0100
0001
0100
0001
,
2000
0000
0010
3010
,
0100
0001
0010
0001
,
0200
0000
0010
0310
,
2000
0000
3002
0000
,
1003
0100
1000
0000
,
0001
0010
0100
1000
,
1000
0100
0010
0001
,
0001
0100
0010
1000
,
1000
0010
0100
0001
,
2000
0010
0010
3010
,
0020
0100
0100
0130
,
0001
1000
0001
1000
,
0010
0010
0100
0100
,
0002
0000
0013
0100
,
2000
0000
3010
0100
,
0002
0000
0103
0010
,
1000
0001
1000
0001
,
2000
0000
3010
0100
,
0020
0000
1030
0001
,
0010
0000
0100
0000
,
1000
0010
0100
0001
,
1000
0100
1000
0100
,
0020
0000
0001
0031
,
0100
0001
0100
0001
,
2000
0000
0010
3010
,
0100
0001
1000
0001
,
0020
0000
0100
0130
,
2000
0000
3020
0000
,
0130
0001
1000
0010
,
0200
0000
0301
0001
,
2000
0000
3010
0010
,
0200
0000
0301
0001
,
1000
0010
0100
0001
,
1000
0100
0010
0001
,
1000
0010
0200
0000
,
0301
0010
0200
0000
,
1300
0001
0020
0000
,
0130
1000
0001
0010
,
0001
1000
0010
0100
,
0000
0000
0000
0000
1001
0000
0000
0010
,
0000
0220
0000
0330
;

//---------------dance-single - ----------------
#NOTES:
     dance-single:
     :
     Medium:
     7:
     0.492,0.539,0.089,0.485,0.000:
0000
0000
0000
0000
,
0000
0000
0000
0000
,
0000
0000
0000
0000
,
0000
0000
0000
0000
,
0000
0000
0000
0000
,
1000
0000
0100
0000
0010
0001
0010
0000
,
0100
0000
1000
0000
0010
0100
0010
0000
,
1000
0001
0010
0001
,
0200
0000
0310
1000
,
0002
0000
0013
0100
,
1000
0010
0000
0200
0000
0000
0301
0000
,
0100
0010
0000
2000
0000
0000
3010
0000
,
0100
0001
0000
0020
0000
0000
0130
0000
,
1000
0100
0001
0100
,
1000
0010
0000
2000
0000
0000
3010
0000
,
0100
0001
0000
2000
0000
0000
3100
0000
,
0010
0001
0000
2000
0000
0000
3010
0000
,
0100
0001
0100
0001
,
2000
0000
0000
3200
0000
0000
0310
0000
,
2002
0000
0000
0000
3003
0000
0100
0001
,
0200
0000
0000
0320
0000
0000
1030
0000
,
2002
0000
3003
0010
,
0020
0000
0000
2030
0000
0000
3001
0000
,
0200
0000
0000
0320
0000
0000
1030
0000
,
0001
0010
0100
1000
,
0001
0010
0001
0000
1000
0100
1000
0000
,
0020
0000
0000
0230
0000
0000
0301
0000
,
2002
0000
0000
0000
3003
0000
0010
1000
,
0020
0000
0000
2030
0000
0000
3100
0000
,
0220
0000
0330
0001
,
2100
0000
0000
3010
0000
0000
0100
0000
,
0102
0000
0000
0013
0000
0000
1000
0000
,
0010
0100
0010
0000
1000
0001
1000
0000
,
0100
0010
0100
0000
1001
0000
1001
0000
,
1000
0010
0000
0100
0000
0000
0001
0100
,
0002
0000
0000
1003
,
0100
0010
0000
0100
0000
0000
1000
0010
,
2000
0000
0000
3001
,
0010
0100
0000
1000
0000
0000
0001
0010
,
0002
0000
0000
0013
,
0100
1000
0010
0100
,
0001
0010
0001
0000
1000
0001
1000
0000
,
0010
0000
0100
0000
0001
0100
0010
0000
,
1000
0000
0100
0000
0010
0100
1000
0000
,
0001
0000
1000
0000
0010
1000
0001
0000
,
1000
0010
0100
0001
,
1000
0000
0001
0000
0010
0001
1000
0000
,
0001
0000
0100
0000
0010
0100
0001
0000
,
2000
3020
0230
0302
,
1003
0100
0001
0100
,
2000
0010
0001
3100
,
0020
0100
1000
0130
,
0002
0010
1000
0103
,
0010
1000
0001
0100
,
0020
1000
0001
1030
,
0200
0001
1000
0301
,
0100
1000
0010
0100
,
0001
1000
0100
0010
,
0001
0010
0000
0100
0000
0000
1000
0010
,
2000
0000
0000
3001
,
0100
0010
0000
0100
0000
0000
0001
0010
,
0002
0000
0000
0103
,
0010
1000
0000
0010
0000
0000
0100
0001
,
0200
0000
0000
0300
,
0001
1000
0100
0010
,
0001
0000
1000
0000
0010
0100
0010
0000
,
1000
0000
0001
0000
0010
0001
0010
0000
,
0001
0000
1000
0000
0010
1000
0010
0000
,
0100
0001
0010
0100
,
2000
0010
0001
3100
,
0002
0010
1000
0103
,
0001
0000
1000
0000
0010
1000
0010
0000
,
0100
0000
0001
0000
1000
0010
1000
0000
,
0100
0010
0001
1000
,
0010
0100
0001
0000
1000
0100
0010
0000
,
0001
1000
0100
0000
0010
0001
1000
0100
,
0000
0000
0000
0000
1000
0001
1000
0010
,
0000
2002
0000
3003
;

//---------------dance-single - ----------------
#NOTES:
     dance-single:
     :
     Hard:
     8:
     0.609,0.615,0.069,0.485,0.030:
0000
0000
0000
0000
,
0000
0000
0000
0000
,
0000
0000
0000
0000
,
0000
0000
0000
0000
,
0000
0000
0000
0000
,
1000
0010
0100
0001
0200
0000
0310
0000
,
0001
1000
0100
0010
0002
0000
1003
0000
,
0100
0010
1000
0100
2000
0000
3010
0000
,
0001
0100
0010
0000
0001
0100
0010
0000
,
1000
0100
0010
0000
1000
0100
0010
0000
,
0001
0100
0001
0000
0000
0000
0020
0000
0000
0000
0000
0000
0030
0000
0000
0000
,
0001
1000
0001
0000
0000
0000
0200
0000
0000
0000
0000
0000
0300
0000
0000
0000
,
0010
1000
0010
0000
0000
0000
2000
0000
0000
0000
0000
0000
3000
0000
0000
0000
,
0001
0010
0100
1000
0100
0010
0100
1000
,
0001
0010
0001
0000
0000
0000
2000
0000
0000
0000
0000
0000
3000
0000
0000
0000
,
0010
0100
0010
0000
0000
0000
0200
0000
0000
0000
0000
0000
0300
0000
0000
0000
,
0001
0010
0001
0000
0000
0000
0020
0000
0000
0000
0000
0000
0030
0000
0000
0000
,
0100
1000
0010
0100
1000
0100
0001
0010
,
0002
0000
0013
0200
0000
1300
0002
0000
,
2000
0000
0000
0000
0003
0000
3001
0010
,
2000
0000
3010
0002
0000
0103
0020
0000
,
2000
0000
0030
3001
,
0101
0000
1000
0010
0000
0100
0101
0000
,
1000
0000
0010
1000
0000
1000
0012
0000
,
1000
0100
1003
0200
,
0001
0010
0001
0310
,
2000
0000
3001
0020
0000
0130
2000
0000
,
0002
0000
0000
0000
3000
0000
1003
0010
,
0200
0000
0301
0020
0000
0130
2000
0000
,
0002
0000
0000
0000
3000
0000
0013
0100
,
1000
0000
0001
0100
0000
0010
1000
0000
,
0100
0000
0001
0010
0000
0100
1000
0000
,
0001
0100
1000
0000
1000
0100
0001
0000
,
1000
0010
0100
0001
1000
0100
0010
0000
,
0001
0010
0000
0002
0000
0000
1003
0010
,
0102
0000
1000
1003
,
0010
0100
0000
0001
0000
0000
1000
0010
,
2100
0000
0001
3001
,
0100
0010
0000
2000
0000
0000
3001
0010
,
0201
0000
0001
0301
,
1000
0100
0001
0000
0001
0100
1000
0000
,
1000
0010
0001
0000
0001
0010
1000
0000
,
0001
0000
0010
0000
0100
1000
0100
0010
,
0001
0000
0100
0000
0010
1000
0010
0100
,
0001
0000
1000
0000
0100
1000
0010
0100
,
0001
0010
0001
0010
0001
1000
0100
1000
,
0100
0000
0010
0000
0001
1000
0100
1000
,
0001
0000
0010
0000
0100
1000
0010
0100
,
0001
0100
0001
1000
,
0010
0100
0001
1000
0100
0010
0001
0010
,
0001
0000
1000
0000
0100
0010
0001
0010
,
0100
0000
0010
0000
0001
0010
0100
1000
,
0100
0000
0010
0000
0001
1000
0100
0010
,
0001
0100
0010
1000
,
0001
0000
1000
0000
0001
0100
0010
1000
,
0001
0000
0100
0000
0010
1000
0001
0100
,
0010
1000
0100
0010
,
0001
1000
0010
0100
,
0001
1000
0000
0200
0000
0000
0310
0001
,
2000
0000
0010
3001
,
0100
0010
0000
2000
0000
0000
3001
0100
,
0020
0000
1000
1030
,
0100
0010
0000
0002
0000
0000
1003
0100
,
0020
0000
0001
0031
,
1000
0010
0100
0000
0001
0010
0100
0000
,
1000
0010
0100
0001
1000
0100
0010
0001
,
1000
0100
0010
0100
2000
0000
3001
0000
,
0001
0010
0100
0010
0002
0000
1003
0000
,
1000
0001
0100
0010
0200
0000
0301
0000
,
1000
0100
0010
0000
0001
0010
0100
0000
,
1000
0010
0100
0000
0001
0100
0010
0000
,
1000
0100
0010
0001
0200
0000
0310
0000
,
0100
0001
1000
0100
0020
0000
0031
0000
,
0010
0001
0010
0100
1000
0010
0100
0001
,
2000
3020
0230
0302
,
1003
0100
0010
0001
0010
0100
1000
0001
,
0000
0000
0000
0000
1000
0100
0001
0100
,
0000
0220
0000
0330
;

//---------------dance-single - ----------------
#NOTES:
     dance-single:
     :
     Challenge:
     9:
     0.752,0.654,0.218,0.604,0.188:
0000
0000
0000
0000
,
0000
0000
0000
0000
,
0000
0000
0000
0000
,
0000
0000
0000
0000
,
0000
0000
0000
0000
,
1000
0100
1000
0010
0102
0000
1003
0000
,
0100
0010
0001
1000
2100
0000
3010
0000
,
0100
0001
0010
0100
1000
0001
0010
0001
,
1000
0100
0000
0000
0010
0001
0000
0000
1000
0010
0000
0000
0100
0001
0000
0000
,
1000
0010
0100
0001
1000
0100
0001
0100
,
1000
0010
1000
0010
0000
0000
0202
0000
0000
0000
0000
0000
0303
0000
0000
0000
,
0001
0010
0001
0010
0000
0000
2200
0000
0000
0000
0000
0000
3300
0000
0000
0000
,
0001
1000
0001
1000
0000
0000
0202
0000
0000
0000
0000
0000
0303
0000
0000
0000
,
1000
0100
0001
0100
1000
0010
0100
0010
,
1000
0100
1000
0100
0000
0000
0022
0000
0000
0000
0000
0000
0033
0000
0000
0000
,
0100
1000
0100
1000
0000
0000
0220
0000
0000
0000
0000
0000
0330
0000
0000
0000
,
0001
0100
0001
0100
0000
0000
2020
0000
0000
0000
0000
0000
3030
0000
0000
0000
,
0001
0100
0001
0010
0001
1000
0100
0001
,
0200
0000
1300
0020
0000
0130
0001
0000
,
0102
0000
0010
0000
1003
0000
0100
0010
,
2000
0000
3001
0020
0000
0031
0100
0000
,
0120
1000
1030
0001
,
0102
0000
1003
0010
0000
0100
0001
0000
,
2100
0000
3010
0001
0000
0001
0100
0000
,
2010
0001
0100
3001
,
0012
1000
0100
1003
,
1000
0100
0001
0200
0000
1300
0010
1000
,
0002
0000
0010
0000
0013
0100
1000
0001
,
0010
0001
0100
2000
0000
3100
0001
0010
,
0002
0000
1000
0000
0103
0010
1000
0000
,
0001
0000
0100
0001
0000
0001
1000
0000
,
0101
0000
0010
1000
0000
0100
0010
0000
,
0001
0010
0100
1000
0100
0001
0100
1000
,
0010
0100
0010
1000
0001
0100
0001
0010
,
0001
1000
0000
0102
0000
0000
0013
0100
,
2000
3100
0200
0310
,
0001
1000
0000
0120
0000
0000
1030
0100
,
0020
0031
0200
0310
,
1000
0100
0000
0021
0000
0000
0031
1000
,
0200
0310
0020
0031
,
1000
0100
0001
0100
1000
0010
0100
0010
,
1000
0010
0001
0010
1000
0100
1000
0001
,
0200
0000
0301
0010
0100
1000
0100
1000
,
0020
0000
0130
0001
0100
0010
1000
0100
,
0002
0000
0103
1000
0010
0100
0001
0010
,
0001
0010
0000
0000
0010
0100
0000
0000
0100
1000
0000
0000
1000
0100
0000
0000
,
0020
0000
0031
0100
0010
1000
0100
1000
,
0002
0000
1003
0010
0100
0001
0010
0100
,
1000
0100
0000
0000
0100
0010
0000
0000
0010
0001
0000
0000
0001
0100
0000
0000
,
0010
1000
0100
0001
0100
1000
0010
0100
,
0002
0000
1003
0100
0010
0001
0010
0100
,
2000
0000
3100
0010
0001
0100
0010
1000
,
0002
0000
0103
0010
1000
0100
0010
0001
,
0010
0100
1000
0100
0001
0100
1000
0010
,
0200
0000
0301
0010
0001
1000
0100
0010
,
0002
0000
0103
0010
1000
0100
1000
0010
,
0100
0001
0000
0000
1000
0010
0000
0000
0100
1000
0000
0000
0100
0001
0000
0000
,
1000
0100
0010
0100
1000
0001
0010
0001
,
0100
0001
0000
2100
0000
0000
3010
0100
,
0002
0010
1000
0103
,
0001
0010
0000
0120
0000
0000
0130
1000
,
0200
1000
0010
1300
,
0001
0100
0000
1020
0000
0000
1030
0001
,
2000
0001
0100
3001
,
1000
0100
0001
0010
0001
0100
1000
0010
,
1000
0100
1000
0010
0100
0001
0010
0001
,
1000
0100
1000
0000
0010
0000
0100
0000
0002
0000
0000
0000
0000
0000
0000
0000
,
0103
0010
0100
0000
0001
0000
1000
0000
0200
0000
0000
0000
0000
0000
0000
0000
,
0310
0001
0010
0000
0100
0000
1000
0000
0002
0000
0000
0000
0000
0000
0000
0000
,
1003
0010
0000
0000
0100
0001
0000
0000
1000
0100
0000
0000
0010
0001
0000
0000
,
1000
0100
0001
0100
1000
0010
0100
0001
,
1000
0100
0010
0100
2000
0000
3001
0000
,
0100
0010
0001
0010
2000
0000
3100
0000
,
0001
0010
0100
0001
0200
0000
1300
0000
,
0010
0001
0010
1000
0100
0001
0100
1000
,
0010
0100
0001
1000
0100
0010
0001
0010
,
0000
0000
0000
0000
0000
0000
0000
0000
1000
0001
1000
0100
0000
0000
0001
0100
,
0000
2002
0000
3003
;

//---------------dance-double - ----------------
#NOTES:
     dance-double:
     :
     Easy:
     4:
     0.312,0.420,0.069,0.386,0.000:
00000000
00000000
00000000
00000000
,
00000000
00000000
00000000
00000000
,
00000000
00000000
00000000
00000000
,
00000000
00000000
00000000
00000000
,
00000000
00000000
00000000
00000000
,
00010000
00100000
00020000
00000000
,
01030000
00010000
00200000
00000000
,
00301000
00010000
00002000
00000000
,
00013000
00000000
00000100
00000000
,
00001000
00000000
00000010
00000000
,
00000100
00000000
00002002
00003003
,
00001000
00000000
00022000
00033000
,
00010000
00000000
20020000
30030000
,
10000000
00100000
01000000
00010000
,
00100000
00000000
20020000
30030000
,
00010000
00000000
00022000
00033000
,
00001000
00000000
00002002
00003003
,
00000001
00000010
00000100
00001000
,
00000002
00000000
00000103
00000100
,
00000020
00000000
00000000
00001030
,
00000200
00000000
00010300
00010000
,
00002000
00000000
00000000
00103000
,
00010000
00000000
01000000
00010000
,
01000000
00000000
00100000
10000000
,
00020000
00000000
00230000
00000000
,
02300000
00000000
23000000
00000000
,
30020000
00000000
00130000
00100000
,
00002000
00000000
00000000
00013000
,
00000200
00000000
00001300
00001000
,
00000020
00000000
00000000
00000130
,
00000001
00000000
00001000
00000000
,
00000100
00000000
00010000
00000000
,
00001000
00000000
00100000
00000000
,
00010000
10000000
00010000
00100000
,
00001000
00000000
00100000
00000000
,
00010000
01000000
00010000
00100000
,
00001000
00000000
00010000
00000000
,
00000100
00001000
00000010
00001000
,
00000100
00000000
00010000
00000000
,
00001000
00100000
00010000
01000000
,
00010000
00000000
00100000
00000000
,
00001000
00000000
00010000
00000000
,
00002000
00000000
00000000
00103000
,
00200000
00000000
00000000
00310000
,
00020000
00000000
00000000
01030000
,
02000000
00000000
00000000
03100000
,
00200000
00000000
00000000
10300000
,
20000000
00000000
00000000
30010000
,
00010000
00000000
00100000
00000000
,
00001000
00000000
00010000
00000000
,
00000200
00000000
00000000
00000310
,
00000020
00000000
00000000
00000031
,
00000002
00000000
00000000
00000103
,
00000200
00000000
00000000
00000310
,
00000020
00000000
00000000
00001030
,
00002000
00000000
00000000
00003100
,
00000100
00000000
00010000
00000000
,
00001000
00000000
00100000
00000000
,
00010000
01000000
00010000
00000000
,
10000000
00000000
00100000
00000000
,
01000000
00010000
01000000
00000000
,
00001000
00000000
00010000
00000000
,
00000100
00001000
00000100
00000000
,
00000010
00000000
00000010
00000000
,
00000001
00000000
00001000
00000000
,
00000001
00000100
00000001
00000100
,
00000010
00000000
00001000
00000000
,
00000100
00000000
00010000
00000000
,
00001000
00000000
00100000
00000000
,
00010000
01000000
00010000
00000000
,
10000000
00000000
00100000
00000000
,
01000000
00010000
00100000
00000000
,
00001000
00010000
00001000
00000000
,
00000100
00001000
00000100
00000000
,
00000010
00000000
00000001
00000000
,
00001000
00000000
00000100
00000000
,
00010000
00000000
00001000
00000000
,
00000000
00011000
00000000
00000000
;

//---------------dance-double - ----------------
#NOTES:
     dance-double:
     :
     Hard:
     9:
     0.674,0.688,0.237,0.445,0.015:
00000000
00000000
00000000
00000000
,
00000000
00000000
00000000
00000000
,
00000000
00000000
00000000
00000000
,
00000000
00000000
00000000
00000000
,
00000000
00000000
00000000
00000000
,
00010000
10000000
00010000
10000000
00010000
00000000
01000000
00000000
,
00001000
00010000
00001000
00010000
00001000
00000000
00000100
00000000
,
00000001
00001000
00000001
00001000
00000001
00000000
00000100
00000000
,
00000010
00001000
00000001
00000001
00000100
00000010
00001000
00001000
,
00000100
00010000
00001000
01000000
00100000
10000000
00010000
00100000
,
00001000
00010000
00000000
20020000
00000000
00000000
30030000
00000000
,
10000000
00010000
00000000
00022000
00000000
00000000
00033000
00000000
,
00010000
00001000
00000000
00002002
00000000
00000000
00003003
00000000
,
00000001
00000100
00000010
00001000
00000100
00010000
00000010
00000100
,
00000001
00001000
00000000
00022000
00000000
00000000
00033000
00000000
,
00001000
00010000
00000000
20020000
00000000
00000000
30030000
00000000
,
10000000
00010000
00000000
00022000
00000000
00000000
00033000
00000000
,
00001000
00100000
00010000
01000000
00100000
10000000
01000000
00100000
,
00002000
00000000
00000000
00203000
00000000
00000000
02300000
00000000
,
20000000
03000000
00010000
00000000
30100000
00000000
01000000
00010000
,
00200000
00000000
00000000
00302000
00000000
00000000
00023000
00000000
,
00000200
00030000
00001000
00000000
00000310
00000000
00000001
00001000
,
00000100
00000000
00000010
00000100
00000000
00000100
00001000
00000000
,
00000010
00000000
00010000
00001000
00000000
00001000
01000000
00000000
,
00200000
10000000
10300000
00010000
,
02020000
00000000
00000000
03030000
,
20000000
00000000
00000000
30200000
00000000
00000000
02300000
00000000
,
00020000
03000000
10000000
00000000
01030000
00000000
00010000
00100000
,
00002000
00000000
00000000
00023000
00000000
00000000
00030200
00000000
,
00002000
00000300
00000010
00000000
00003001
00000000
00001000
00000010
,
00000100
00000000
00000001
00000010
00000000
00000100
00001000
00000000
,
00000010
00000000
00010000
00001000
00000000
00100000
00010000
00000000
,
20000000
00010000
30010000
00100000
,
00022000
00000000
00000000
00033000
,
00010000
00001000
00010000
00000100
00010000
00001000
01000000
00010000
,
00200000
01000000
01000000
01300000
,
10000000
01000000
10000000
00010000
10000000
01000000
00100000
00001000
,
00020000
00001000
00001000
00031000
,
00000100
00001000
00000100
00000010
00000100
00001000
00000010
00000100
,
00000002
00001000
00001000
00001003
,
00000001
00000010
00000100
00001000
00000100
00010000
00001000
00100000
,
00010000
01000000
00100000
10000000
00100000
01000000
00010000
00100000
,
01100000
00000000
01000000
10000000
00100000
01000000
00010000
10000000
,
11000000
00000000
01000000
00100000
00001000
00010000
00001000
01000000
,
01010000
00000000
00010000
00100000
00001000
00010000
00000100
00001000
,
00000001
00000010
00001000
00010000
01000000
10000000
00100000
00000000
,
10100000
00000000
10000000
00010000
00100000
01000000
10000000
00100000
,
01100000
00000000
01000000
00010000
00100000
00001000
00010000
01000000
,
20000000
30020000
00230000
00302000
,
00013000
01000000
10000000
00100000
00010000
00001000
00000100
00000001
,
00000010
00000000
00000100
00001000
00000010
00000100
00000001
00001000
,
00001100
00000000
00000100
00010000
00000010
00001000
00000001
00000100
,
00000110
00000000
00000010
00001000
00000010
00000100
00000001
00001000
,
00000001
00000100
00001000
00010000
00100000
10000000
01000000
00000000
,
01100000
00000000
01000000
10000000
00010000
00100000
00001000
01000000
,
01010000
00000000
00010000
00100000
01000000
10000000
00100000
01000000
,
00020000
02030000
03002000
00023000
,
00031000
00000100
00000001
00000010
00001000
00010000
01000000
10000000
,
00100000
01000000
00000000
10010000
00000000
00000000
10000000
01000000
,
00010000
01000000
00100000
00001000
,
00010000
00000100
00000000
00001001
00000000
00000000
00000001
00000100
,
00001000
00000100
00000010
00010000
,
00000100
00001000
00000000
00000110
00000000
00000000
00000010
00000001
,
00001000
00000010
00000100
00000010
,
00010000
00000100
00001000
00000010
00010000
00001000
01000000
00010000
,
00100000
01000000
10000000
00100000
01000000
00100000
10000000
00010000
,
00001000
00000001
00001000
00000001
00001000
00000000
00000100
00000000
,
00010000
00001000
00010000
00001000
00010000
00000000
01000000
00000000
,
10000000
00010000
10000000
00010000
10000000
00000000
00100000
00000000
,
01000000
00010000
10000000
10000000
01000000
00100000
00010000
00010000
,
01000000
00001000
00010000
00000100
00001000
00000010
00000100
00000001
,
00001000
00000010
00000100
00000001
00001000
00000000
00001010
00000000
,
00000010
00001000
00000100
00010000
00001000
00000000
00011000
00000000
,
00010000
00001000
00100000
01000000
10000000
00000000
11000000
00000000
,
10000000
00100000
00010000
00100000
10000000
01000000
00100000
00100000
,
00001000
00010000
01000000
00010000
00001000
00000010
00000100
00000100
,
00000000
00000000
00000000
00000000
00000000
00000000
00000000
00000000
00000010
00000001
00000010
00000001
00000000
00000000
00000100
00000010
,
00000000
00001001
00000000
00000000
;

//---------------dance-double - ----------------
#NOTES:
     dance-double:
     :
     Medium:
     6:
     0.498,0.497,0.109,0.534,0.000:
00000000
00000000
00000000
00000000
,
00000000
00000000
00000000
00000000
,
00000000
00000000
00000000
00000000
,
00000000
00000000
00000000
00000000
,
00000000
00000000
00000000
00000000
,
00010000
00000000
01000000
00010000
02000000
00000000
00000000
00000000
,
13000000
00000000
01000000
10000000
02000000
00000000
00000000
00000000
,
03010000
00000000
01000000
00100000
02000000
00000000
00000000
00000000
,
03010000
00100000
01000000
00100000
,
01000000
10000000
00010000
00100000
,
00001000
00010000
00000000
00022000
00000000
00000000
00033000
00000000
,
00001000
00000001
00000000
00002002
00000000
00000000
00003003
00000000
,
00000001
00001000
00000000
00022000
00000000
00000000
00033000
00000000
,
00001000
00010000
00001000
00000000
01000000
00010000
01000000
00000000
,
00010000
10000000
00000000
20020000
00000000
00000000
30030000
00000000
,
10000000
00010000
00000000
00022000
00000000
00000000
00033000
00000000
,
00001000
00010000
00000000
20020000
00000000
00000000
30030000
00000000
,
10000000
01000000
10000000
00000000
00010000
01000000
00010000
00000000
,
00200000
00000000
00000000
02300000
00000000
00000000
13000000
00000000
,
00010000
00000000
00100000
00000000
00001000
00000000
00010000
00001000
,
00020000
00000000
00000000
00030200
00000000
00000000
00001300
00000000
,
00000010
00000000
00000100
00000000
00000001
00000000
00001000
00000100
,
00002000
00000000
00000000
00003002
00000000
00000000
00000103
00000000
,
00000002
00000000
00000000
00002003
00000000
00000000
00003100
00000000
,
00000010
00000010
00000010
00000010
,
00000220
00000000
00000000
00000330
,
00002000
00000000
00000000
00003020
00000000
00000000
00000130
00000000
,
00000001
00000000
00000010
00000000
00000100
00000000
00000010
00000001
,
00000020
00000000
00000000
00000230
00000000
00000000
00001300
00000000
,
00000010
00000000
00010000
00000000
00001000
00000000
01000000
00010000
,
02000000
00000000
00000000
03200000
00000000
00000000
10300000
00000000
,
00200000
00000000
00000000
02300000
00000000
00000000
03010000
00000000
,
00100000
00100000
00100000
00100000
,
02200000
00000000
00000000
03300000
,
01000000
01000000
10000000
10000000
,
00010000
10000000
00010000
00000000
10000000
00010000
10000000
00000000
,
00010000
00010000
01000000
01000000
,
00001000
00010000
00001000
00000000
00010000
00001000
00010000
00000000
,
00000100
00000100
00001000
00001000
,
00000001
00001000
00000001
00000000
00001000
00000001
00001000
00000000
,
00000001
00000100
00000001
00000100
,
00000010
00001000
00000010
00001000
,
00000100
00000000
00000010
00000001
00000010
00000000
00000100
00000000
,
00001000
00000000
00000001
00000100
00000001
00000000
00001000
00000000
,
00000010
00000000
00000100
00000010
00001000
00000000
00000100
00000000
,
00010000
00001000
00010000
00000000
00001000
00010000
00001000
00000000
,
01000000
00000000
00100000
10000000
00100000
10000000
00100000
00000000
,
01000000
00000000
00010000
10000000
00010000
10000000
00010000
00000000
,
02000000
00000000
03200000
00000000
,
20300000
00000000
30020000
00000000
,
00130000
00000000
00010000
01000000
00010000
00000000
10000000
00000000
,
00100000
00000000
01000000
00010000
01000000
00000000
00010000
00000000
,
00100000
00000000
01000000
00100000
00010000
00000000
01000000
00000000
,
00001000
00010000
00001000
00000000
00010000
00001000
00010000
00000000
,
00000100
00000000
00001000
00000010
00001000
00000010
00001000
00000000
,
00000010
00000000
00000100
00000001
00000100
00000001
00000100
00000000
,
00000020
00000000
00002030
00000000
,
00003002
00000000
00000203
00000000
,
00000310
00000000
00000100
00000000
00000010
00000000
00000100
00000001
,
00002000
00000000
00003100
00000000
,
00010000
00000000
00001000
00000000
00010000
00000000
00001000
01000000
,
00020000
00000000
10030000
00000000
,
01000000
00000000
00100000
00000000
01000000
00000000
00100000
00010000
,
20000000
00000000
30010000
00000000
,
01000000
00100000
10000000
00010000
,
01000000
00001000
00010000
00011000
,
00001000
00000000
00000010
00001000
00000020
00000000
00000000
00000000
,
00000031
00000000
00000010
00000001
00000020
00000000
00000000
00000000
,
00001030
00000000
00000010
00000100
00000020
00000000
00000000
00000000
,
00001030
00000100
00000010
00000001
,
00000010
00000100
00001000
00000010
,
00010000
00000000
00001000
00010000
00002000
00000000
00000000
00000000
,
00103000
00000000
00010000
00100000
00020000
00000000
00000000
00000000
,
01030000
00000000
00001000
00010000
00002000
00000000
00000000
00000000
,
00013000
00000100
00001000
00000010
,
00000100
00000001
00001000
00000100
,
00000000
00000000
00022000
00000000
,
00033000
00011000
00000000
00000000
;

//---------------dance-double - ----------------
#NOTES:
     dance-double:
     :
     Challenge:
     9:
     0.735,0.803,0.168,0.455,0.104: // measure 1
00000000
00000000
00000000
00000000
,  // measure 2
00000000
00000000
00000000
00000000
,  // measure 3
00000000
00000000
00000000
00000000
,  // measure 4
00000000
00000000
00000000
00000000
,  // measure 5
00000000
00000000
00000000
00000000
,  // measure 6
00010000
00100000
01000000
10000000
01000000
00000000
00100000
00000000
,  // measure 7
00001000
00010000
00000100
00001000
00000010
00000000
00000100
00000000
,  // measure 8
00000001
00000100
00000010
00001000
00000010
00000000
00010000
00000000
,  // measure 9
00001000
01000000
00100000
00010000
00100000
10000000
00010000
00100000
,  // measure 10
00001000
00010000
00000100
00001000
00000010
00000001
00000010
00000100
,  // measure 11
00000001
00000010
00000001
00000010
00000000
00000000
00002200
00000000
00000000
00000000
00000000
00000000
00003300
00000000
00000000
00000000
,  // measure 12
00000100
00010000
00000100
00010000
00000000
00000000
00022000
00000000
00000000
00000000
00000000
00000000
00033000
00000000
00000000
00000000
,  // measure 13
00001000
01000000
00001000
01000000
00000000
00000000
02020000
00000000
00000000
00000000
00000000
00000000
03030000
00000000
00000000
00000000
,  // measure 14
00010000
00100000
01000000
10000000
00100000
00010000
00100000
01000000
,  // measure 15
00010000
00100000
00010000
00100000
00000000
00000000
22000000
00000000
00000000
00000000
00000000
00000000
33000000
00000000
00000000
00000000
,  // measure 16
01000000
00100000
01000000
00100000
00000000
00000000
00220000
00000000
00000000
00000000
00000000
00000000
00330000
00000000
00000000
00000000
,  // measure 17
00100000
00001000
00100000
00001000
00000000
00000000
00022000
00000000
00000000
00000000
00000000
00000000
00033000
00000000
00000000
00000000
,  // measure 18
00010000
00000100
00001000
00000010
00000100
00001000
00000100
00000001
,  // measure 19
00000020
00000000
00000000
00000230
00000000
00000000
00002300
00000000
,  // measure 20
00000002
00003000
00000100
00000000
00000013
00000000
00000001
00000100
,  // measure 21
00000020
00000000
00000000
00020030
00000000
00000000
00030200
00000000
,  // measure 22
00002000
00000300
00000010
00000000
00003100
00000000
00001000
00000100
,  // measure 23
00010000
00001000
01000000
00100000
00000000
00100000
10000000
00010000
,  // measure 24
00100000
01000000
10000000
00100000
00000000
00100000
01000000
00010000
,  // measure 25
00200000
00001000
00010000
01000000
,  // measure 26
02300000
00010000
00100000
13000000
,  // measure 27
20000000
00000000
00000000
00000000
00000000
00000000
00200000
30000000
00000000
00000000
00000000
00000000
02300000
00000000
00000000
00000000
,  // measure 28
00020000
03000000
00100000
00000000
10030000
00000000
00010000
00100000
,  // measure 29
00002000
00000000
00000000
02003000
00000000
00000000
03020000
00000000
,  // measure 30
00200000
00000000
00030000
00000000
00001000
00000000
00000000
00000000
00010000
00300000
00000000
00000000
00100000
00000000
00001000
00000000
,  // measure 31
00010000
00000010
00000100
00000001
00000000
00000001
00000010
00000100
,  // measure 32
00001000
00000010
00000100
00000001
00000000
00000001
00000100
00000010
,  // measure 33
00000200
00001000
00000010
00000301
,  // measure 34
00000002
00000010
00001000
00000103
,  // measure 35
00000001
00000100
00000001
00000100
00000010
00001000
00000100
00010000
,  // measure 36
00002000
00100000
00100000
00103000
,  // measure 37
00001000
00010000
00001000
00010000
01000000
00100000
00010000
10000000
,  // measure 38
00200000
01000000
01000000
01300000
,  // measure 39
00100000
10000000
00100000
10000000
00010000
01000000
00001000
00010000
,  // measure 40
00000200
00001000
00001000
00001300
,  // measure 41
00000100
00000010
00000001
00000100
00001000
00000100
00000010
00010000
,  // measure 42
00001000
00100000
01000000
10000000
01000000
00100000
00001000
01000000
,  // measure 43
01010000
00000000
00010000
01000000
00100000
10000000
00100000
01000000
,  // measure 44
10010000
00000000
00010000
00100000
00001000
00010000
01000000
00100000
,  // measure 45
10010000
00000000
10000000
01000000
00100000
00010000
00100000
01000000
,  // measure 46
10000000
10000000
01000000
01000000
00100000
00100000
00001000
00001000
,  // measure 47
00011000
00000000
00010000
00000100
00001000
00000010
00000100
00000001
,  // measure 48
00001001
00000000
00000001
00000010
00000100
00010000
00000100
00000010
,  // measure 49
00000002
00000203
00000320
00020030
,  // measure 50
00031000
00000100
00000001
00000100
00001000
00100000
10000000
01000000
,  // measure 51
01100000
00000000
00100000
00010000
00100000
01000000
10000000
00010000
,  // measure 52
01100000
00000000
00100000
00001000
01000000
00100000
10000000
00010000
,  // measure 53
01100000
00000000
01000000
10000000
00010000
00100000
00001000
01000000
,  // measure 54
00100000
00100000
10000000
10000000
00010000
00010000
00100000
00100000
,  // measure 55
00011000
00000000
00010000
00000100
00001000
00000010
00000100
00000001
,  // measure 56
00000110
00000000
00001000
00000001
00000010
00000100
00010000
00000100
,  // measure 57
00000020
00000230
00002300
00003002
,  // measure 58
00001003
00000100
00000001
00000100
00001000
01000000
00100000
00010000
,  // measure 59
10000000
00100000
01000000
00010000
00100000
01000000
10000000
00010000
,  // measure 60
00200000
00001000
00010000
00301000
,  // measure 61
00001000
00010000
00000100
00000010
00000001
00000100
00000010
00001000
,  // measure 62
00000200
00010000
00000010
00010300
,  // measure 63
00010000
00001000
01000000
00010000
00100000
00001000
00010000
00000010
,  // measure 64
00002000
00000100
00000001
00003100
,  // measure 65
00000100
00000010
00000001
00000010
00000100
00010000
00001000
01000000
,  // measure 66
00100000
10000000
00010000
00100000
00001000
00010000
01000000
00100000
,  // measure 67
10000000
00100000
01000000
00010000
01000000
00000000
00010000
00000000
,  // measure 68
00100000
00001000
00010000
00000010
00000100
00000000
00000001
00000000
,  // measure 69
00000010
00000100
00001000
00000001
00001000
00000000
00000010
00000000
,  // measure 70
00000100
00000001
00000010
00000100
00001000
00000010
00010000
00001000
,  // measure 71
01000000
00100000
00010000
10000000
01000000
00100000
10000000
00010000
,  // measure 72
00100000
01000000
00100000
01000000
00100000
00000000
00010000
00000000
10000000
00000000
01000000
00000000
00100000
00000000
00001000
00000000
,  // measure 73
00010000
00001000
00010000
00001000
00010000
00000000
00000100
00000000
00001000
00000000
00000010
00000000
00000100
00000000
00000001
00000000
,  // measure 74
00001000
00000010
00001000
00000010
00001000
00000000
00000100
00000000
00010000
00000000
00001000
00000000
01000000
00000000
00100000
00000000
,  // measure 75
00010000
00100000
10000000
00100000
00010000
00000100
00000010
00001000
,  // measure 76
00001000
00000100
00000001
00000100
00001000
01000000
00100000
00010000
,  // measure 77
00000000
00000000
00000000
00000000
00000000
00000000
00000000
00000000
10000000
01000000
00100000
00010000
00000000
00000000
00010000
01000000
,  // measure 78
00000000
10010000
00000000
00000000
;
