#TITLE:She's Like The Wind;
#SUBTITLE:;
#ARTIST:Brisby & Jingles;
#TITLETRANSLIT:;
#SUBTITLETRANSLIT:;
#ARTISTTRANSLIT:;
#GENRE:;
#CREDIT:;
#MENUCOLOR:;
#METERTYPE:DDR;
#BANNER:She's Like The Wind-bn.png;
#BACKGROUND:She's Like The Wind-bg.png;
#LYRICSPATH:She's Like The Wind.lrc;
#CDTITLE:ddrencorecdtitle.png;
#MUSIC:She's Like The Wind.mp3;
#OFFSET:-0.037;
#SAMPLESTART:64.000;
#SAMPLELENGTH:14.222;
#SELECTABLE:YES;
#LISTSORT:;
#BPMS:0.000=135.000;
#STOPS:;
#BGCHANGES:;
#ATTACKS:;

//---------------dance-single - ----------------
#NOTES:
     dance-single:
     :
     Beginner:
     1:
     0.097,0.190,0.018,0.000,0.000:
0000
0000
0000
0000
,
0000
0000
0000
0000
,
0000
0000
0000
0000
,
0000
0000
0000
0000
,
1000
0000
0000
0000
,
0001
0000
0001
0000
,
0100
0000
0000
0000
,
0010
0000
0000
0000
,
1000
0000
0000
0000
,
0100
0000
1000
0000
,
0100
0000
0000
0000
,
0010
0000
0000
0000
,
0001
0000
0000
0000
,
0100
0000
0001
0000
,
0100
0000
0000
0000
,
0010
0000
0000
0000
,
1000
1000
1000
0000
,
0001
0001
0001
0000
,
0010
0000
0000
0000
,
0100
0000
0000
0000
,
1000
1000
1000
0000
,
0001
0000
0100
0000
,
0010
0000
0000
0000
,
0100
0000
0000
0000
,
1001
0000
0000
0000
,
0000
0000
0000
0000
,
0000
0000
0000
0000
,
0000
0000
0000
0000
,
0001
0000
0000
0000
,
1000
0000
0000
0000
,
0100
0000
0000
0000
,
0010
0000
0010
0000
,
0001
0000
0000
0000
,
1000
0000
0000
0000
,
0010
0000
0000
0000
,
0010
0000
0000
0000
,
0100
0000
0000
0000
,
0001
0000
1000
0000
,
0010
0000
0000
0000
,
0100
0000
0000
0000
,
0010
0000
0000
0000
,
1000
0000
0001
0000
,
0100
0000
0000
0000
,
0010
0000
0000
0000
,
1000
0000
0000
0000
,
0100
0000
1000
0000
,
0010
0000
0000
0000
,
0100
0000
0001
0000
,
1000
0000
0000
0000
,
0010
0000
1000
0000
,
0100
0000
0000
0000
,
1000
0000
0001
0000
,
0100
0000
0000
0000
,
0010
0000
0000
0000
,
0100
0000
0000
0000
,
0001
0000
0001
0000
,
1000
0000
0000
0000
,
0100
0000
0000
0000
,
1000
0000
0000
0000
,
0010
0000
0010
0000
,
1001
0000
0000
0000
;

//---------------dance-single - ----------------
#NOTES:
     dance-single:
     :
     Easy:
     3:
     0.183,0.218,0.018,0.154,0.000:
0000
0000
0000
0000
,
0000
0000
0000
0000
,
0000
0000
0000
0000
,
0000
0000
0000
0000
,
0001
0000
0000
0000
,
1000
0000
0010
1000
,
0001
0000
0000
0000
,
1000
0000
0000
0000
,
0001
0100
0010
0000
,
0010
0000
1000
0001
,
0020
0000
0000
0030
,
0200
0000
0000
0300
,
1000
0010
0100
0000
,
0100
0000
0001
1000
,
0020
0000
0000
0030
,
0200
0000
0000
0300
,
0001
1000
0100
0000
,
0100
1000
0001
0000
,
0200
0000
0000
0300
,
0020
0000
0000
0030
,
1000
0100
0010
0000
,
0001
0100
0010
1000
,
0001
0000
1000
0000
,
0010
0000
0100
0000
,
2002
0000
0000
0000
,
0000
0000
0000
3000
,
0200
0000
0000
0000
,
0000
0000
0000
0303
,
0001
0100
0010
1000
,
0100
0000
0010
0100
,
1000
0001
0100
0010
,
1000
0000
0001
0000
,
1000
0100
0010
0001
,
0100
0000
0010
1000
,
0001
0100
0001
0010
,
0100
0000
0000
0000
,
1000
0001
1000
0000
,
0100
0000
0010
0001
,
0010
0000
0010
0000
,
0100
0000
0100
0000
,
1000
0001
1000
0000
,
0010
0000
0100
0001
,
0100
0000
0100
0000
,
0010
0000
0000
0000
,
2000
0000
3100
0000
,
0020
0000
0130
1000
,
0002
0000
0103
0000
,
0020
0000
0130
0001
,
2000
0000
3010
0000
,
0200
0000
0310
1000
,
0002
0000
0013
0000
,
0200
0000
0310
0001
,
0100
0000
0000
0000
,
0010
0000
1000
0001
,
0010
0000
0000
0000
,
0100
0000
0000
0000
,
1000
0000
0000
0000
,
0001
0000
0100
0010
,
1000
0000
0000
0000
,
0001
0000
0010
0100
,
0110
0000
0000
0000
;

//---------------dance-single - ----------------
#NOTES:
     dance-single:
     :
     Medium:
     5:
     0.264,0.326,0.045,0.163,0.000:
0000
0000
0000
0000
,
0000
0000
0000
0000
,
0000
0000
0000
0000
,
0000
0000
0000
0000
,
1000
0000
0100
0000
0100
0000
0010
0001
,
0100
0000
0100
0000
0010
1000
0010
1000
,
0001
0000
0100
0000
0100
0000
0010
1000
,
0100
0100
0020
0000
,
0031
0100
0010
0000
,
0010
0000
1000
0100
,
0020
0000
0000
0130
,
0200
0000
0000
0300
,
0010
0001
0100
0000
,
0010
0000
1000
0001
,
0200
0000
0000
0010
,
0320
0000
0000
0000
,
0130
0001
0100
0100
,
0010
1000
0001
0010
,
0200
0000
0010
0010
,
0320
0000
0100
0100
,
0130
1000
0001
0000
,
0100
0010
1000
0001
,
0010
0000
0100
0000
,
0010
0000
0001
0100
,
2002
0000
0000
0000
,
0000
0000
0000
0003
,
0200
0000
0000
0000
,
0000
0000
0000
3300
,
1000
0010
0010
0100
,
0002
0000
0000
0010
0000
0000
1003
0000
,
0001
0100
0100
0010
,
2000
0000
0000
0010
0000
0000
3001
0000
,
1000
0001
0001
0010
,
0200
0000
0000
1000
0000
0000
0310
0000
,
0001
0000
0000
0110
0000
0000
0001
0000
,
1000
0000
0000
0110
0000
0000
1000
0000
,
0001
0100
0001
0100
0000
0000
0010
0000
,
1000
0100
0010
0001
,
0200
0000
0000
0310
,
0020
0000
0000
0030
,
1000
0100
1000
0100
0000
0000
0010
0000
,
0001
1000
0100
0010
,
0020
0000
0000
0130
,
0200
0000
0000
0300
,
0010
0000
0001
0000
0010
0100
0010
0000
,
0001
0000
1000
0000
0100
1000
0100
1000
,
0001
0000
0100
0000
0010
0100
0010
0000
,
1000
0001
0010
1001
,
0010
0000
1000
0000
0100
0010
0100
0000
,
1000
0000
0001
0000
0100
0001
0100
0001
,
1000
0000
0010
0000
0100
0010
0100
0000
,
0001
1000
0020
0000
,
0130
0000
0100
0000
,
0010
0000
0000
0000
0010
1000
0010
1000
,
0001
0000
0100
0000
,
0010
0000
1000
0000
,
0010
0000
0010
0000
,
0100
0000
0000
0000
0100
0001
0100
0001
,
1000
0000
0001
0000
,
0010
0000
0000
0000
0100
1000
0001
0100
,
0110
0000
0000
0000
;

//---------------dance-single - ----------------
#NOTES:
     dance-single:
     :
     Hard:
     7:
     0.429,0.442,0.163,0.236,0.104: // measure 1
0000
0000
0000
0000
,  // measure 2
0000
0000
0000
0000
,  // measure 3
0000
0000
0000
0000
,  // measure 4
0000
0000
0000
0000
,  // measure 5
1000
0000
0000
0000
0001
0000
0000
0010
0000
0000
0001
0000
1000
0000
0010
0000
,  // measure 6
0100
0000
0000
0000
0001
0000
0000
1000
0000
1000
0010
0000
0100
0000
0001
0000
,  // measure 7
0001
0000
0000
0000
1000
0000
0000
0100
0000
0000
1000
0000
0001
0000
0100
0000
,  // measure 8
0010
0000
1000
0000
0220
0000
0000
0330
,  // measure 9
0010
0100
0001
0010
0100
1000
0010
0000
,  // measure 10
0100
0001
0010
0100
0000
0100
1000
0010
,  // measure 11
0100
0000
0010
1000
0000
0010
0100
0000
,  // measure 12
0001
0000
0010
0001
0000
0010
0100
0000
,  // measure 13
0010
0001
1000
0010
0100
0001
0010
0000
,  // measure 14
0100
1000
0010
0100
0000
0100
0001
1000
,  // measure 15
0100
0000
0010
0100
0000
0010
0001
0000
,  // measure 16
1000
0000
0010
2000
0002
0000
0000
3003
,  // measure 17
0001
0100
0010
1000
0100
0001
0100
0000
,  // measure 18
1000
0010
0100
0001
0010
1000
0010
0001
,  // measure 19
0100
0000
0010
1000
0000
0010
0100
0000
,  // measure 20
0001
0000
1000
0100
0000
1000
0010
0000
,  // measure 21
1000
0010
0100
0001
0100
1000
0100
0000
,  // measure 22
0001
0100
0010
1000
0010
0001
0010
0100
,  // measure 23
0002
0010
1000
0103
,  // measure 24
0001
0000
0000
1000
0000
0000
0010
0000
0000
0000
0100
0000
0000
0000
0001
0000
,  // measure 25
0200
0000
0320
0000
,  // measure 26
2030
0000
3002
0000
,  // measure 27
0203
0000
0000
0000
1000
0000
0000
0000
0020
0300
0000
0000
0001
0000
0000
0000
,  // measure 28
2030
0100
3002
0010
,  // measure 29
0103
1001
0010
1001
,  // measure 30
0200
0000
0000
1000
0000
0000
0301
0000
,  // measure 31
0010
1001
0100
1001
,  // measure 32
0020
0000
0000
0001
0000
0000
1030
0000
,  // measure 33
0001
0110
1000
0110
,  // measure 34
0200
0000
0000
0001
0000
0000
1300
0000
,  // measure 35
0010
0000
1000
0100
0000
0001
0100
0000
,  // measure 36
0010
0000
0000
0001
0000
0000
0100
0000
0000
0000
0010
0000
0000
0000
1000
0000
,  // measure 37
0001
0010
0001
0100
0002
0000
1000
0000
,  // measure 38
0103
0000
1001
0000
0010
0000
0001
0100
,  // measure 39
1000
0000
0010
1000
0100
0010
0001
0000
,  // measure 40
0010
0000
0100
1000
0010
0100
0001
0000
,  // measure 41
1000
0100
1000
0010
2000
0000
0001
0000
,  // measure 42
3100
0000
1001
0000
0010
0000
1000
0010
,  // measure 43
0001
0000
0010
0100
0000
0010
1000
0000
,  // measure 44
0100
0000
0000
0010
0000
0000
2002
0000
0000
0000
0000
0000
0000
0000
3003
0000
,  // measure 45
0001
0000
0000
0000
1000
0000
0000
0100
0000
0000
1000
0000
0001
0000
0010
0000
,  // measure 46
0100
0000
0000
0000
1000
0000
0000
0001
0000
0001
0100
0000
0010
0000
1000
0000
,  // measure 47
1000
0000
0000
0000
0001
0000
0000
0010
0000
0000
0001
0000
1000
0000
0010
0000
,  // measure 48
0100
0001
0010
1001
,  // measure 49
1000
0000
0000
0000
0001
0000
0000
0100
0000
0000
0001
0000
1000
0000
0010
0000
,  // measure 50
0100
0000
0000
0000
0001
0000
0000
1000
0000
1000
0010
0000
0100
0000
0001
0000
,  // measure 51
0001
0000
0000
0000
1000
0000
0000
0010
0000
0000
1000
0000
0001
0000
0100
0000
,  // measure 52
0010
0000
0000
0000
1000
0000
0000
0001
0000
0000
1000
0000
0010
0000
0000
0000
,  // measure 53
0200
0000
0000
0000
0001
0000
0000
0001
0300
0000
0000
0000
1000
0000
0000
0000
,  // measure 54
0100
0000
0000
0000
1001
0000
0000
0010
0000
0000
0001
0000
0100
0000
0010
0000
,  // measure 55
2000
0000
0000
0000
0001
0000
0000
0001
3000
0000
0000
0000
0010
0000
0000
0000
,  // measure 56
1001
0000
0110
0000
,  // measure 57
0020
0000
0000
0000
1000
0000
0000
1030
0000
0000
0000
0000
0001
0000
0000
0000
,  // measure 58
0010
0000
0000
0000
1001
0000
0000
0010
0000
0000
1000
0000
0010
0000
0100
0000
,  // measure 59
0002
0000
0000
0000
1000
0000
0000
1000
0003
0000
0000
0000
0010
0000
0000
0000
,  // measure 60
1001
0000
0000
0000
0110
0000
0000
1001
0000
0000
0100
0000
0001
0000
0020
0000
,  // measure 61
0200
0000
0000
0000
,  // measure 62
0330
0000
0000
0000
;

//---------------dance-double - ----------------
#NOTES:
     dance-double:
     :
     Easy:
     2:
     0.133,0.190,0.027,0.082,0.000:
00000000
00000000
00000000
00000000
,
00000000
00000000
00000000
00000000
,
00000000
00000000
00000000
00000000
,
00000000
00000000
00000000
00000000
,
10000000
00000000
00000000
00000000
,
00010000
00000000
01000000
00000000
,
00001000
00000000
00000000
00000000
,
00001000
00000000
00000000
00000000
,
00010000
00000000
00001000
00000000
,
00010000
00000000
00010000
00010000
,
00000100
00000000
00000000
00000000
,
00000100
00000000
00000000
00000000
,
00001000
00000000
00000001
00000000
,
00001000
00000000
00001000
00001000
,
00000010
00000000
00000000
00000000
,
00000010
00000000
00000000
00000000
,
00000100
00000100
00000100
00000000
,
00000001
00000001
00000001
00000000
,
00001000
00000000
00000000
00000000
,
00001000
00000000
00000000
00000000
,
00000100
00000100
00000100
00000000
,
00010000
00000000
00001000
00000000
,
01000000
00000000
00000000
00000000
,
00100000
00000000
00000000
00000000
,
20020000
00000000
00000000
00000000
,
00000000
00000000
00000000
00030000
,
02000000
00000000
00000000
00000000
,
00000000
00000000
00000000
33000000
,
10000000
00000000
01000000
00000000
,
00100000
00000000
00100000
00001000
,
00010000
00000000
00010000
00000000
,
00001000
00000000
00001000
00010000
,
00000100
00000000
00001000
00000000
,
00000010
00000000
00000010
00000100
,
00000001
00000000
00000010
00000000
,
00000100
00000000
00000000
00000000
,
00010000
00000000
00001000
00000000
,
00100000
00000000
01000000
00100000
,
00010000
00000000
10000000
00000000
,
00100000
00000000
10010000
00000000
,
00100000
00000000
01000000
00000000
,
00010000
00000000
00100000
00001000
,
00010000
00000000
00000000
00000000
,
00010000
00000000
00000000
00000000
,
00001000
00000000
00000000
00000000
,
00010000
00000000
00000100
00000000
,
00001000
00000000
00000000
00000000
,
00000001
00000000
00000000
00000000
,
00000001
00000000
00000000
00000000
,
00001000
00000000
00000100
00000000
,
00010000
00000000
00000000
00000000
,
00001000
00000000
00000000
00000000
,
02000000
00000000
03000000
00000000
,
00100000
00000000
10000000
00000000
,
02000000
00000000
03000000
00000000
,
00200000
00000000
00300000
00000000
,
00002000
00000000
00003000
00000000
,
00010000
00000000
00000100
00000000
,
00002000
00000000
00003000
00000000
,
00000002
00000000
00000003
00000000
,
00001001
00000000
00000000
00000000
;

//---------------dance-double - ----------------
#NOTES:
     dance-double:
     :
     Medium:
     5:
     0.259,0.354,0.054,0.027,0.000:
00000000
00000000
00000000
00000000
,
00000000
00000000
00000000
00000000
,
00000000
00000000
00000000
00000000
,
00000000
00000000
00000000
00000000
,
00100000
00000000
01000000
00000000
,
00100000
00000000
10000000
00010000
,
01000000
00000000
00000000
00000000
,
01000000
00000000
00000000
00000000
,
00001000
00010000
00000100
00000100
,
00001000
00000010
00000100
00000001
,
00001000
00000000
00001000
00000100
00000000
00000100
00001000
00000000
,
00000001
00000000
00000001
00000100
00000000
00000100
00000001
00000000
,
00001000
00000010
00010000
00010000
,
00001000
01000000
00010000
00100000
,
01000000
00000000
01000000
10000000
00000000
10000000
01000000
00000000
,
00100000
00000000
00100000
00010000
00000000
00000000
10000000
00000000
,
00100000
10000000
01000000
00100000
,
00001000
00010000
00000100
00001000
,
00000010
00000000
00000100
00000001
00000000
00000001
00000100
00000000
,
00000010
00000000
00001000
00000100
00000000
00000100
00001000
00000000
,
00000010
00000100
00000001
00001000
,
00000100
00010000
00001000
01000000
,
00100000
00000000
10000000
00010000
00000000
00010000
01000000
00000000
,
00100000
00000000
00000000
00000000
,
20020000
00000000
00000000
00000000
,
00000000
00000000
00000000
30000000
,
02000000
00000000
00000000
00000000
,
00000000
00000000
00000000
03030000
,
00010000
01000000
00100000
10000000
,
00010000
00000000
00000000
00100000
00000000
00000000
00001000
00000000
,
00010000
00000100
00001000
00000010
,
00000100
00000000
00000000
00000001
00000000
00000000
00000010
00000000
,
00000001
00001000
00000100
00010000
,
00001000
00000000
00000000
00100000
00000000
00000000
00001000
00000000
,
00010000
00000000
00000000
00001100
00000000
00000000
00010000
00000000
,
00001000
00000000
00000000
01010000
00000000
00000000
00001000
00000000
,
00100000
00010000
01000000
00000000
,
00100000
00000000
10000000
01000000
,
00100000
00000000
00010000
01000000
00000000
01000000
00010000
00000000
,
00100000
00000000
00001000
00010000
00000000
00010000
00001000
00000000
,
00010000
00000100
00001000
00000010
,
00000100
00000001
00001000
00000100
,
00000010
00000000
00000001
00001000
00000000
00001000
00000010
00000000
,
00000100
00000000
00000000
00000010
00000000
00000000
00001000
00000000
,
00000001
00000000
00000001
00000000
00000001
00000010
00000100
00001000
,
00000100
00010000
00001000
01000000
,
00010000
00000000
00010000
00000000
00010000
00100000
01000000
10000000
,
01000000
10010000
01000000
10010000
,
10000000
00000000
10000000
00000000
10000000
00100000
01000000
00010000
,
01000000
00001000
00010000
00000100
,
00001000
00000000
00001000
00000000
00001000
00000010
00000100
00000001
,
00000100
00000000
00000001
00000000
,
00000100
00000000
00000010
00000000
,
00000100
00000000
00000001
00001000
,
00000100
00000000
00010000
00000000
,
00001000
00000000
01000000
00000000
,
00010000
00000000
10000000
00000000
,
00010000
00000000
00100000
01000000
,
10000000
00000000
00010000
00000000
,
01000000
00000000
00000000
00000000
,
00011000
00000000
00000000
00000000
;

//---------------dance-double - ----------------
#NOTES:
     dance-double:
     :
     Hard:
     7:
     0.420,0.442,0.172,0.145,0.050:
00000000
00000000
00000000
00000000
,
00000000
00000000
00000000
00000000
,
00000000
00000000
00000000
00000000
,
00000000
00000000
00000000
00000000
,
00000100
00000000
00000000
00000000
00001000
00000000
00000000
00000100
00000000
00000000
00000010
00000000
00000001
00000000
00000100
00000000
,
00000010
00000000
00000000
00000000
00001000
00000000
00000000
00000010
00000000
00000010
00010000
00000000
00001000
00000000
01000000
00000000
,
01000000
00000000
00000000
00000000
00010000
00000000
00000000
01000000
00000000
00000000
00100000
00000000
10000000
00000000
00010000
00000000
,
00100000
00000000
01000000
00000000
20020000
00000000
00000000
30030000
,
10000000
01000000
00100000
01000000
10000000
00010000
01000000
00000000
,
00010000
00000000
01000000
00000000
00100000
00000000
10000000
01000000
,
00100000
00000000
00010000
00000000
10000000
01000000
00100000
00000000
,
00001000
00000000
00010000
00000000
00000100
00001000
00000010
00000000
,
00001000
00000100
00000010
00000100
00001000
00000001
00000100
00000000
,
00000010
00000000
00001000
00000000
00000001
00000000
00001000
00000100
,
00000010
00000000
00000001
00000000
00001000
00000100
00000010
00000000
,
00000100
00000000
00010000
00000000
00001000
00100000
00010000
00000000
,
10000000
00100000
01000000
00010000
00100000
00001000
00010000
00000000
,
00000100
00001000
00000010
00000100
00000001
00001000
00000100
00010000
,
00001000
00000000
00100000
00000000
00010000
01000000
10000000
00000000
,
01000000
00000000
00100000
00000000
10000000
01000000
00010000
00000000
,
01000000
10000000
00100000
01000000
00010000
00100000
00001000
00000000
,
00010000
00000100
00001000
00000010
00000100
00000001
00000010
00000100
,
00010000
00000000
00001000
00000000
00010000
00100000
10000000
00000000
,
01000000
00000000
00100000
00001000
,
00020000
00000000
00030200
00000000
,
00002300
00000000
00003020
00000000
,
00001030
00000100
00000001
00000100
,
00010000
01000000
10000000
00100000
,
01000000
10010000
01000000
10010000
,
00200000
00000000
00000000
00001000
00300000
00000000
00101000
00000000
,
00100000
00011000
00000010
00011000
,
00000200
00000000
00000000
00000010
00000300
00000000
00000110
00000000
,
00000010
00001001
00000010
00001001
,
00002000
00000000
00000000
00000100
00003000
00000000
00010100
00000000
,
00002000
00000000
00000000
01000000
00003000
00000000
01001000
00000000
,
00020000
00000000
00000000
00000010
00030000
00000000
00010010
00000000
,
00001000
00000010
00000100
00000001
00000100
00000000
00000010
00000000
,
00010000
00000000
01000000
00000000
00100000
00000000
10000000
00100000
,
00010000
00000000
01000000
00000000
00100000
10000000
00010000
00000000
,
00100000
00001000
00010000
00000100
00010000
00001000
01000000
00100000
,
10000000
01000000
00100000
00010000
00100000
00000000
01000000
00000000
,
00010000
00000000
00000010
00000000
00000100
00000000
00001000
00000100
,
00000001
00000000
00000010
00000000
00000100
00001000
00000001
00000000
,
00000010
00000001
00001000
00000100
00020000
00000000
00001000
00000000
,
00031000
00000000
00000000
00000000
01000000
00000000
00000000
00010000
00000000
00000000
00100000
00000000
00010000
00000000
10000000
00000000
,
01000000
00000000
00000000
00000000
10010000
00000000
00000000
01000000
00000000
01000000
00001000
00000000
00010000
00000000
00000100
00000000
,
00000100
00000000
00000000
00000000
00001000
00000000
00000000
00000010
00000000
00000000
00000100
00000000
00000001
00000000
00001000
00000000
,
00000100
00000011
00001000
00000101
,
00000100
00000000
00000000
00000000
00000010
00000000
00000000
00001000
00000000
00000000
00000100
00000000
00001000
00000000
00000001
00000000
,
00000100
00000000
00000000
00000000
00001001
00000000
00000000
00000010
00000000
00000010
00010000
00000000
00001000
00000000
00100000
00000000
,
00100000
00000000
01000000
00000000
10000000
00100000
01000000
00010000
,
00100000
00000000
01000000
00000000
20020000
00000000
00000000
30030000
,
10000000
00000000
10000000
00000000
10000000
00010000
01000000
00001000
,
00010000
00000000
00011000
00000000
00010000
01000000
10000000
01000000
,
00010000
00000000
00001000
00000000
00000100
00000000
00000010
00001000
,
00000001
00000010
00001000
00000010
,
00000001
00000000
00000001
00000000
00000001
00001000
00000100
00010000
,
00001000
00000000
00011000
00000000
00001000
00000100
00000001
00000100
,
00001000
00000000
00010000
00000000
00100000
00000000
10000000
00010000
,
01000000
00000000
00100000
00000000
10000000
01000000
00100000
00002000
,
00020000
00000000
00000000
00000000
,
00033000
00000000
00000000
00000000
;
