#TITLE:Shake It Down;
#SUBTITLE:;
#ARTIST:good-cool;
#TITLETRANSLIT:;
#SUBTITLETRANSLIT:;
#ARTISTTRANSLIT:;
#GENRE:;
#CREDIT:;
#MENUCOLOR:;
#METERTYPE:DDR;
#BANNER:Shake It Down-bn.png;
#BACKGROUND:Shake It Down-bg.png;
#LYRICSPATH:;
#CDTITLE:ddrencorecdtitle.png;
#MUSIC:Shake It Down.mp3;
#OFFSET:-0.361;
#SAMPLESTART:55.320;
#SAMPLELENGTH:12.000;
#SELECTABLE:YES;
#LISTSORT:;
#BPMS:0.000=125.000;
#STOPS:;
#BGCHANGES:;
#ATTACKS:;

//---------------dance-single - ----------------
#NOTES:
     dance-single:
     :
     Beginner:
     1:
     0.145,0.175,0.123,0.000,0.000:
0000
0000
0000
0000
,
0001
0000
0001
0000
,
0010
0000
0000
0000
,
0100
0000
1000
0000
,
0100
0000
0100
0000
,
0010
0000
0001
0000
,
1000
0000
0000
0000
,
0001
0000
0100
0000
,
0010
0000
1000
0000
,
0100
0000
1000
0000
,
0001
0000
0100
0000
,
0010
0000
1000
0000
,
0010
0000
0000
0000
,
1001
0000
0100
0000
,
0010
0010
0010
0000
,
0001
0000
1000
0000
,
0010
0000
0100
0100
,
0100
0000
0001
0000
,
1000
0000
0100
0000
,
0010
0000
0100
0000
,
0001
0000
1000
0000
,
1001
0000
0000
0000
,
0110
0000
0000
0000
,
1001
0000
0000
0000
,
0110
0000
0000
0000
,
1000
0000
0100
0000
,
1000
0000
0001
0000
,
0100
0000
0001
0000
,
0100
0000
0010
0000
,
1001
0000
0100
0100
,
0100
0000
0000
0000
,
1001
0000
0010
0000
,
1000
0000
0001
0000
,
1001
0000
0100
0100
,
0100
0000
0000
0000
,
0010
0000
1000
0000
,
0001
0000
0100
0000
,
1000
0000
0000
0000
,
0001
0000
0000
0000
,
0100
0000
0000
0000
,
0010
0000
0000
0000
,
0110
0000
1000
0000
,
0001
0000
1000
0000
,
0110
0000
0001
0000
,
1000
0000
0010
0000
,
1001
0000
0000
0000
;

//---------------dance-single - ----------------
#NOTES:
     dance-single:
     :
     Easy:
     3:
     0.253,0.249,0.123,0.189,0.000:
0000
0000
0000
0000
,
1000
0100
0001
0100
,
1000
0001
1001
0000
,
0100
2000
0001
3100
,
0001
0002
0010
1003
,
0000
0010
0100
0010
,
1000
0001
0110
0000
,
0100
0020
1030
0100
,
0020
0031
0100
0000
,
0002
0000
1003
0100
,
0200
0000
0010
0300
,
2001
0000
3010
0100
,
0200
0000
0301
1000
,
0001
0000
0100
0010
,
0100
0000
0001
1000
,
0001
0000
1000
0100
,
2000
0000
3010
0000
,
0100
0000
0001
0010
,
0001
0000
0100
0010
,
0100
0000
0001
0100
,
0020
0000
1030
0000
,
0100
1001
0000
0010
,
0100
1001
0000
0000
,
1000
0100
0001
0100
,
1000
0100
0001
0100
,
1000
0000
0001
1000
,
0110
0000
1000
0001
,
0110
0000
1001
0000
,
0110
0110
1001
0000
,
1000
0020
0000
0030
,
0001
0020
0000
0030
,
0100
1000
0010
0000
,
0100
0001
0010
0000
,
1000
0200
0000
0300
,
0001
0200
0000
0300
,
0010
1000
0001
0000
,
0010
0001
1000
0000
,
2000
0000
3001
0000
,
0002
0000
0103
0000
,
0200
0000
0310
0000
,
0100
0100
0010
0010
,
1000
0100
0010
0001
,
0010
0100
1000
0001
,
0100
0010
1000
0010
,
0100
0001
1000
0001
;

//---------------dance-single - ----------------
#NOTES:
     dance-single:
     :
     Medium:
     5:
     0.344,0.349,0.078,0.134,0.000:
0000
0000
0000
0000
,
1000
0000
0001
0000
0100
0001
0100
0000
,
0010
1000
0010
1000
0000
0001
0100
0000
,
0001
1000
0100
1000
,
0010
0000
0200
0000
0000
0001
0301
0000
,
1000
0100
0010
0001
,
1000
0100
1000
0100
0000
1000
0001
0000
,
0100
0010
0200
0000
,
0310
0000
2000
0000
0000
0100
3100
0000
,
1000
0000
0001
0000
0100
0000
0000
0010
,
1000
0000
0100
0000
1000
0001
1000
0000
,
0100
0000
0010
0000
0001
0000
0000
1000
,
0100
0000
0010
0000
0000
1001
0000
0000
,
0100
0000
0010
0000
1000
0000
0001
0100
,
0001
1000
0010
0000
,
0100
0000
0001
0000
0010
0000
0100
1000
,
0100
0000
0010
0001
0010
0000
0000
0000
,
1000
0000
0001
0000
1000
0000
0010
1000
,
0010
0100
0001
1000
,
0100
0000
1000
0000
0001
0000
0100
0010
,
0100
0001
1000
1001
,
0200
0001
0010
0301
,
0020
0100
1000
0130
,
0001
0101
1000
1100
,
0001
0101
1000
1100
,
2000
0001
0100
3100
,
0002
1000
0100
0103
,
0001
1000
0010
0100
,
0010
1000
0010
1000
0001
0100
0001
0000
,
1000
0100
2000
0000
0010
0000
3010
0000
,
0001
0100
0002
0000
0010
0000
0013
0000
,
0001
0100
0001
0000
0010
1000
0010
0000
,
0001
1000
0100
0010
,
0100
0010
0200
0000
0001
0000
0301
0000
,
0010
0100
0020
0000
1000
0000
1030
0000
,
0100
0001
1000
0001
,
0100
0010
0100
0000
0001
0000
1000
0000
,
0100
1000
0100
0000
0010
0000
0001
0000
,
1000
0001
1000
0000
0010
0000
0100
0000
,
0001
0100
0010
0100
,
0001
1000
0200
0000
,
1300
0000
0010
0000
0100
0000
0001
0100
,
0001
0000
0010
0000
0100
0000
1000
0001
,
1000
0000
0100
0000
1000
0000
0010
0100
,
0010
1000
0001
1001
;

//---------------dance-single - ----------------
#NOTES:
     dance-single:
     :
     Hard:
     7:
     0.515,0.500,0.189,0.312,0.089: // measure 1
0000
0000
0000
0000
,  // measure 2
1000
0000
0010
0000
1000
0000
0100
0000
0010
0000
0000
0010
0000
0000
0010
0000
,  // measure 3
0001
0100
0001
1000
0000
0010
0010
0000
,  // measure 4
0100
0000
0001
0000
1000
0000
0100
0000
0010
0000
0000
0010
0000
0000
0010
0000
,  // measure 5
0001
0100
0010
0100
0000
0000
0001
0000
,  // measure 6
1000
0000
0010
0000
0100
0000
0001
0000
1000
0000
0100
0010
0000
0100
0010
0000
,  // measure 7
0001
0100
0010
1000
0000
0001
0001
0000
,  // measure 8
0100
0010
2000
3010
0200
0301
0000
0000
,  // measure 9
0010
0200
1300
0002
0103
0000
0000
0000
,  // measure 10
1000
0010
0100
0001
0000
0100
0001
0100
,  // measure 11
0010
1000
0100
1000
0000
0001
0000
1000
,  // measure 12
0010
0100
0001
0100
0000
0001
1000
0100
,  // measure 13
0000
1000
0001
0100
0010
2002
0000
3003
,  // measure 14
0100
0000
0010
0000
1000
0000
0100
1000
0000
0000
0001
0000
0100
0000
0000
0000
,  // measure 15
0010
0000
0100
0000
0001
0000
0010
0100
0000
0000
1000
0000
0001
0000
0000
0000
,  // measure 16
1000
0010
0001
0010
1000
0100
0001
0100
,  // measure 17
1000
0001
1000
0010
0100
0001
1000
0000
,  // measure 18
0010
0000
0100
0000
0001
0000
0100
0010
0000
0000
1000
0000
0100
0000
0000
0000
,  // measure 19
0010
0000
0001
0000
0100
0000
0001
1000
0000
0000
0100
0000
0010
0000
0000
0000
,  // measure 20
0001
0100
1000
0100
0001
1000
0100
0010
,  // measure 21
0100
1000
0001
0200
0000
0010
0310
0000
,  // measure 22
2000
0000
3100
0200
0000
0310
0020
0000
,  // measure 23
0031
0002
0000
0003
0100
0010
1000
0100
,  // measure 24
2000
0000
3001
0002
0000
0103
0200
0000
,  // measure 25
0310
1000
0001
0100
1000
0100
0001
0000
,  // measure 26
0020
0000
0130
0200
0000
1300
2000
0000
,  // measure 27
3010
0020
0000
0130
0001
1000
0010
0001
,  // measure 28
0020
0000
1030
0200
0000
0310
0001
0100
,  // measure 29
0010
1000
0000
0100
1000
0000
0100
0010
0000
0001
0100
0000
0010
0000
0010
0000
,  // measure 30
0100
0020
0200
0030
0001
0000
0301
0000
,  // measure 31
1000
0200
2000
0300
0010
0000
3001
0000
,  // measure 32
0100
0001
0100
0010
0100
0001
1000
0100
,  // measure 33
0010
0100
1000
0010
0000
0110
0110
0000
,  // measure 34
0001
0200
0002
0300
1000
0000
1003
0000
,  // measure 35
0100
0020
0200
0030
0001
0000
0310
0000
,  // measure 36
1000
0100
0010
0100
0001
0100
1000
0010
,  // measure 37
0100
0001
1000
0010
0000
1001
1001
0000
,  // measure 38
1000
0010
0100
0000
0001
0001
0000
0010
,  // measure 39
0100
1000
0100
0000
0010
0010
0000
0001
,  // measure 40
0100
1000
0100
0000
0010
0010
0000
0100
,  // measure 41
0001
1000
0100
0000
0010
0010
0000
0000
,  // measure 42
1001
0000
0000
0000
1010
0000
0000
0000
0011
0000
0000
0100
1000
0000
0010
0000
,  // measure 43
0101
0000
0000
0000
1100
0000
0000
0000
1001
0000
0000
0010
0100
0000
0001
0000
,  // measure 44
1100
0000
0000
0000
0110
0000
0000
0000
0101
0000
0000
1000
0100
0000
0010
0000
,  // measure 45
1001
0000
0000
0000
1100
0000
0000
0000
1010
0000
0000
0100
0001
0000
0100
0000
;

//---------------dance-double - ----------------
#NOTES:
     dance-double:
     :
     Easy:
     3:
     0.272,0.274,0.178,0.267,0.000:
00000000
00000000
00000000
00000000
,
00000001
00000100
00000001
00000100
,
00000010
00001000
00001100
00000000
,
00000100
00020000
00031000
00000000
,
00002000
00013000
00000000
00011000
,
01000000
00100000
10000000
01000000
,
10000000
00010000
01010000
00000000
,
01000000
00002000
00013000
00000000
,
00020000
00031000
00000000
00011000
,
00000200
00000000
00001300
00000010
,
00000200
00000000
00000301
00001000
,
00000200
00000000
00010300
00001000
,
00020000
00000000
00031000
00011000
,
01000000
00000000
00100000
10000000
,
01000000
00000000
00010000
00001000
,
00000100
00000000
00000001
00001000
,
00000100
00000000
00010000
00011000
,
00001000
00000000
01000000
00100000
,
10000000
00000000
00010000
01000000
,
00001000
00000000
00010000
00000100
,
00001000
00000000
00000001
00000101
,
00000020
00000000
00020030
00000000
,
00032000
00000000
02003000
00000000
,
03100000
10000000
02000000
00000000
,
13000000
00100000
02000000
00000000
,
03002000
00000000
00023000
00000000
,
00030200
00000000
00001300
00000010
,
00000100
00000001
00000001
00001000
,
00000100
00001001
00001001
00001001
,
00000010
00020000
00000000
00030000
,
00001000
02000000
00000000
03000000
,
00100000
01000000
00010000
10000000
,
01000000
00100000
00010000
01000000
,
00001000
00020000
00000000
00030000
,
00000100
00002000
00000000
00003000
,
00000010
00000100
00000001
00001000
,
00000100
00000010
00000001
00001000
,
00000100
00001000
00000000
00000100
,
00010000
00001000
00000000
00100000
,
01000000
10000000
00000000
10000000
,
00010000
01000000
00000000
00001000
,
00011000
00001100
00000020
00000000
,
00000030
00001001
00000101
00002000
,
00000000
00003000
00010100
00011000
,
02000000
00000000
03000000
00010000
;

//---------------dance-double - ----------------
#NOTES:
     dance-double:
     :
     Medium:
     5:
     0.360,0.325,0.067,0.267,0.000:
00000000
00000000
00000000
00000000
,
01000000
10000000
00010000
01000000
,
00001000
00010000
00001000
00010000
00000000
00000000
00000100
00000000
,
00000010
00000002
00000103
00000000
,
00000020
00001030
00000000
00011000
,
00001000
01000000
00100000
01000000
,
00010000
01000000
00010000
01000000
00000000
00000000
00100000
00000000
,
10000000
02000000
03100000
00000000
,
00002000
00013000
00000000
00011000
,
00001000
00000000
00000100
00000000
00000001
00000000
00001000
00000100
,
00001000
00000100
00010000
00011000
,
00001000
00000000
01000000
00000000
00100000
00000000
10000000
01000000
,
10000000
00010000
02000000
00000000
,
03001000
00000000
00010000
00000000
00000100
00000000
00001000
00000010
,
00001000
00000000
00000001
00000000
00000100
00000000
00000010
00001000
,
00000010
00001000
00000100
00010000
,
00001000
00000000
00100000
00010000
00100000
00000000
01000000
00000000
,
10000000
00000000
00010000
00000000
01000000
00000000
00100000
10000000
,
00100000
00000000
01000000
00000000
00001000
00000000
00010000
00001000
,
00010000
00000100
00001000
00000010
,
00000100
00000001
00000100
00000010
00000100
00000000
00001001
00000000
,
00000200
00000000
00000000
00020300
00000000
00000000
00032000
00000000
,
00000000
00203000
00000000
00000000
00310000
01000000
00010000
00000000
,
20000000
00000000
00000000
32000000
00000000
00000000
03100000
00000000
,
01000000
00000000
00001000
00000000
00010000
00001000
00010000
00000000
,
00000200
00000000
00000000
00002300
00000000
00000000
00003020
00000000
,
00000000
00000230
00000000
00000000
00000301
00001000
00000001
00000000
,
00001000
00000000
00000100
00010000
00000000
00001000
00010000
00001000
,
01000000
00010000
01000000
00010000
01000000
00000000
10010000
00000000
,
01000000
00001000
00020000
00000000
00000000
00000000
00001000
00030000
,
00001000
00010000
00000020
00000000
00000000
00000000
00000100
00000030
,
00000001
00001000
00000100
00000000
00001000
00000001
00000100
00000000
,
00000010
00001000
00000010
00001000
00000020
00000000
00000130
00000000
,
00000001
00001000
00000200
00000000
00000000
00000000
00001000
00000300
,
00001000
00000100
00020000
00000000
00000000
00000000
00001000
00030000
,
00001000
01000000
00010000
00000000
10000000
01000000
10000000
00000000
,
00100000
01000000
00010000
10000000
00010000
00000000
10010000
00000000
,
00200000
00000000
00000000
00000000
01300000
00000000
00001000
00010000
,
00002000
00000000
00000000
00000000
00013000
00000000
00000100
00001000
,
00000200
00000000
00000000
00000000
00000310
00000000
00000001
00001000
,
00000002
00000000
00000103
00000010
,
00001000
00000001
00000100
00000000
00000010
00000000
00010000
00000000
,
00001000
01000000
00010000
00000000
00100000
00000000
10000000
00000000
,
00010000
01000000
00100000
00000000
01000000
00000000
00001000
00000000
,
00010000
00000100
00001000
00000000
00000100
00000000
00010000
00001000
;

//---------------dance-double - ----------------
#NOTES:
     dance-double:
     :
     Hard:
     8:
     0.492,0.450,0.089,0.379,0.039:
00000000
00000000
00000000
00000000
,
10000000
00000000
01000000
00000000
00010000
00000000
00001000
00000000
00000100
00000000
00000000
00000100
00000000
00000000
00000100
00000000
,
00000010
00001000
00000100
00000001
00000000
00000100
00000100
00000000
,
00010000
00001000
02000000
00000000
03100000
00000000
00010000
00100000
,
20000000
00000000
31000000
00000000
00100000
00010000
00100000
00000000
,
01000000
00000000
10000000
00000000
00100000
00000000
00010000
00000000
00001000
00000000
00000000
00000100
00000000
00000000
00000100
00000000
,
00000001
00000010
00000100
00000100
00000000
00010000
00010000
00000000
,
00001000
00100000
02000000
00000000
03100000
00000000
00001000
01000000
,
00200000
00000000
01300000
00000000
00000000
00010000
10010000
00000000
,
00100000
01000000
00010000
10000000
00000000
00010000
01000000
00000000
,
00001000
00000000
00010000
00000000
00000100
00000000
00000010
00000000
00000001
00000000
00000000
00000100
00000000
00000000
00000010
00000000
,
00001000
00000100
00010000
00001000
00100000
01000000
10000000
00010000
,
01000000
00001000
00010000
00001000
00000000
00020020
00000000
00030030
,
00000100
00010000
00000010
00000100
00001000
00000100
00000001
00000000
,
00000010
00000100
00010000
00001000
00000100
00000010
00010000
00000000
,
00001000
00100000
00010000
01000000
00100000
00010000
00001000
00100000
,
02000000
00000000
23000000
00000000
30010000
01000000
00010000
00000000
,
10000000
00100000
01000000
00010000
00100000
10000000
00100000
00000000
,
00010000
01000000
00001000
00010000
01000000
00100000
00001000
00000000
,
00010000
00000100
00001000
00000010
00000100
00000010
00010000
00000000
,
00000200
00000000
00020300
00000000
00031000
00010000
01001000
00000000
,
00020000
00000000
00000100
00030200
00000000
00001000
00002300
00000000
,
00000010
00003020
00000000
00000000
00000130
00000001
00000100
00001000
,
00000200
00000000
00000000
00000310
00000020
00000000
00000000
00010030
,
00010000
00000000
00001000
01000000
00100000
10000000
01000000
00000000
,
00200000
00000000
00010000
00320000
00000000
10000000
20030000
00000000
,
00100000
30200000
00000000
00000000
01300000
00001000
01000000
00010000
,
00200000
00000000
00001000
00302000
00000000
00000000
00013000
00000100
,
00001000
00000010
00000000
00001000
00000100
00000000
00010000
00001000
00000000
00010000
00000100
00000000
00000010
00000000
00000001
00000000
,
00001000
00000200
00020000
00000300
00001000
00000000
00031000
00000000
,
00001000
02000000
00200000
03000000
10000000
00000000
10300000
00000000
,
01000000
10000000
00100000
00010000
00001000
00000010
00000001
00000100
,
00000010
00001000
00000100
00010000
00000000
00000000
00011000
00000000
,
00010000
00000200
00002000
00000300
00000010
00000000
00003010
00000000
,
00000010
00000200
00000002
00000300
00001000
00000000
00001003
00000000
,
00000100
00010000
00100000
10000000
01000000
00010000
00001000
00000100
,
00000001
00001000
00000100
00000010
00000000
00001001
00001001
00000000
,
00000200
00000000
00010000
00000000
00001000
00000000
00000310
00000001
,
00002000
00000000
00000100
00000000
00000001
00000000
00003010
00010000
,
00002000
00000000
00100000
00000000
00010000
00000000
01003000
00100000
,
20000000
00000000
01000000
00000000
00010000
00000000
30100000
01000000
,
00010000
10000000
01000000
00000000
00100000
00001000
00000100
00000001
,
00001000
00000100
00000010
00000000
00000001
00000100
00000010
00010000
,
00001000
00100000
01000000
00000000
10000000
00010000
01000000
00001000
,
00100000
00010000
01000000
00000000
00001000
00000000
01001000
00011000
;
