#TITLE:Setsugekka;
#SUBTITLE:(Sunny Thunder Mix);
#ARTIST:Ryu* remixed by Wip'E"Out;
#TITLETRANSLIT:;
#SUBTITLETRANSLIT:;
#ARTISTTRANSLIT:;
#GENRE:;
#CREDIT:;
#MENUCOLOR:;
#METERTYPE:DDR;
#BANNER:Setsugekka (Sunny Thunder Mix)-bn.png;
#BACKGROUND:Setsugekka (Sunny Thunder Mix)-bg.png;
#LYRICSPATH:;
#CDTITLE:DDREncore2.png;
#MUSIC:Setsugekka (Sunny Thunder Mix).mp3;
#OFFSET:-0.007;
#SAMPLESTART:103.430;
#SAMPLELENGTH:12.000;
#SELECTABLE:YES;
#LISTSORT:;
#BPMS:0.000=130.000,256.250=130.020;
#STOPS:;
#BGCHANGES:;
#ATTACKS:;

//---------------dance-single - ----------------
#NOTES:
     dance-single:
     :
     Beginner:
     1:
     0.105,0.155,0.064,0.088,0.000:
0000
0000
0000
0000
,
0000
0000
0000
0000
,
0000
0000
0000
0000
,
0000
0000
0020
0000
,
0030
0000
0000
0000
,
0000
0000
0200
0000
,
0300
0000
0000
0000
,
0001
0000
1000
0000
,
0000
0000
0000
0000
,
0000
0001
0000
0001
,
0000
0001
0000
0100
,
0000
1000
0000
1000
,
0000
1000
0000
0100
,
0000
0001
0000
0001
,
0000
0001
0000
0010
,
0000
1000
0000
1000
,
1000
0000
0000
0000
,
0001
0000
0000
0000
,
1000
0000
0000
0000
,
0001
0000
0000
0000
,
1000
0000
0001
0000
,
0100
0000
0000
0000
,
0010
0000
0000
0000
,
0100
0000
0000
0000
,
0010
0000
0100
0000
,
0001
0000
0000
0000
,
0000
0000
0000
0000
,
1000
0000
0000
0000
,
0000
0000
0000
0000
,
1000
0000
0000
0000
,
1000
0000
0000
0000
,
1000
0000
0000
0000
,
1001
0000
0000
0000
,
0001
0000
0000
0000
,
0001
0000
0000
0000
,
0001
0000
0000
0000
,
2002
0000
0000
0000
,
3003
0000
0000
0000
,
0100
0000
0000
0000
,
0000
0000
0020
0000
,
0030
0000
0000
0000
,
0000
0000
0200
0000
,
0300
0000
0000
0000
,
0000
0000
0020
0000
,
0030
0000
0000
0000
,
1000
0000
0001
0000
,
2000
0000
0000
3000
,
0002
0000
0000
0003
,
1001
0000
0000
0000
,
0100
0000
0010
0000
,
1001
0000
0000
0000
,
0010
0000
0001
0000
,
1001
0000
0000
0000
,
0100
0000
0010
0000
,
1001
0000
0000
0000
,
0010
0000
1000
0000
,
0001
0000
0001
0000
,
0010
0000
0001
0000
,
1000
0000
1000
0000
,
0010
0000
1001
0000
,
0010
0000
0000
0000
,
0100
0000
0000
0000
,
0001
0000
0000
0000
,
1000
0000
0001
0000
,
2002
0000
0000
0000
,
3003
0000
0000
0000
;

//---------------dance-single - ----------------
#NOTES:
     dance-single:
     :
     Hard:
     9:
     0.454,0.543,0.366,0.088,0.307: // measure 1
0000
0000
0000
0000
,  // measure 2
0000
0000
0000
0000
,  // measure 3
0000
0000
0000
0000
,  // measure 4
0000
0000
0000
0000
0100
0100
0001
0010
,  // measure 5
0100
0010
0200
0000
0000
0000
0000
0000
0300
0000
0000
0000
0000
0000
0000
0000
,  // measure 6
0000
0000
0000
0000
0100
0100
1000
0010
,  // measure 7
0200
0000
0300
0000
,  // measure 8
0002
0000
2000
0000
,  // measure 9
3003
0000
0000
0000
,  // measure 10
0001
0101
0000
1100
,  // measure 11
0000
0000
1010
0000
1000
0100
0001
0100
,  // measure 12
1000
1100
0000
0101
,  // measure 13
0000
0000
0011
0000
0001
0100
1000
0100
,  // measure 14
0001
0110
0000
1001
,  // measure 15
0000
0000
0101
0000
0001
0010
1000
0010
,  // measure 16
0001
0110
0000
1001
,  // measure 17
0010
0000
1000
0000
0000
0001
0000
0000
0010
0000
0000
0001
0000
0000
0100
0000
,  // measure 18
0010
0000
1000
0000
0100
0000
0000
0100
0000
1000
0000
0010
0000
0000
0010
0000
,  // measure 19
0100
0000
0001
0000
0010
0000
0000
0010
0000
0001
0000
0100
0000
0000
0100
0000
,  // measure 20
0010
0000
1000
0000
0001
0000
0000
0001
0000
1000
0000
0100
0000
0000
0010
0000
,  // measure 21
0100
1000
0001
0000
0100
0100
0001
0010
,  // measure 22
0100
0000
0010
0000
0001
0000
0000
0010
0000
0001
0000
0100
0000
0000
0001
0000
,  // measure 23
0100
0000
0010
0000
1000
0000
0000
0010
0000
1000
0000
0100
0000
0000
1000
0000
,  // measure 24
0010
0000
0100
0000
0001
0000
0000
0100
0000
0001
0000
0010
0000
0000
0001
0000
,  // measure 25
1000
0000
0100
0000
0010
0000
0001
0000
1000
0000
0001
1000
0001
0000
1000
0000
,  // measure 26
0001
1000
0001
0100
,  // measure 27
0010
1001
0100
1000
,  // measure 28
0010
0000
0000
1000
0000
0000
0001
0000
0100
0000
0000
0010
0000
0000
1000
0000
,  // measure 29
0010
0000
0000
0000
1001
0000
0100
0000
0001
0000
1000
0001
1000
0000
0001
0000
,  // measure 30
1000
0000
0010
0000
0100
0000
0100
0001
0000
1000
0000
0001
0000
0000
0010
0000
,  // measure 31
0001
0000
0100
0000
0010
0000
0010
1000
0000
0001
0000
1000
0000
0000
0100
0000
,  // measure 32
1000
0000
0100
0000
0010
0000
0010
0001
0000
1000
0000
0001
0000
0000
0100
0000
,  // measure 33
0001
0010
0001
0000
0100
0100
0010
1000
,  // measure 34
1001
0000
0100
0000
1000
0000
0000
0010
0000
1000
0000
0001
0000
0000
0001
0000
,  // measure 35
1001
0000
0010
0000
0001
0000
0000
0100
0000
0001
0000
1000
0000
0000
1000
0000
,  // measure 36
1100
0010
0100
0000
0101
0010
0100
0000
,  // measure 37
1000
0000
0010
0000
0100
0000
0001
0000
1000
0000
0001
1000
0001
0000
1000
0000
,  // measure 38
0100
0000
0000
0000
0000
0110
0000
0000
,  // measure 39
0002
0000
0000
0000
,  // measure 40
0003
0000
0000
0000
0010
0001
0010
0001
,  // measure 41
2000
0000
0000
3000
,  // measure 42
0000
0000
0000
0000
0010
1000
0010
1000
,  // measure 43
0001
0100
0002
0000
0000
0000
0000
0000
0000
0000
0000
0000
0003
0000
0000
0000
,  // measure 44
0000
0000
0000
0000
1000
0001
1000
0001
,  // measure 45
0200
0000
0000
0300
,  // measure 46
0002
0000
2000
3003
,  // measure 47
1001
0000
0000
0000
1010
0000
0000
0000
0101
0000
0000
0110
0000
0000
0101
0000
,  // measure 48
1001
0000
0000
0000
0011
0000
0000
0000
1100
0000
1000
0001
1000
0000
0001
0000
,  // measure 49
1000
0100
0011
1000
0001
0100
1010
0000
,  // measure 50
0001
0000
0000
0010
0100
0000
1000
0000
0001
0000
0001
0000
1000
0000
1000
0000
,  // measure 51
0001
0010
1100
0001
1000
0010
0101
0000
,  // measure 52
1000
0000
0000
0100
0010
0000
0001
0000
1000
0001
0000
0100
0000
0000
0000
0000
,  // measure 53
0001
1000
0101
0010
1000
0001
0110
0000
,  // measure 54
1000
0000
0000
0010
0100
0000
0001
0000
1000
0000
1000
0000
0001
0000
0001
0000
,  // measure 55
1000
0001
1010
0100
0001
1000
0110
0000
,  // measure 56
0101
0000
0000
1100
0000
0000
0101
0000
0000
1000
0100
0000
0010
0000
0001
0000
,  // measure 57
1000
0000
0010
0100
0000
0100
0001
0100
0000
0010
0000
1000
0000
0000
1000
0001
,  // measure 58
1000
0000
0000
1000
0010
0000
0100
0000
0001
0000
0001
0000
1000
0000
1000
0000
,  // measure 59
0001
0000
0010
0001
0000
0000
0001
0100
0000
0010
0000
1000
0000
0000
0001
1000
,  // measure 60
0001
0000
0000
0010
0001
0000
0100
0000
0010
1000
0000
0001
0000
0001
0000
0000
,  // measure 61
1001
0000
0100
0001
0000
0001
1000
0001
0000
0100
0000
0010
0000
0000
1000
0000
,  // measure 62
1001
0000
0000
0100
1000
0000
0010
0000
0100
0000
0100
0000
0010
0000
0010
0000
,  // measure 63
1001
0000
0000
0000
1010
0000
0000
0101
0000
0000
0000
1001
0000
0000
0000
0000
,  // measure 64
0011
0000
0000
0110
0000
0000
1100
0000
0000
1000
0010
0000
0100
0000
0002
0000
,  // measure 65
0000
0000
0000
0000
,  // measure 66
0003
0000
0000
0000
;

//---------------dance-single - ----------------
#NOTES:
     dance-single:
     :
     Medium:
     5:
     0.267,0.362,0.231,0.159,0.052:
0000
0000
0000
0000
,
0000
0000
0000
0000
,
0000
0000
0000
0000
,
0000
0000
0000
0000
0010
0000
0010
0001
,
0020
0000
0030
0000
,
0000
0000
0000
0000
0010
0000
0010
1000
,
0020
0000
0030
0000
,
2000
0000
0002
0000
,
3003
0000
0000
0000
,
1000
1010
0000
1001
,
0000
0011
0000
0000
,
0000
0101
0000
1001
,
0000
1100
0000
0000
,
0000
0011
0000
1001
,
0000
1010
0000
0000
,
0000
1100
0000
1001
,
0001
0000
0010
0000
0000
0100
0000
0000
2000
0000
0000
0000
0000
0000
3000
0000
,
0001
0000
0100
0000
0001
0100
0010
0000
,
1000
0000
0100
0000
1000
0100
0010
0000
,
0001
0000
1000
0000
0001
1000
0010
0000
,
0100
0010
2000
0000
,
3001
0000
0100
0000
1000
0100
0001
0000
,
1000
0000
0100
0000
0001
0100
1000
0000
,
1001
0000
0110
0000
,
1000
0010
0100
0001
,
2002
0000
0000
0000
,
0000
0000
3003
1001
,
1000
0000
0100
0000
,
0110
0000
1001
0000
,
0010
0010
1000
0001
,
0010
0010
0001
1000
,
0100
0100
1000
0001
,
1000
0000
0100
0000
0000
0010
0000
0000
0001
0000
0000
0001
0000
0000
0000
0000
,
1100
0000
0000
0000
0100
0000
0000
0000
0000
0100
0000
1000
0000
0000
0000
0000
,
0101
0000
0000
0000
0100
0000
0000
0000
0000
0100
0000
0001
0000
0000
0000
0000
,
1001
0000
0110
0000
,
0001
0010
0100
1000
,
0001
0000
0000
0000
0000
0110
0000
0000
,
2000
0000
0000
3000
,
0000
0000
0001
1000
,
0002
0000
0000
0003
,
0000
0000
0000
0000
0100
0000
0100
1000
,
0200
0000
0000
0300
,
0000
0000
0000
0000
0100
0000
0100
0001
,
0200
0000
0000
0300
,
0002
0000
2000
3003
,
0001
0000
0000
0000
0001
0000
0000
0000
0001
0000
0000
0100
0000
0000
0010
0000
,
1000
0000
1000
0000
1000
0001
0000
0001
,
2000
0100
0000
3100
,
0010
0000
0100
0000
0100
1000
0100
0010
,
0002
0100
0000
0103
,
0010
0000
0000
0000
1000
0000
0001
0000
0100
0000
0000
0100
0000
0000
0000
0000
,
0020
0100
0000
0130
,
0001
0000
0010
0000
0010
0001
1000
0100
,
0020
0100
0000
0130
,
1000
0000
0000
0010
0000
0000
0100
0000
0000
0000
0100
0000
0001
0000
0000
0000
,
1000
0000
1000
0000
0000
0010
0100
0000
,
0010
0000
1000
0000
0100
0010
0100
1000
,
0001
0000
0001
0000
0000
0010
0100
0000
,
0010
0000
1001
0000
0200
0000
0000
0300
,
1001
0000
0000
0000
,
0110
0000
0000
0000
,
1001
0000
0000
0000
0110
0000
0000
1001
0000
0000
0000
1001
0000
0000
0000
0000
,
1000
0000
0000
0010
0000
0000
0100
0000
0000
0000
0100
0000
0001
0000
0200
0000
,
0000
0000
0000
0000
,
0300
0000
0000
0000
;

//---------------dance-single - ----------------
#NOTES:
     dance-single:
     :
     Easy:
     4:
     0.229,0.259,0.127,0.135,0.000:
0000
0000
0000
0000
,
0000
0000
0000
0000
,
0000
0000
0000
0000
,
0000
0000
0100
1000
,
0020
0000
0030
0000
,
0000
0000
0100
0001
,
0020
0000
0030
0000
,
0002
0000
2000
0000
,
3003
0000
0000
0000
,
2000
0010
0000
0010
,
0000
3010
1000
1000
,
0002
0010
0000
0010
,
0000
0013
0001
0001
,
2000
0010
0000
0001
,
0000
3100
1000
1000
,
0002
0010
0000
1003
,
0001
0100
0010
1001
,
1000
0100
0010
0010
,
0100
1000
0010
0010
,
0100
0001
0010
0010
,
0001
0100
0010
0000
,
0001
0010
0100
0100
,
1000
0010
0100
0100
,
0001
0010
1000
0010
,
0001
0000
1000
0000
,
2002
0000
0000
0000
,
0000
0000
3003
1001
,
0001
0000
0100
0000
,
0110
0000
1001
0000
,
1000
0100
0000
0001
,
0100
0010
0000
0010
,
0001
0100
0000
1000
,
0100
0100
0001
1000
,
0001
0010
0000
1000
,
0010
0100
0000
0100
,
1000
0000
0001
0000
,
1000
0010
0100
0001
,
1000
0000
0000
0000
0000
0110
0000
0000
,
0002
0000
0000
0003
,
0000
0000
1000
0010
,
0200
0000
0300
0000
,
0000
0000
0100
0001
,
0020
0000
0030
0000
,
0000
0000
0100
1000
,
0020
0000
0030
0000
,
2000
0000
0002
3003
,
0001
0100
0001
0100
,
0010
1000
0010
1000
,
0001
0011
0000
1100
,
1000
0001
0100
0100
,
0010
1010
0000
0101
,
0100
0001
1000
1000
,
0001
0101
0000
1100
,
1000
0010
0100
0100
,
0010
1010
0000
0011
,
0001
0100
0010
1000
,
0001
0001
1000
1000
,
0010
0100
0001
0010
,
0001
0001
1000
1000
,
0100
1000
0010
0000
,
1001
0000
0000
0000
,
0110
0000
0000
0000
,
1000
0000
0001
0000
,
0100
0000
0100
0010
0000
0010
0100
0020
,
0000
0000
0000
0000
,
0030
0000
0000
0000
;

//---------------dance-double - ----------------
#NOTES:
     dance-double:
     :
     Easy:
     4:
     0.247,0.311,0.247,0.255,0.000:
00000000
00000000
00000000
00000000
,
00000000
00000000
00000000
00000000
,
00000000
00000000
00000000
00000000
,
00000000
00000000
10000000
00010000
,
00002000
00000000
00003000
00000000
,
00000000
00000000
00000001
00001000
,
00020000
00000000
00030000
00000000
,
00002000
00000000
00020000
00000000
,
00033000
00000000
00000000
00000000
,
00000000
11000000
00000000
00011000
,
00000000
00000101
00000000
00000000
,
00000000
00000011
00000000
00011000
,
00000000
10100000
00000000
00000000
,
00000000
01100000
00000000
00011000
,
00000000
00000110
00000000
00000000
,
00000000
00001001
00000000
00011000
,
00010000
01000000
10000000
10010000
,
00020000
00000000
01030000
00001000
,
00020000
00000000
01030000
00100000
,
00020000
00000000
10030000
01000000
,
00020000
00000000
00031000
00010000
,
00002000
00000000
00003010
00000001
,
00002000
00000000
00003010
00010000
,
00002000
00000000
00003010
00000100
,
00002000
00000000
00000000
00000000
,
00003000
00000000
00000000
00000000
,
00000000
00000000
00000000
00011000
,
00010100
00000000
01001000
00000000
,
00010010
00000000
00102000
00000000
,
00013000
00000010
00000100
00000100
,
00000001
00000010
00000100
00000100
,
00001000
00000001
00000100
00000100
,
00000010
00010000
00001000
00000000
,
00001000
01000000
00100000
00100000
,
10000000
01000000
00100000
00100000
,
00010000
10000000
00100000
00100000
,
01000000
00000000
00001000
00000000
,
00010000
00000000
00000000
00000000
00000000
01100000
00000000
00000000
,
20000000
00000000
00000000
30000000
,
00000000
00000000
01000000
10000000
,
00020000
00000000
00000000
00030000
,
00000000
00000000
01000000
00100000
,
02200000
00000000
00000000
03300000
,
00000000
00000000
10000000
00010000
,
20020000
00000000
00000000
30030000
,
00200000
00000000
00302000
00000000
,
00013000
00000010
00001000
00011000
,
00001000
00100000
00010000
00011000
,
00020000
00000100
00000000
00030100
,
00010000
00001000
01000000
01000000
,
00002000
00100000
00000000
00103000
,
00001000
00010000
00000010
00001000
,
00000200
00010000
00000000
00010300
,
00000100
00001000
01000000
01100000
,
00200000
00001000
00000000
00301000
,
00100000
00010000
00000100
00000110
,
00000020
00010000
00001030
00001010
,
00001000
00000010
00100000
00010000
,
02000000
00001000
03010000
01010000
,
00010000
00100000
00000010
00001000
,
00002002
00000000
00000000
00003003
,
00000220
00000000
00000000
00000330
,
00000011
00000000
00011000
00000000
,
10100000
10000000
00010000
01000000
,
00200000
00000000
00000000
00000000
,
00300000
00000000
00000000
00000000
;

//---------------dance-double - ----------------
#NOTES:
     dance-double:
     :
     Hard:
     9:
     0.465,0.543,0.295,0.096,0.382:
00000000
00000000
00000000
00000000
,
00000000
00000000
00000000
00000000
,
00000000
00000000
00000000
00000000
,
00000000
00000000
00000000
00000000
00000100
00001000
00010000
00100000
,
02000000
00000000
00000000
03000000
,
00000000
00000000
00000000
00000000
00100000
00010000
00001000
00000100
,
00000020
00000000
00000000
00000030
,
00002000
00000000
00000002
00000000
,
00003003
00000000
00000000
00000000
,
00000001
00000000
00000000
00000001
00000010
00000000
00000000
00000000
00001000
00000000
00000000
00001000
00010000
00000000
00000000
00000000
,
00100000
00000000
00000000
00100000
10000000
00000000
00000000
00000000
01000000
00000000
01000000
00000000
00100000
00000000
00010000
00000000
,
10000000
00000000
00000000
10000000
00100000
00000000
00000000
00000000
00010000
00000000
00000000
00010000
00001000
00000000
00000000
00000000
,
00000010
00000000
00000000
00000010
00000001
00000000
00000000
00000000
00000000
00000000
00000100
00000010
00000100
00000000
00000001
00000000
,
00001000
00000000
00000000
00000100
00010000
00000000
00000000
00000000
00000100
00000000
00000000
00001000
00000010
00000000
00000000
00000000
,
00001000
00000000
00000000
00000001
00000100
00000000
00000000
00000000
00000010
00000000
00010000
00000000
00001000
00000000
01000000
00000000
,
00010000
00000000
00000000
00100000
00001000
00000000
00000000
00000000
00100000
00000000
00000000
00010000
01000000
00000000
00000000
00000000
,
10100000
00000000
10010000
00000000
00000000
01100000
00000000
00000000
01001000
00000000
00000000
00010100
00000000
00000000
00000110
00000000
,
00000100
00000000
00001000
00000000
00000010
00000000
00000000
00000100
00000000
00000001
00000000
00001000
00000000
00000000
00000010
00000000
,
00000100
00000000
00000001
00000000
00000010
00000000
00000000
00000100
00000000
00001000
00000000
00000001
00000000
00000000
00000100
00000000
,
00000001
00000000
00000010
00000000
00000100
00000000
00000000
00001000
00000000
00000010
00000000
00000100
00000000
00000000
00000010
00000000
,
00001000
00000100
00000010
00000000
00000100
00000100
00010000
00001000
,
01000000
00000000
00010000
00000000
00100000
00000000
00000000
01000000
00000000
10000000
00000000
00010000
00000000
00000000
01000000
00000000
,
00100000
00000000
10000000
00000000
01000000
00000000
00000000
00100000
00000000
00010000
00000000
10000000
00000000
00000000
00100000
00000000
,
01000000
00000000
00010000
00000000
00100000
00000000
00000000
00010000
00000000
10000000
00000000
00100000
00000000
00000000
01000000
00000000
,
10000000
10000000
01000000
00010000
00001000
00001000
00000010
00000001
,
00000100
00000001
00000010
00000100
,
00010000
00001000
00100000
01010000
,
10100000
00000000
00000000
10000000
00000000
00000000
00010000
00000000
00110000
00000000
00000000
00010000
00000000
00000000
01000000
00000000
,
01100000
00000000
00000000
01000000
00000000
00000000
01000000
00000000
00001000
00000000
00010000
00001000
00010000
00000000
00001000
00000000
,
01000000
00000000
01000000
00000000
01000000
00000000
00010000
00100000
00000000
01000000
00000000
10000000
00000000
00010000
10000000
00000000
,
00100000
00000000
00100000
00000000
00100000
00000000
10000000
01000000
00000000
00100000
00000000
00010000
00000000
10000000
00010000
00000000
,
01000000
00000000
01000000
00000000
01000000
00000000
00100000
01000000
00000000
00010000
00000000
10000000
00000000
01000000
10000000
00000000
,
11000000
00000000
10010000
00000000
00000000
01001000
00000000
00000000
00010100
00000000
00010000
00000000
00001000
00000000
00000010
00000000
,
00000100
00000000
00000100
00000000
00000100
00000000
00001000
00000010
00000000
00000100
00000000
00000001
00000000
00001000
00000001
00000000
,
00000010
00000000
00000010
00000000
00000010
00000000
00000001
00000100
00000000
00000010
00000000
00001000
00000000
00000001
00001000
00000000
,
00000100
00000000
00000100
00000000
00000100
00000000
00000010
00000100
00000000
00001000
00000000
00000001
00000000
00000100
00000010
00000000
,
00000001
00000001
00000010
00001000
00010000
00010000
00100000
10000000
,
00010000
00000000
00000000
00000000
00000000
00011000
00000000
00000000
,
02000000
00000000
00000000
03000000
,
00000000
00000000
00000000
00000000
00000100
00001000
00000100
00001000
,
00000020
00000000
00000000
00000030
,
00000000
00000000
00000000
00000000
00100000
00010000
00001000
00000100
,
00000020
00000000
00000000
00000030
,
00000000
00000000
00000000
00000000
00000100
00001000
00010000
00100000
,
02000000
00000000
00000000
03000000
,
00020000
00000000
20000000
30030000
,
10100000
00000000
00000000
00000000
01010000
00000000
00000000
00000000
10010000
00000000
00000000
00011000
00000000
00000000
00001001
00000000
,
00001000
00000010
00000100
00000001
00000010
00000110
00000000
00001001
,
00000001
00000000
00000000
00000001
00000100
00000000
00000000
00000000
00001000
00000000
00000000
00001000
00010000
00000000
00000000
00000000
,
00010000
00000000
00000000
00001000
00000100
00000000
00000001
00000000
00000010
00000000
00000010
00000000
00000100
00000000
00000100
00000000
,
00001000
00000000
00000001
00000100
00000000
00000000
00001000
00010000
00000000
00100000
00000000
10000000
00000000
00000000
00000000
10000000
,
00010000
00000000
00000000
00010000
10000000
00000000
00100000
00000000
01000000
00010000
00000000
01010000
00000000
00000000
00000000
00000000
,
10000000
00000000
00000000
10000000
01000000
00000000
00000000
00000000
00010000
00000000
00000000
00010000
00001000
00000000
00000000
00000000
,
00001000
00000000
00000000
00010000
01000000
00000000
10000000
00000000
00100000
00000000
00100000
00000000
01000000
00000000
01000000
00000000
,
00010000
00000000
10000000
01000000
00000000
00000000
00010000
00001000
00000000
00000010
00000000
00000001
00000000
00000000
00000010
00000000
,
00000011
00000000
00000000
00001001
00000000
00000000
00001010
00000000
00000000
00000010
00000100
00000000
00000001
00000000
00000001
00000000
,
00001000
00000100
00000010
00010000
00100000
01000000
00001000
00010000
,
10000000
00000000
00000000
10000000
00100000
00000000
01000000
00000000
00010000
00000000
00010000
00000000
10000000
00000000
10000000
00000000
,
00010000
00100000
01000000
00001000
00000100
00000010
00010000
00001000
,
00000001
00000000
00000000
00000001
00000100
00000000
00000010
00000000
00001000
00000001
00000000
00001001
00000000
00000000
00000000
00000000
,
00000011
00000000
00000010
00000100
00000000
00000010
00000001
00000010
00000000
00000100
00000000
00010000
00000000
00000000
00001000
00000000
,
00011000
00000000
00000000
00010000
00100000
00000000
01000000
00000000
00001000
00000000
00001000
00000000
00010000
00000000
00010000
00000000
,
00011000
00000000
00000000
00000000
00001100
00000000
00000000
00011000
00000000
00000000
00000000
01010000
00000000
00000000
00000000
00000000
,
10100000
00000000
00000000
00011000
00000000
00000000
00000011
00000000
00000000
00000100
00010000
00000000
00001000
00000000
00022000
00000000
,
00000000
00000000
00000000
00000000
,
00033000
00000000
00000000
00000000
;

//---------------dance-double - ----------------
#NOTES:
     dance-double:
     :
     Medium:
     6:
     0.306,0.414,0.223,0.111,0.036:
00000000
00000000
00000000
00000000
,
00000000
00000000
00000000
00000000
,
00000000
00000000
00000000
00000000
,
00000000
00000000
00000000
00000000
00000100
00000010
00000100
00000010
,
00000200
00000000
00000000
00000300
,
00000000
00000000
00000000
00000000
01000000
00100000
01000000
00100000
,
02000000
00000000
00000000
03000000
,
00002000
00000000
00020000
00000000
,
00033000
00000000
00000000
00000000
,
00000001
00000011
00000000
00011000
,
00000000
10100000
01000000
01000000
,
00010000
11000000
00000000
00011000
,
00000000
00000000
00000101
00000000
00000010
00001000
00000000
00001000
,
00000100
00000110
00000000
00011000
,
00000000
01100000
00010000
00010000
,
10000000
01100000
00000000
00011000
,
00001000
00000000
00010000
00000000
00000000
00000010
00000000
00000000
00000100
00000000
00000000
00000001
00000000
00000000
00001000
00000000
,
00000001
00000010
00000001
00000000
00000010
00000000
00000110
00000000
,
00001000
00000100
00001000
00000000
00000010
00000000
00000110
00000000
,
00000001
00001000
00000001
00000000
00000100
00000000
00001001
00000000
,
00001000
00000100
00010000
00000000
00011000
00000000
10010000
00000000
,
10000000
01000000
10000000
00000000
00100000
00000000
01000000
00000000
,
00010000
01000000
00010000
00000000
00100000
00000000
01000000
00000000
,
10000000
00010000
10000000
00000000
01000000
00000000
10000000
00000000
,
00010000
01000000
00001000
00010000
,
00000020
00000000
00000000
00000000
,
00000000
00000000
00000030
00000101
,
00000001
00000000
00000000
00000001
00000000
00000000
00000001
00000000
00000010
00000000
00000000
00000010
00000000
00000000
00000010
00000000
,
00000100
00000000
00000000
00000100
00000000
00000000
00000100
00000000
00001000
00000000
00000000
00000000
00000011
00000000
00000000
00000000
,
00000001
00000000
00001000
00000000
00000010
00010000
00001000
00000000
,
00010000
00000000
00001000
00000000
01000000
00010000
10000000
00000000
,
00100000
00000000
01000000
00000000
00010000
10000000
01000000
00000000
,
00100000
00000000
00001000
00000000
00001000
01000000
00010000
10000000
,
00100000
00000000
10000000
00000000
01000000
00010000
00001000
00000000
,
00010000
00000000
00001000
00000000
00000010
00000001
00001000
00000000
,
00001000
00000000
00000001
00000000
00000100
00001000
00010000
00000000
,
00100000
00100000
00100000
00100000
,
10000000
00000000
00000000
00000000
00000000
00011000
00000000
00000000
,
00020000
00000000
00000000
00030000
,
00000000
00000000
00001000
00010000
,
00002000
00000000
00000000
00003000
,
00000000
00000000
00000000
00000000
00100000
01000000
00100000
01000000
,
00200000
00000000
00000000
00300000
,
00000000
00000000
00000000
00000000
00000010
00000100
00000010
00000100
,
00000020
00000000
00000000
00000030
,
00002000
00000000
00000002
00003003
,
00001001
00000110
00010010
00011000
,
00101000
00000000
01100000
00000000
00010000
10000000
00000000
10000000
,
00010000
01000000
00000000
00000100
,
00010000
00000000
00010000
00000000
00001000
00010000
01000000
00010000
,
00001000
00100000
00000000
00000010
,
00010000
00001000
00100000
00000000
00001000
00010000
00000010
00000000
,
00001000
00000100
00000000
01000000
,
00001000
00000000
00001000
00000000
00010000
00001000
00000100
00001000
,
00010000
00000010
00000000
00100000
,
00001000
00000000
00000000
00001000
00000000
00000000
00001000
00000000
00000000
00000000
01000000
00000000
00100000
00000000
00000000
00000000
,
10000000
01000000
00100000
00000000
01000000
00100000
00010000
00000000
,
01000000
00001000
00011000
00010100
,
00001000
00000010
00000100
00000000
00000010
00000100
00000001
00000000
,
00001000
00000000
00000100
00000000
00010000
00001000
00011000
00000000
,
00020000
00000000
00000000
00030000
,
00002000
00000000
00000000
00003000
,
00000010
00000000
00000000
00000000
00000001
00000000
00000000
00001000
00000000
00000000
00000000
00000010
00000000
00000000
00000000
00000000
,
00000100
00000000
00000000
00000100
00000000
00000000
00000100
00000000
00000000
00000000
00000001
00000000
00001000
00000000
00000200
00000000
,
00000000
00000000
00000000
00000000
,
00000300
00000000
00000000
00000000
;
