#TITLE:Self Esteem;
#SUBTITLE:(Tranceforma Remix);
#ARTIST:The Offspring;
#TITLETRANSLIT:;
#SUBTITLETRANSLIT:;
#ARTISTTRANSLIT:;
#GENRE:;
#CREDIT:;
#MENUCOLOR:;
#METERTYPE:DDR;
#BANNER:Self Esteem (Tranceforma Remix)-bn.png;
#BACKGROUND:Self Esteem (Tranceforma Remix)-bg.png;
#LYRICSPATH:Lyrics.lrc;
#CDTITLE:ddrencorecdtitle.png;
#MUSIC:Self Esteem (Tranceforma Remix).mp3;
#OFFSET:-0.001;
#SAMPLESTART:44.572;
#SAMPLELENGTH:10.206;
#SELECTABLE:YES;
#LISTSORT:;
#BPMS:0.000=139.998;
#STOPS:;
#BGCHANGES:;
#ATTACKS:;

//---------------dance-single - ----------------
#NOTES:
     dance-single:
     :
     Beginner:
     1:
     0.125,0.167,0.027,0.000,0.000:
0000
0000
0000
0000
,
0000
0000
0000
0000
,
0000
0000
0000
0000
,
0000
0000
0000
0000
,
0001
0000
0100
0000
,
0001
0000
0000
0000
,
1000
0000
0100
0000
,
1000
0000
0000
0000
,
0010
0000
0000
0000
,
0010
0000
0000
0000
,
0010
0000
0000
0000
,
0000
0000
0000
0000
,
1000
0000
1000
0000
,
0001
0000
0001
0000
,
1000
0000
1000
0000
,
0010
0000
0010
0000
,
1000
0000
1000
0000
,
0100
0000
0100
0000
,
1000
0000
1000
0000
,
0001
0000
0001
0000
,
0000
0100
0100
0000
,
0010
0000
0010
0000
,
1000
0000
0001
0000
,
0010
0000
0100
0000
,
0000
0010
0010
0000
,
0100
0000
0100
0000
,
1000
0000
0001
0000
,
1001
0000
0000
0000
,
0001
0000
0000
0000
,
0000
0000
0000
0000
,
1000
0000
0000
0000
,
0000
0000
0000
0000
,
0001
0000
0000
0000
,
1000
0000
0000
0000
,
0001
0000
0000
0000
,
1001
0000
0000
0000
,
1000
0000
1000
0000
,
1000
0000
0000
0000
,
0001
0000
0001
0000
,
0001
0000
0000
0000
,
0001
0000
0100
0000
,
0001
0000
1000
0000
,
0001
0000
0010
0000
,
0001
0000
0001
0000
,
1000
0000
0000
0000
,
0001
0000
0100
0000
,
0001
0000
0000
0000
,
1000
0000
0100
0000
,
1000
0000
0000
0000
,
0001
0000
0010
0000
,
0001
0000
0000
0000
,
1000
0000
0010
0000
,
1000
0000
0000
0000
,
0001
0001
0001
0000
,
0100
0000
0010
0000
,
1000
1000
1000
0000
,
0001
0000
1000
0000
,
0001
0001
0001
0000
,
0010
0000
0100
0000
,
1000
1000
1000
0000
,
0001
0000
0000
0000
,
1001
0000
0000
0000
;

//---------------dance-single - ----------------
#NOTES:
     dance-single:
     :
     Easy:
     4:
     0.260,0.282,0.100,0.091,0.000:
0000
0000
0000
0000
,
0000
0000
0000
0000
,
0000
0000
0000
0000
,
0000
0000
0000
0000
,
0001
0100
0010
0010
,
1000
0001
0100
0100
,
0001
1000
0010
0010
,
1000
0001
1000
1000
,
0010
0000
0100
0000
,
0001
0000
1000
0000
,
0001
0000
0010
0000
,
2002
0000
0000
3003
,
1000
0100
1000
0010
,
0100
0001
0010
0000
,
0001
0100
0010
1000
,
0001
0010
0100
0000
,
0010
0100
1000
0010
,
0100
0001
1000
0000
,
0001
0100
0010
1000
,
0001
0010
0100
0000
,
0000
1001
1001
0000
,
0010
0001
0100
0000
,
0010
1000
0010
0100
,
0001
1000
0100
0000
,
0000
1001
1001
0000
,
0010
1000
0100
0000
,
0010
0001
0010
0100
,
1000
0010
0100
0001
,
2000
0010
0000
3000
,
0001
0000
1000
0000
,
0002
0100
0000
0003
,
1000
0000
0001
0000
,
1000
0100
1000
0100
,
0010
0001
0010
0001
,
0100
0010
1000
0001
,
0100
0000
0000
1001
0000
0000
0000
0000
,
0001
1000
0010
0100
,
1001
0000
0000
0000
,
1000
0001
0010
0100
,
1001
0000
0000
0000
,
1000
0100
0010
0010
,
0001
0100
0010
0010
,
1000
0001
1000
0001
,
0100
0010
0100
0001
,
2002
0000
0000
3003
,
0001
0100
0010
0000
,
0010
1000
0100
0000
,
1000
0010
0001
0000
,
0001
0010
1000
0000
,
0010
0100
0001
0000
,
0010
0100
1000
0000
,
0001
0100
1000
0000
,
2002
0000
0000
3003
,
0001
0010
0100
0100
,
1000
0001
0100
0010
,
1000
0001
0010
0010
,
0001
0100
0010
1000
,
0001
1000
0100
0100
,
1000
0010
0100
0001
,
1000
0100
0010
0010
,
0001
0000
1000
0010
,
2002
0000
0000
0000
,
3003
0000
0000
0000
;

//---------------dance-single - ----------------
#NOTES:
     dance-single:
     :
     Medium:
     6:
     0.362,0.339,0.118,0.173,0.000:
0000
0000
0000
0000
,
0000
0000
0000
0000
,
0000
0000
0000
0000
,
0000
0000
0000
0000
,
1000
0000
0010
0000
1000
0000
0001
1000
,
0100
0000
0010
0000
0001
1000
0001
1000
,
0001
0000
0010
0000
0001
0000
1000
0001
,
0100
0010
0020
0000
,
1030
0000
0101
0000
0000
0001
0010
0000
,
0100
0000
1000
0010
0000
0010
0100
0000
,
0001
0000
0110
0000
0000
1000
0001
0000
,
2002
0000
0000
3003
,
1000
0000
0001
0100
0001
0000
0010
0000
,
0100
0000
1000
0001
0000
0000
0000
0000
,
0100
0000
0001
0010
0001
0000
1000
0000
,
0010
0000
0100
0001
0000
0000
0000
0000
,
1000
0000
0010
0100
0010
0000
1000
0000
,
0001
0010
0001
1000
0000
0000
0000
0000
,
0001
0000
0100
0010
0100
0000
0001
0000
,
1000
0100
1000
0002
0000
0000
0003
0000
,
1000
0101
1100
0000
,
0001
0010
0100
1000
0000
0000
0000
0000
,
0010
0000
1000
0100
0010
0000
0001
0000
,
1000
0000
0010
0200
0000
0000
0300
0000
,
0000
0011
1010
0000
,
0001
0100
0010
1000
0000
0000
0000
0000
,
0100
0000
1000
0010
0100
0000
0001
0000
,
2002
0000
0000
3003
,
1000
0000
0200
0000
0000
0000
0300
0010
,
0000
0002
0000
0000
1003
0010
0000
0100
,
0001
0000
0020
0000
0000
0000
0030
0100
,
0000
1000
0000
0101
0000
0000
1100
0000
,
1000
0010
0100
0001
,
0010
0001
0100
0000
0010
1000
0100
0000
,
1000
0100
0001
0100
,
1000
0000
0001
0200
0000
0000
0310
0000
,
1000
0000
0001
0000
0010
0100
0010
0100
,
0020
0000
0031
1100
,
0001
0000
1000
0000
0010
0100
0010
0100
,
0020
0000
0000
0000
1030
0001
1000
0000
,
0001
0000
0010
0000
0001
0100
0010
0000
,
1000
0000
0100
0000
1000
0010
0100
0010
,
1000
0000
0001
0000
1000
0100
0010
0001
,
1000
0010
0200
0000
,
0002
0000
0000
0303
,
0001
0000
0100
0000
0010
0000
1000
0010
,
0100
0000
0001
0000
0010
0000
0001
1000
,
0100
0000
1000
0000
0010
0000
0100
0001
,
0010
0000
0100
0000
0010
0001
0010
0001
,
1000
0000
0010
0000
1000
0000
0100
0010
,
0001
0000
1000
0000
0010
0000
0100
0001
,
1000
0000
0010
0000
0100
0000
0001
1000
,
0100
0000
1000
0000
0010
0100
0010
0100
,
0001
0000
2000
0000
0000
0000
3010
0100
,
0000
0001
0000
1000
0000
1000
0010
0000
,
1000
0000
0002
0000
0000
0000
0013
0100
,
0000
0010
0000
0000
1100
0000
0000
0000
,
0001
0100
0001
0000
1000
0100
1000
0000
,
0001
0010
0001
0000
1000
0010
1000
0000
,
0001
0000
0010
0000
0100
1000
0010
0000
,
1000
0001
1000
0001
0100
0010
1000
0000
,
2002
0000
0000
0000
,
3003
0000
0000
0000
;

//---------------dance-single - ----------------
#NOTES:
     dance-single:
     :
     Hard:
     8:
     0.496,0.508,0.237,0.219,0.141: // measure 1
0000
0000
0000
0000
,  // measure 2
0000
0000
0000
0000
,  // measure 3
0000
0000
0000
0000
,  // measure 4
0000
0000
0000
0000
,  // measure 5
0001
0000
0000
0000
1000
0000
0000
0001
0100
0001
0100
0000
0010
0000
1000
0000
,  // measure 6
0100
0000
0000
0000
0100
0000
0000
0010
0100
0000
1000
0000
0001
0000
0001
0000
,  // measure 7
1000
0000
0000
0000
0001
0000
0000
1000
0100
1000
0100
0000
0010
0000
0001
0000
,  // measure 8
1000
0000
0000
0000
0010
0000
0000
0100
0020
0000
0000
0000
0000
0000
0000
0000
,  // measure 9
1030
0000
0101
0000
0000
0001
0010
0000
,  // measure 10
1000
0000
0101
0010
0000
0010
1100
0000
,  // measure 11
0001
0000
0110
0000
0000
1000
0001
0000
,  // measure 12
2002
0000
0000
3003
,  // measure 13
0001
0000
0010
0001
0100
0000
0010
1000
,  // measure 14
0010
0100
0001
2000
0000
0000
3001
0000
,  // measure 15
1000
0000
0010
1000
0100
0000
0010
0001
,  // measure 16
0010
0100
1000
0002
0000
0000
1003
0000
,  // measure 17
0001
0000
0100
0000
0010
0000
1000
0000
0001
0000
0000
0011
0000
0000
0000
0000
,  // measure 18
0001
0000
0100
0000
0010
0000
1000
0000
0010
0000
0000
0100
0001
0000
0000
0000
,  // measure 19
0010
0000
0010
0001
1000
0000
0010
1000
,  // measure 20
0100
0010
0001
2000
0000
0000
3000
0000
,  // measure 21
0102
0000
0010
0000
2000
0003
0000
3000
,  // measure 22
0001
0100
1000
0100
0002
0000
1000
0000
,  // measure 23
0013
0001
0010
0100
1000
0010
0100
0001
,  // measure 24
0100
0010
1000
0002
0000
0000
0003
0000
,  // measure 25
2100
0000
0010
0000
0002
3000
0000
0003
,  // measure 26
1000
0100
0001
0100
2000
0000
0001
0000
,  // measure 27
3100
1000
0100
0010
0001
0100
0010
1000
,  // measure 28
0020
0100
0000
1000
0000
0130
0101
0000
,  // measure 29
1100
0000
0102
0000
0000
0000
0000
1003
,  // measure 30
0000
0100
0000
0000
0010
0100
0000
0011
,  // measure 31
0000
0000
2100
0000
0000
0000
0000
3001
,  // measure 32
0000
0100
0000
0110
0000
0000
1001
0000
,  // measure 33
0001
0100
0001
0100
,  // measure 34
0010
1000
0010
1000
0100
0010
0001
1000
,  // measure 35
0010
0010
1000
1000
0001
0001
0100
0100
,  // measure 36
0001
0000
0010
2100
0000
0000
3001
0000
,  // measure 37
1000
0000
0000
0000
0010
0000
0000
0100
0001
0100
0001
0000
0010
0000
0100
0000
,  // measure 38
2000
0000
0000
0000
3010
0100
0010
0100
,  // measure 39
0001
0000
0000
0000
0010
0000
0000
0100
1000
0100
1000
0000
0010
0000
0100
0000
,  // measure 40
0002
0000
0000
0000
1003
0110
1000
0001
,  // measure 41
0100
0000
0000
0000
0101
0000
0000
0001
1000
0000
0010
0000
1000
0000
0100
0000
,  // measure 42
0010
0000
0000
0000
1001
0000
0000
0010
0001
0000
0100
0000
0010
0000
1000
0000
,  // measure 43
0001
0000
0000
0000
1100
0000
0000
1000
0010
0000
0100
0000
0001
0000
1000
0000
,  // measure 44
0010
0000
0000
0000
1010
0000
0000
1000
0001
0000
0100
0000
0020
0000
0000
0000
,  // measure 45
0000
0000
0000
0000
0000
0000
1030
0100
,  // measure 46
0010
0000
0000
0000
0100
0000
0000
0010
0001
0010
0001
0000
0100
0000
0010
0000
,  // measure 47
1000
0000
0000
0000
1000
0000
0000
0010
0100
0000
0001
0000
0010
0000
0100
0000
,  // measure 48
0010
0000
0000
0000
0001
0000
0000
0100
0010
0100
0010
0000
1000
0000
0001
0000
,  // measure 49
0100
0000
0000
0000
0100
0000
0000
0001
1000
0000
0010
0000
0100
0001
0100
0001
,  // measure 50
1000
0000
0000
0000
0001
0000
0000
1000
0010
1000
0010
0000
0100
0000
0001
0000
,  // measure 51
0010
0000
0000
0000
0010
0000
0000
0100
0010
0000
0001
0000
1000
0000
1000
0000
,  // measure 52
0001
0000
0000
0000
1000
0000
0000
0001
0010
0001
0010
0000
0100
0000
1000
0000
,  // measure 53
0001
0000
0000
0000
0100
0000
0000
0010
0100
0000
0001
0000
0010
0000
0001
0000
,  // measure 54
1000
0010
0200
0000
0000
0000
0310
1000
,  // measure 55
0000
0001
0000
0110
0000
0000
1100
0000
,  // measure 56
1000
0001
0020
0000
0000
0000
0031
0100
,  // measure 57
0000
0010
0000
0000
1010
0000
0000
0000
,  // measure 58
0101
0001
0010
0100
1000
0010
0100
0100
,  // measure 59
0010
1000
0001
0010
0100
1000
0010
0010
,  // measure 60
1000
0100
0001
0100
1000
0010
0001
0010
,  // measure 61
1000
0000
0100
0000
0010
0000
0001
0000
0100
0000
0010
0000
1000
0001
1000
0000
,  // measure 62
2002
0000
0000
0000
,  // measure 63
3003
0000
0000
0000
;

//---------------dance-double - ----------------
#NOTES:
     dance-double:
     :
     Easy:
     3:
     0.213,0.254,0.100,0.091,0.000:
00000000
00000000
00000000
00000000
,
00000000
00000000
00000000
00000000
,
00000000
00000000
00000000
00000000
,
00000000
00000000
00000000
00000000
,
00010000
00000000
01000000
00000000
,
00010000
00000000
10000000
01000000
,
00100000
00000000
00001000
00000000
,
00100000
00000000
00020000
00000000
,
01030000
00000000
00001000
00000000
,
00010000
00000000
00000010
00000000
,
00000100
00000000
00000001
00000000
,
00002002
00000000
00000000
00003003
,
00000001
00000000
00000010
00000000
,
00000001
00000100
00000010
00000000
,
00001000
00000000
00000100
00000000
,
00010000
00000010
00001000
00000000
,
00000100
00000000
00010000
00000000
,
00001000
01000000
00010000
00000000
,
00100000
00000000
00010000
00000000
,
01000000
00100000
10000000
00000000
,
00000000
10010000
10010000
00000000
,
10000000
00100000
01000000
00000000
,
00100000
10000000
01000000
00100000
,
00001000
00010000
00000100
00000000
,
00000000
00011000
00011000
00000000
,
00010000
00000100
00001000
00000000
,
00000010
00000100
00000001
00001000
,
00000100
00000010
00000100
00000000
,
00002000
00000000
00003001
00000000
,
00000100
00000000
00000010
00000000
,
00000200
00000000
00000301
00000000
,
00001000
00000000
00000100
00000000
,
00010000
00001000
00010000
00001000
,
01000000
00010000
01000000
00010000
,
10000000
01000000
00100000
00010000
,
01000000
00000000
00000000
10010000
00000000
00000000
00000000
00000000
,
10000000
00010000
01000000
00000000
,
10010000
00000000
00000000
00000000
,
00010000
01000000
00001000
00000000
,
00011000
00000000
00000000
00000000
,
00010000
00000100
00010000
00000000
,
00000100
00001000
00000100
00000000
,
00001000
00000001
00001000
00000000
,
00000001
00000100
00000001
00000000
,
00002002
00000000
00000000
00003003
,
00000001
00000000
00000100
00000000
,
00000001
00000000
00001000
00000100
,
00000010
00000000
00000001
00000000
,
00001000
00000000
00000100
00010000
,
00001000
00000000
01000000
00000000
,
00001000
00000000
00100000
00010000
,
01000000
00000000
00100000
00000000
,
20000000
00000000
30000000
00000000
,
10000000
01000000
00100000
00000000
,
00100000
00000000
00001000
00000000
,
00010000
00000100
00001000
00000000
,
00001000
00000000
00000101
00000000
,
00000001
00000100
00000010
00000000
,
00000010
00000000
00010000
00000000
,
00001000
01000000
00100000
00000000
,
10000000
00000000
00010000
10000000
,
20020000
00000000
00000000
00000000
,
30030000
00000000
00000000
00000000
;

//---------------dance-double - ----------------
#NOTES:
     dance-double:
     :
     Medium:
     6:
     0.347,0.395,0.155,0.118,0.000:
00000000
00000000
00000000
00000000
,
00000000
00000000
00000000
00000000
,
00000000
00000000
00000000
00000000
,
00000000
00000000
00000000
00000000
,
10000000
00000000
00010000
00000000
01000000
00010000
00100000
01000000
,
10000000
00010000
00100000
00001000
,
00010000
00000000
00000010
00000000
00000100
00000001
00001000
00000010
,
00000100
00000001
00000010
00000100
,
00001001
00000000
00000100
00000000
00000000
00000010
00001000
00000000
,
00001100
00000000
00000100
00010000
00000000
00010000
00001000
00000000
,
01000000
00000000
10010000
00000000
00000000
00100000
01000000
00000000
,
20020000
00000000
00000000
30030000
,
10000000
00000000
00010000
01000000
00100000
00000000
01000000
00000000
,
00010000
00100000
00002000
00000000
,
00013000
00000000
00000100
00001000
00000010
00000000
00000100
00000000
,
00000001
00001000
00000200
00000000
,
00000310
00000000
00000100
00001000
00000010
00000000
00010000
00000000
,
00001000
01000000
00100000
10000000
00200000
00000000
00000000
00000000
,
10300000
00000000
01000000
10000000
00100000
00000000
01000000
00000000
,
00010000
00100000
00001000
00010000
00002000
00000000
00000000
00000000
,
00003000
00011000
00010100
00000000
,
00001000
00000100
00000010
00000001
00000000
00000000
00000000
00000000
,
00001000
00000000
00000010
00000100
00000001
00000000
00000100
00000000
,
00000010
00010000
00001000
00000000
,
00000000
00011000
01001000
00000000
,
00010000
00100000
01000000
10000000
00000000
00000000
00000000
00000000
,
00010000
00000000
01000000
00100000
10000000
00000000
01000000
00000000
,
00200000
00000000
00000000
00310000
,
10000000
00000000
00000000
00000000
,
01000000
00000000
00100000
00000000
,
00001000
00010000
00000000
00010000
,
00000010
00000000
00000100
00000001
,
00001000
00000100
00001000
00000100
,
00000010
00000001
00000100
00000000
00000010
00001000
00000100
00000000
,
00000010
00000100
00010000
00001000
,
01000000
00000000
00100000
20000000
00000000
00000000
30000000
00000000
,
00010000
00000000
01000000
00000000
00010000
01000000
00010000
01000000
,
00100000
00000000
00000000
00000000
10000000
00100000
01000000
00010000
,
10000000
00000000
01000000
00000000
10000000
01000000
10000000
01000000
,
00100000
00000000
00001000
00011000
,
00010000
00001000
00010000
00010000
,
00000010
00001000
00000010
00000010
,
00000100
00000001
00000100
00000100
,
00000010
00001000
00000001
00000200
,
00000000
00000000
00000000
00000000
00000300
00000000
00000001
00001000
,
00000100
00000000
00000011
00000000
00000001
00000100
00000010
00001000
,
00000010
00000000
00010000
00000000
00001000
00010000
00001000
00000000
,
01000000
00000000
10100000
00000000
10000000
01000000
00100000
00010000
,
00100000
00001000
00010000
00001000
,
00010100
00000000
00010100
00000000
00000100
00001000
00000010
00000100
,
00000001
00000000
00001000
00000000
00000001
00000010
00000100
00000000
,
00000011
00000000
00000011
00000000
00000010
00000100
00001000
00000100
,
00010000
00001000
01000000
00001000
,
00010000
00000000
00000020
00000000
00000000
00000000
00000000
00000130
,
00000000
00000001
00000000
00001000
00000000
00000000
00001100
00000000
,
00010000
00000000
00002000
00000000
00000000
00000000
00000000
01003000
,
00000000
00010000
00000000
00100000
00000000
00000000
01000000
00000000
,
10000000
00100000
01000000
00000000
00010000
00100000
01000000
00000000
,
10000000
00000000
01000000
00000000
00100000
00010000
00100000
00000000
,
00001000
00010000
00000010
00000100
,
00000001
00000010
00000100
00001000
00000010
00000000
00010000
00000000
,
00022000
00000000
00000000
00000000
,
00033000
00000000
00000000
00000000
;

//---------------dance-double - ----------------
#NOTES:
     dance-double:
     :
     Hard:
     9:
     0.573,0.706,0.346,0.109,0.255:
00000000
00000000
00000000
00000000
,
00000000
00000000
00000000
00000000
,
00000000
00000000
00000000
00000000
,
00000000
00000000
00000000
00000000
,
00000010
00000000
00000000
00000000
00000101
00000000
00000000
00000010
00001000
00000010
00001000
00000000
00000001
00000000
00000100
00000000
,
00000010
00000000
00000000
00000000
00011000
00000000
00000000
00001000
00100000
00000000
00010000
00000000
01000000
00000000
01000000
00000000
,
00100000
00000000
00000000
00000000
01010000
00000000
00000000
00100000
10000000
00100000
10000000
00000000
00010000
00000000
10000000
00000000
,
01000000
00000000
00000000
00000000
00011000
00000000
00000000
00010000
00000010
00000000
00000100
00000000
00000001
00001000
00000001
00001000
,
00000001
00000000
00001100
00000000
00000000
00001000
00110000
00000000
,
01000000
00000000
10010000
00100000
00000000
00001000
00010100
00000000
,
00001000
00000000
00000101
00000000
00000000
00000010
00001100
00000000
,
00022000
00000000
00000000
00033000
,
00001000
01000000
00100000
10000000
01000000
00010000
01000000
10000000
,
00100000
00010000
00001000
00000200
00000000
00000000
00000310
00000000
,
00010000
00000100
00000010
00000001
00000100
00001000
00000100
00000001
,
00000010
00001000
00010000
02000000
00000000
00000000
03100000
00000000
,
01000000
00000000
10000000
00000000
00100000
00000000
01000000
00000000
00001000
00000000
00000000
00001000
00000000
00000000
00010000
00000000
,
00000010
00000000
00000100
00000000
00000001
00000000
00001000
00000000
00000100
00000000
00000000
00000010
00000100
00000000
00000000
00000000
,
00000010
00000001
00000100
00000010
00010000
00000000
00001000
01000000
,
00100000
10000000
01000000
00100000
00001000
00000000
00010000
00000000
,
00011000
01010000
00002100
00000000
,
00003001
00000010
00000100
00001000
00000000
00000000
00011000
00000000
,
00001000
01000000
10000000
01000000
00001000
00010000
00000100
00000001
,
00000100
00010000
00000010
00001000
00000000
00000000
00000100
00000000
,
00010000
00001100
01020000
00000000
,
10030000
01000000
00100000
00010000
00000000
00000000
00011000
00000000
,
00010000
00000010
00000100
00000001
00001000
00000100
00010000
00001000
,
00021000
00001000
00000000
00000100
00000000
00031000
00010000
00000000
,
01100000
00000000
10010000
00000000
00000000
00000000
00000000
01000000
,
00000000
01000000
00000000
00000000
00001000
00010000
00000000
00001100
,
00000000
00000000
00001001
00000000
00000000
00000000
00000000
00000100
,
00000000
00000100
00000000
00010000
00000000
00001000
00110000
00000000
,
10010000
10000000
01000000
00100000
,
00001000
00010000
00001000
00010000
00000010
00000100
00000001
00001000
,
00000001
00000100
00000001
00000100
00000010
00001000
00000010
00001000
00000100
00010000
00000100
00010000
00001000
01000000
00001000
01000000
,
00100000
00000000
10000000
01020000
00000000
00000000
10030000
00000000
,
00100000
00000000
00000000
00000000
11000000
00000000
00000000
00100000
00010000
00100000
00010000
00000000
10000000
00000000
01000000
00000000
,
00100000
00010000
00000000
00100000
00010000
00000000
00000000
00000000
01000000
00000000
00001000
00000000
00010000
00000000
00000010
00000000
,
00001000
00000000
00000000
00000000
00000101
00000000
00000000
00000010
00001000
00000010
00001000
00000000
00000001
00000000
00001000
00000000
,
00000100
00000000
00000000
00000000
00000000
00000000
00000000
00000000
00010000
00000000
00001100
00000000
00010000
00001000
00010000
00000000
,
00000010
00000100
00000001
00001000
00000100
00000010
00000100
00000010
,
00000001
00001000
00000100
00010000
00000010
00000100
00000001
00000100
,
00000010
00010000
00001000
01000000
00010000
00100000
00010000
00100000
,
01000000
10000000
00100000
01000000
00010000
10000000
00200000
01000000
,
00000000
00000000
00000000
00000000
00300000
00000000
10000000
00010000
,
01000000
00000000
00000000
00000000
10100000
00000000
00000000
10000000
00100000
01000000
00010000
00000000
01000000
00000000
00001000
00000000
,
00010000
00000000
00000000
00000000
00001100
00000000
00000000
00000100
00010000
00000000
00000010
00000000
00001000
00000000
00000001
00000000
,
00000100
00000000
00000000
00000000
00001010
00000000
00000000
00001000
00000010
00000100
00000001
00000000
00000100
00000000
00000001
00000000
,
00000010
00000000
00000000
00000000
00001100
00000000
00000000
00000100
00010000
00000000
00001000
00000000
00010000
00001000
00010000
00001000
,
01000000
00000000
00000000
00000000
10010000
00000000
00000000
00010000
00100000
01000000
10000000
00000000
00100000
00000000
01000000
00000000
,
00001000
00000000
00000000
00000000
00110000
00000000
00000000
00100000
00001000
00000000
00010000
00000000
00000010
00000000
00001000
00000000
,
00000100
00000000
00000000
00000000
00001001
00000000
00000000
00001000
00000010
00000100
00000001
00000000
00000010
00000000
00000100
00000000
,
00010000
00000000
00000000
00000000
00011000
00000000
00000000
00001000
02000000
00000000
00000000
00000000
00100000
00000000
00000000
00000000
,
03010000
00000000
00100000
00000000
01000000
00000000
10000000
00010000
10000000
00010000
10000000
00000000
00100000
00000000
00100000
00000000
,
01000000
00000000
00010000
00000000
00100000
00000000
01000000
00100000
01000000
00000000
10000000
00000000
00010000
00000000
00100000
00000000
,
00001000
00000000
00010000
00000000
00000010
00000000
00001000
00000001
00001000
00000001
00001000
00000000
00000100
00000000
00000100
00000000
,
00000010
00000000
00000001
00000000
00001000
00000000
00000100
00000010
00000100
00000000
00001000
00000000
00000010
00001000
00000100
00000010
,
00000001
00000100
00000001
00000100
00000010
00001000
00000010
00001000
,
00000100
00010000
00000100
00010000
00001000
01000000
00001000
01000000
,
00010000
00100000
00010000
00100000
01000000
10000000
01000000
10000000
00010000
01000000
00010000
01000000
00001000
00010000
00001000
00010000
,
00000010
00000000
00000000
00000000
00000100
00000000
00000000
00000001
00001000
00000000
00000010
00000000
00010000
00000000
00001000
00000000
,
02200000
00000000
00000000
00000000
,
03300000
00000000
00000000
00000000
;
