#TITLE:Scatman;
#SUBTITLE:;
#ARTIST:Mark'Oh;
#TITLETRANSLIT:;
#SUBTITLETRANSLIT:;
#ARTISTTRANSLIT:;
#GENRE:;
#CREDIT:;
#MENUCOLOR:;
#METERTYPE:DDR;
#BANNER:Scatman-bn.png;
#BACKGROUND:Scatman-bg.png;
#LYRICSPATH:;
#CDTITLE:ddrencorecdtitle.png;
#MUSIC:Scatman.mp3;
#OFFSET:-0.008;
#SAMPLESTART:29.538;
#SAMPLELENGTH:7.365;
#SELECTABLE:YES;
#LISTSORT:;
#BPMS:0.000=130.000;
#STOPS:;
#BGCHANGES:;
#ATTACKS:;

//---------------dance-single - ----------------
#NOTES:
     dance-single:
     :
     Beginner:
     1:
     0.138,0.212,0.059,0.079,0.000:
0000
0000
0000
0000
,
0000
0000
0000
0000
,
0000
0000
0000
0000
,
0000
0000
0000
0000
,
0001
0000
0000
0000
,
0000
0000
0000
0000
,
1000
0000
0000
0000
,
0000
0000
0000
0000
,
0001
0001
0001
0000
,
0100
0000
0010
0000
,
1000
1000
1000
0000
,
0001
0000
0001
0000
,
0010
0010
0010
0000
,
0001
0000
1000
0000
,
0100
0100
0100
0000
,
1000
0000
0010
0000
,
2002
0000
3003
0000
,
0010
0000
0100
0000
,
2002
0000
3003
0000
,
0100
0000
1000
0000
,
0220
0000
0330
0000
,
0010
0000
0001
0000
,
0220
0000
0330
0000
,
1000
0000
0000
0000
,
1000
0000
0010
0000
,
0001
0000
0010
0000
,
1000
0000
0100
0000
,
0010
0010
0010
0000
,
0001
0000
0100
0000
,
1000
0000
0100
0000
,
0001
0000
0010
0000
,
0100
0100
0100
0000
,
1001
0000
0000
0000
,
0000
0000
0000
0000
,
1000
0000
0000
0000
,
0100
0000
0000
0000
,
0010
0000
0000
0000
,
0001
0000
0000
0000
,
0001
0000
0000
0000
,
0100
0000
0000
0000
,
0010
0000
0000
0000
,
1000
0000
0000
0000
,
0001
0100
0001
0000
,
1000
0000
0001
0000
,
1000
0010
1000
0000
,
0001
0000
0010
0000
,
0001
0001
0001
0000
,
0010
0000
0100
0000
,
1000
1000
1000
0000
,
1001
0000
0000
0000
,
0001
0000
0000
0000
,
1000
0000
0000
0000
,
0010
0000
0000
0000
,
0000
1000
0000
0001
;

//---------------dance-single - ----------------
#NOTES:
     dance-single:
     :
     Easy:
     4:
     0.236,0.317,0.148,0.138,0.000:
0000
0000
0000
0000
,
0000
0000
0000
0000
,
0000
0000
0000
0000
,
0000
0000
0000
0000
,
1000
0000
1000
0000
,
0010
0000
0100
0000
,
0001
0000
0001
0000
,
1001
0000
0000
0000
,
0001
0010
0100
1000
,
0002
0000
0000
0203
0000
0000
0310
0000
,
1000
0100
0010
0001
,
1000
0000
0010
1001
,
1000
0010
0100
0001
,
2000
0000
0000
3200
0000
0000
0310
0000
,
0001
0100
0010
1000
,
0002
0000
0000
2003
0000
0000
3010
0000
,
0100
0001
0010
0000
,
0100
1000
0010
0100
,
0001
1000
0100
0000
,
0010
0100
0010
0001
,
0100
0010
1000
0000
,
0010
0100
0001
1000
,
0010
0100
0010
0000
,
2002
0000
0000
3003
,
0001
0100
0010
1000
,
0100
0010
0001
0000
,
1000
1100
0001
0101
,
0010
1000
0100
0100
,
1000
0010
0100
0001
,
0010
0100
1000
0000
,
0001
0101
1000
1100
,
0010
0001
0100
0010
,
2002
0000
0000
3003
,
0000
0000
0000
0000
,
2100
0000
0000
0000
,
3001
0000
0000
0000
,
0012
0000
0000
0000
,
1003
0000
0000
0000
,
1020
0000
0000
0000
,
0130
0000
0000
0000
,
0201
0000
0000
0000
,
0310
0000
0000
0000
,
1000
0010
0100
0100
,
0001
0010
0100
0010
,
0001
0100
0010
0010
,
1000
0100
0010
0100
,
1000
0001
0100
0000
,
0010
1000
0010
0100
,
0001
1000
0100
0000
,
0010
0001
0010
0100
,
1000
0000
0010
0000
,
0100
0000
0001
0101
,
1000
0000
0001
0000
,
0010
0110
0000
1001
;

//---------------dance-single - ----------------
#NOTES:
     dance-single:
     :
     Medium:
     6:
     0.308,0.344,0.118,0.207,0.000:
0000
0000
0000
0000
,
0000
0000
0000
0000
,
0000
0000
0000
0000
,
0000
0000
0000
0000
,
0002
0000
0000
2003
0000
0000
3001
0000
,
1000
0010
0100
0001
,
2000
0000
0000
3002
0000
0000
1003
0000
,
1001
0000
0000
0000
,
1000
0000
0100
0000
0010
0100
0010
0000
,
0001
0000
1000
0010
0000
0010
1000
0000
,
0001
0000
0100
0000
0010
0100
0010
0000
,
1000
1100
0001
0101
,
1000
0000
0010
0000
0100
0010
0100
0000
,
0001
0000
1000
0100
0000
0100
1000
0000
,
0001
0000
0010
0000
0100
0010
0100
0000
,
2000
0000
0000
3002
0000
0000
1003
0000
,
0001
0000
0100
0000
0010
1000
0001
0000
,
0200
0000
0000
0000
0310
0000
0100
0001
,
1000
0000
0100
0000
0010
0001
1000
0000
,
0200
0000
0000
0000
0310
0000
0100
1000
,
0001
0000
0100
0000
0010
1000
0100
0000
,
0020
0000
0000
0000
0130
0000
0010
0001
,
1000
0000
0010
0000
0100
0001
0010
0000
,
2002
0000
0000
3003
,
1000
0010
1000
0100
,
1000
0001
1000
0000
,
0001
0100
0001
0000
1000
0100
1000
0000
,
0010
0000
0100
0000
0010
1000
0001
0000
,
0001
0100
0001
0010
,
0001
1000
0001
0000
,
1000
0100
1000
0000
0001
0100
0001
0000
,
0020
0000
0000
0230
0000
0000
0310
0000
,
2002
0000
0000
3003
,
0000
0000
0000
0000
,
2100
0001
0001
3000
,
1000
0000
0100
0000
,
0012
1000
1000
0003
,
0001
0000
0100
0000
,
1020
0100
0100
0030
,
0010
0000
1000
0000
,
0201
0010
0010
0300
,
0100
0000
0001
0000
,
0010
0000
0001
0000
0100
0001
0100
0000
,
0010
0000
1000
0000
0010
1000
0010
0000
,
0100
0000
0001
0000
0010
0001
0010
0000
,
0100
0000
1000
0000
0100
1000
0100
0000
,
1000
0000
0100
0000
0010
0000
0001
1000
,
0002
0100
0000
1003
,
0001
0000
0010
0000
0100
0000
1000
0001
,
2000
0000
0001
3000
,
0001
0100
0001
1000
,
0010
0100
0001
1100
,
1000
0010
1000
0001
,
0100
0110
0000
1001
;

//---------------dance-single - ----------------
#NOTES:
     dance-single:
     :
     Hard:
     7:
     0.425,0.450,0.236,0.187,0.079: // measure 1
0000
0000
0000
0000
,  // measure 2
0000
0000
0000
0000
,  // measure 3
0000
0000
0000
0000
,  // measure 4
0000
0000
0000
0000
,  // measure 5
2000
0000
0000
3200
0000
0000
0301
0000
,  // measure 6
0100
1000
0010
1000
,  // measure 7
0002
0000
0000
0203
0000
0000
1300
0000
,  // measure 8
1001
0000
0000
0000
,  // measure 9
0001
0100
0010
0000
1000
0100
0010
0000
,  // measure 10
0210
0000
0000
2300
0000
0000
3001
0000
,  // measure 11
1000
0010
0100
0000
0001
0010
0100
0000
,  // measure 12
0120
0000
0000
0032
0000
0000
1003
0000
,  // measure 13
0001
0100
0010
1000
0100
0000
0010
0000
,  // measure 14
0210
0000
0000
0320
0000
0000
0031
0000
,  // measure 15
1000
0010
0100
0001
0010
0100
1000
0010
,  // measure 16
0200
0000
0000
0320
0000
0000
1030
0000
,  // measure 17
0001
0000
1000
0100
0001
0100
1000
0000
,  // measure 18
0001
0000
0010
0001
0100
0000
1001
0101
,  // measure 19
1000
0000
0001
0100
1000
0100
0001
0000
,  // measure 20
1000
0000
0000
0000
0100
0000
1000
0000
0010
0000
0010
0000
1000
0001
1000
0001
,  // measure 21
1000
0000
0000
0000
0001
0000
0010
0000
0100
0010
0000
0001
0000
0000
0100
0000
,  // measure 22
0010
0000
0000
0000
1000
0000
0001
0000
0100
0010
0000
0000
1001
0000
1100
0000
,  // measure 23
0001
0000
0000
0000
1000
0000
0010
0000
0100
0010
0000
1000
0000
0000
0100
0000
,  // measure 24
0010
0001
1000
0010
,  // measure 25
1000
0100
1000
0010
0100
0001
0010
0100
,  // measure 26
1000
0010
0100
0001
0100
0000
1001
0000
,  // measure 27
0001
0010
1000
0010
0001
0010
1000
0000
,  // measure 28
0010
0001
1000
0010
0100
0100
0100
0000
,  // measure 29
0001
0010
0001
0100
0010
1000
0100
0010
,  // measure 30
0001
0100
0010
1000
0010
0000
1001
0000
,  // measure 31
0001
0010
0100
1000
0001
0100
0010
1000
,  // measure 32
0100
1000
0010
0100
0001
0010
0100
0000
,  // measure 33
2002
0000
0000
3003
,  // measure 34
0000
0000
0000
0000
,  // measure 35
2100
0000
0001
0000
3100
0000
0100
0001
,  // measure 36
1000
0000
0100
0000
,  // measure 37
0012
0000
1000
0000
0013
0000
0010
1000
,  // measure 38
0001
0000
0000
0000
0100
0000
0010
1000
,  // measure 39
1020
0000
0100
0000
0031
0000
0001
1000
,  // measure 40
0010
0000
1000
0000
,  // measure 41
0201
0000
0010
0000
1300
0000
1000
0001
,  // measure 42
0010
0010
0000
1001
,  // measure 43
0001
0000
0000
0000
1000
0000
0010
0000
0100
0001
0000
0100
0000
0000
0001
0000
,  // measure 44
0010
0000
0000
0000
0100
0000
1000
0000
0010
0100
0000
0000
1001
0000
0101
0000
,  // measure 45
1000
0000
0000
0000
0001
0000
0010
0000
0100
1000
0000
0100
0000
0000
1000
0000
,  // measure 46
0010
0000
0000
0000
0100
0000
0001
0000
0010
0000
0010
0000
0001
1000
0001
1000
,  // measure 47
0001
0000
0010
0001
0100
1000
0100
0000
,  // measure 48
0101
0000
0010
1000
0100
0001
0100
0100
,  // measure 49
1000
0000
0100
1000
0010
0100
0001
0000
,  // measure 50
0020
0000
0000
0000
0000
0000
0130
0100
,  // measure 51
1000
0000
0000
0000
1100
0000
0000
0000
0010
0000
0000
0000
0001
0000
0100
0001
,  // measure 52
0000
1000
0000
0000
0010
0000
0000
0000
0100
0000
0000
0000
1001
0000
0000
0000
,  // measure 53
0001
0101
0010
1000
,  // measure 54
0010
0110
0000
1001
;

//---------------dance-double - ----------------
#NOTES:
     dance-double:
     :
     Easy:
     4:
     0.210,0.238,0.108,0.157,0.000:
00000000
00000000
00000000
00000000
,
00000000
00000000
00000000
00000000
,
00000000
00000000
00000000
00000000
,
00000000
00000000
00000000
00000000
,
00100000
00010000
00100000
00000000
,
00001000
00000000
00010000
00000000
,
00000010
00001000
00000010
00000000
,
00011000
00000000
00000000
00000000
,
01000000
00000000
00000000
02000000
00000000
00000000
03000000
00000000
,
10000000
00010000
00100000
00001000
,
00010000
00000000
00000000
00020000
00000000
00000000
00030000
00000000
,
00000010
00000000
00000000
00000020
00000000
00000000
00000030
00000000
,
00000100
00000000
00000000
00000200
00000000
00000000
00000300
00000000
,
00000001
00001000
00000010
00010000
,
00001000
00000000
00000000
00002000
00000000
00000000
00003000
00000000
,
01000000
00000000
00000000
02000000
00000000
00000000
03000000
00000000
,
00010000
00100000
01000000
00000000
,
10000000
00010000
00100000
01000000
,
00100000
00001000
00010000
00000000
,
00000010
00001000
00000100
00010000
,
00000100
00001000
00000010
00000000
,
00000100
00000001
00001000
00000010
,
00010000
00001000
00010000
00000000
,
00022000
00000000
00000000
00033000
,
00000100
00000000
00000010
00000000
,
00000001
00000100
00000001
00000000
,
00001000
00000000
00000010
00000000
,
00010000
00001000
01000000
00010000
,
00100000
00000000
01000000
00000000
,
10000000
01000000
10000000
00000000
,
00010000
00000000
00100000
00000000
,
00001000
00010000
00000100
00000000
,
00022000
00000000
00000000
00033000
,
00000000
00000000
00000000
00000000
,
01020000
00000000
00030000
00000000
,
00100000
00000000
00001000
00000000
,
00021000
00000000
00030000
00000000
,
00000010
00000000
00001000
00000000
,
00002100
00000000
00003000
00000000
,
00000010
00000000
00010000
00000000
,
00012000
00000000
00003000
00000000
,
00010000
00000000
00000000
00000000
,
00000010
00001000
00000001
00000100
,
00000010
00010000
00001000
00001000
,
00100000
00010000
01000000
00100000
,
10000000
00010000
00100000
00100000
,
00001000
00000000
00010000
00000100
,
00001000
00000000
00000100
00000000
,
00010000
00000000
00001000
01000000
,
20020000
00000000
00000000
30030000
,
10000000
00000000
00010000
00000000
,
01000000
00000000
00001000
00011000
,
00010000
00000000
00000100
00000000
,
00000010
00001001
00000000
00000110
;

//---------------dance-double - ----------------
#NOTES:
     dance-double:
     :
     Medium:
     6:
     0.302,0.397,0.118,0.197,0.000:
00000000
00000000
00000000
00000000
,
00000000
00000000
00000000
00000000
,
00000000
00000000
00000000
00000000
,
00000000
00000000
00000000
00000000
,
00020000
00000000
00000000
00032000
00000000
00000000
01003000
00000000
,
00010000
00100000
00000000
00100000
,
00002000
00000000
00000000
00023000
00000000
00000000
00030010
00000000
,
00011000
00000000
00000000
00000000
,
00000001
00000100
00000010
00001000
,
00000200
00000000
00000000
00000320
00000000
00000000
00000031
00000000
,
00001000
00000010
00010000
00001000
,
02000000
00000000
00000000
03200000
00000000
00000000
10300000
00000000
,
00010000
00100000
01000000
00100000
,
00002000
00000000
00000000
00023000
00000000
00000000
00030010
00000000
,
00001000
00000100
00000010
00000001
,
00000200
00000000
00000000
00000320
00000000
00000000
00001030
00000000
,
00000001
00000000
00000100
00000000
00000010
00001000
00000100
00000000
,
00001000
00000000
00000010
00010000
00001000
00000000
00011000
00000000
,
00001000
00000000
01000000
00000000
00100000
10000000
01000000
00000000
,
00100000
00000000
00001000
00010000
00000100
00000000
00010000
00001000
,
01000000
00000000
00010000
00000000
00100000
01000000
10000000
00000000
,
00010000
00000000
00100000
00000000
00001000
00010000
00000010
00000000
,
00000100
00000000
00000001
00000000
00001000
00000100
00000010
00000000
,
00000200
00000000
00000000
00000310
,
00000001
00001000
00000010
00010000
,
00001000
01000000
00010000
00000000
,
00100000
00010000
01000000
00000000
00100000
10000000
01000000
00000000
,
00100000
00000000
00001000
00000000
00010000
00001000
00010000
00000000
,
00000010
00000100
00000001
00001000
,
00000010
00010000
00001000
00000000
,
00100000
01000000
00100000
01000000
00100000
01000000
00100000
00000000
,
00001000
00010000
00001000
00000000
00000010
00000100
00000010
00000000
,
00002002
00000000
00000000
00003003
,
00000000
00000000
00000000
00000000
,
00002010
00000010
00003010
00000000
,
00010000
00000000
00001000
00000000
,
01020000
01000000
01030000
00000000
,
00001000
00000000
00100000
00000000
,
21000000
00010000
30010000
00000000
,
00100000
00000000
00001000
00000000
,
00010200
00001000
00001300
00000000
,
00000010
00000000
00000001
00000000
,
00001000
00000000
00000010
00000000
00000100
00000001
00000010
00000000
,
00000100
00000000
00001000
00000010
00010000
00000000
00011000
00000000
,
00010000
00000000
00000010
00001000
00000100
00000000
00010000
00000000
,
00001000
00000000
01000000
00010000
00100000
00000000
01000000
10000000
,
00100000
01000000
00010000
00000000
,
00100000
00001000
00010000
00011000
,
00010000
00000010
00000100
00000000
,
00000002
00000000
00000000
00001003
,
00000001
00000100
00000010
00010000
,
00000100
00010000
00001000
01010000
,
00010000
00100000
01000000
10000000
,
00010000
00110000
00000000
00011000
;

//---------------dance-double - ----------------
#NOTES:
     dance-double:
     :
     Hard:
     8:
     0.481,0.661,0.226,0.187,0.197:
00000000
00000000
00000000
00000000
,
00000000
00000000
00000000
00000000
,
00000000
00000000
00000000
00000000
,
00000000
00000000
00000000
00000000
,
00000020
00000000
00000000
00000230
00000000
00000000
00000301
00000000
,
00001000
00000010
00010000
00001000
,
02000000
00000000
00000000
03200000
00000000
00000000
10300000
00000000
,
10010000
00000000
00000000
00000000
,
00000100
00001000
00000010
00000100
00000001
00001000
00000010
00000000
,
00021000
00000000
00000000
00032000
00000000
00000000
00003100
00000000
,
00001000
00010000
00100000
10000000
01000000
00100000
00010000
00000000
,
02100000
00000000
00000000
03200000
00000000
00000000
10300000
00000000
,
01000000
00010000
00100000
01000000
10000000
00010000
00100000
00000000
,
00012000
00000000
00000000
00023000
00000000
00000000
01030000
00000000
,
00010000
00001000
00000010
00000001
00000100
00000010
00001000
00000010
,
00000210
00000000
00000000
00000320
00000000
00000000
00001030
00000000
,
00000001
00000000
00000100
00000000
00000010
00000000
00010000
00000000
00001000
00000000
01000000
00000000
00100000
00000000
10000000
00010000
,
00000000
00010000
00000000
00000000
01000000
00000000
00100000
00000000
10000000
00010000
00000000
00000000
10010000
00000000
01010000
00000000
,
10000000
00000000
00100000
00000000
01000000
00000000
00001000
00000000
00010000
00000000
00000010
00000000
00000100
00000000
00000001
00001000
,
00000000
00001000
00000000
00000000
00000100
00000000
00000010
00000000
00000001
00000000
00000001
00000000
00000010
00000100
00000010
00000100
,
00000010
00000000
00000001
00000000
00001000
00000000
00000010
00000000
00010000
00000000
00001000
00000000
01000000
00000000
00010000
00100000
,
00000000
00100000
00000000
00000000
01000000
00000000
10000000
00000000
00010000
10000000
00000000
00000000
10010000
00000000
10100000
00000000
,
00100000
00000000
10000000
00000000
00010000
00000000
01000000
00000000
00001000
00000000
00010000
00000000
00000010
00000000
00001000
00000100
,
00000000
00000100
00000000
00000000
00000010
00000000
00000000
00000000
00000001
00000000
00000000
00000000
00000100
00000000
00000000
00000000
,
00000100
00000010
00001000
00000100
00010000
00000100
00000010
00000001
,
00001000
00000010
00010000
00001000
01000000
00000000
10010000
00000000
,
00100000
01000000
00010000
00100000
00001000
00100000
01000000
10000000
,
00010000
01000000
00001000
00010000
00000010
00000010
00000010
00000000
,
00000100
00000001
00000010
00000100
00010000
00000100
00001000
00000010
,
00010000
00001000
01000000
00010000
01000000
00000000
10100000
00000000
,
00100000
10000000
01000000
00100000
00001000
00100000
00010000
01000000
,
00001000
00010000
00001000
00010000
00001000
00010000
00001000
00010000
00001000
00010000
00001000
00010000
00001000
00010000
00001000
00020000
,
00002000
00000000
00000000
00033000
,
00000000
00000000
00000000
00000000
,
00000021
00000000
00000001
00000000
00000130
00000000
00001000
00000010
,
00000100
00000000
00000000
00000000
00000010
00000000
00001000
00000000
00000010
00000000
00000000
00010000
00000000
00000000
00001000
00000000
,
00012000
00000000
00010000
00000000
00103000
00000000
00001000
00010000
,
00000100
00000000
00010000
00001000
00010000
00000000
00001000
01000000
,
02010000
00000000
00100000
00000000
03010000
00000000
10000000
00010000
,
00100000
00000000
00000000
00000000
00100000
00000000
01000000
00000000
00100000
00000000
00000000
00001000
00000000
00000000
00010000
00000000
,
00021000
00000000
00001000
00000000
00030100
00000000
00010000
00001000
,
00010000
00010000
00000000
00000110
,
00001000
00000000
00000000
00000000
00000001
00000000
00000100
00000000
00001000
00000000
00010000
00000000
00100000
00000000
10000000
00010000
,
00000000
00010000
00000000
00000000
10000000
00000000
01000000
00000000
00100000
00010000
00000000
00000000
11000000
00000000
10010000
00000000
,
00010000
00000000
00000000
00000000
10000000
00000000
01000000
00000000
00010000
00000000
00001000
00000000
00000010
00000000
00000001
00001000
,
00000000
00001000
00000000
00000000
00000001
00000000
00000100
00000000
00000010
00000000
00000010
00000000
00001000
00000001
00001000
00000001
,
00001000
00000000
00000000
00000000
00000010
00000000
00000100
00000000
00000001
00001000
00000000
00000100
00000000
00000000
00010000
00001000
,
00000000
00001000
00000000
00000000
01000000
00000000
00010000
00000000
10000000
01000000
00000000
10000000
00000000
00000000
00000000
00000000
,
00010000
00000000
00000000
00000000
01000000
00000000
00100000
00000000
10000000
00010000
00000000
01000000
00000000
00000000
00001000
00000000
,
00020000
00000000
00000100
00000000
00001000
00000000
00001000
00031000
,
01000000
00000000
00000000
00000000
10010000
00000000
00000000
00000000
00100000
00000000
00000000
00000000
00001000
00000000
00010000
00001000
,
00000000
00010000
00000000
00000000
00000010
00000000
00000000
00000000
00000100
00000000
00000000
00000000
00001001
00000000
00000000
00000000
,
00000010
00000000
00000000
00000000
00001100
00000000
00000000
00000000
00000010
00000000
00000000
00000000
00000001
00000000
00001000
00000100
,
00000000
00011000
00000000
01001000
;
