#TITLE:Scary Monsters And Nice Sprites;
#SUBTITLE:;
#ARTIST:Skrillex;
#TITLETRANSLIT:;
#SUBTITLETRANSLIT:;
#ARTISTTRANSLIT:;
#GENRE:;
#CREDIT:;
#MENUCOLOR:;
#METERTYPE:DDR;
#BANNER:Scary Monsters And Nice Sprites-bn.png;
#BACKGROUND:Scary Monsters And Nice Sprites-bg.png;
#LYRICSPATH:;
#CDTITLE:;
#MUSIC:Scary Monsters And Nice Sprites.mp3;
#OFFSET:-0.070;
#SAMPLESTART:13.780;
#SAMPLELENGTH:12.000;
#SELECTABLE:YES;
#LISTSORT:;
#BPMS:0.000=140.000,92.000=70.000,105.000=140.000,113.000=70.000,121.000=140.000,122.000=70.000,122.500=140.000,123.500=70.000,124.000=140.000,125.000=70.000,126.000=140.000,134.000=70.000,146.000=140.000,154.000=70.000,155.500=140.000,156.500=70.000,157.000=140.000,160.000=70.000,161.500=140.000,162.500=70.000,163.000=140.000,164.000=70.000,165.000=140.000,166.000=70.000,166.500=140.000,167.500=70.000,168.000=140.000,169.000=70.000,170.000=140.000;
#STOPS:92.000=0.857
,121.000=0.429
,165.000=0.429
;
#BGCHANGES:;
#ATTACKS:;

//---------------dance-single - [Ness]----------------
#NOTES:
     dance-single:
     [Ness]:
     Hard:
     9:
     0.544,0.816,0.238,0.361,0.262: // measure 1
0000
0000
0000
0000
,  // measure 2
0000
0000
0000
0000
,  // measure 3
0000
0000
0000
0000
,  // measure 4
0000
0000
0000
0000
,  // measure 5
1000
0100
1000
0100
0002
0000
1003
0100
,  // measure 6
1000
0100
0002
0000
1003
0100
0001
0100
,  // measure 7
1000
0100
1000
0100
0001
1000
0100
1000
,  // measure 8
0100
0001
1000
0100
1000
0100
0001
0100
,  // measure 9
1000
0010
0001
0010
2000
0000
3001
0010
,  // measure 10
0001
0010
2000
0000
3001
0010
0001
0010
,  // measure 11
1000
0001
0010
0001
0010
1000
0010
0001
,  // measure 12
1000
0010
0001
0010
1000
0010
0001
0010
,  // measure 13
0100
0001
0100
1000
0200
0000
0301
0100
,  // measure 14
1000
0100
0002
0000
0103
1000
0100
0001
,  // measure 15
1000
0010
0001
0010
1000
0010
0001
0010
,  // measure 16
0100
0001
0100
0010
0100
0001
1000
0100
,  // measure 17
2000
0000
0000
0000
0000
0000
3001
0010
,  // measure 18
0200
0000
2300
0000
3001
1000
0010
0100
,  // measure 19
0001
0000
0100
0010
0100
0000
0001
1000
0001
0000
0010
0001
0010
0000
0100
0000
,  // measure 20
1000
0000
0100
1000
0100
0000
0010
0100
2000
0000
0000
0000
3002
0000
0000
0000
,  // measure 21
0203
0000
0000
0000
0000
0000
0310
1000
,  // measure 22
0002
0000
2003
0000
3010
0100
0001
0010
,  // measure 23
0100
0000
1000
0100
1000
0000
0001
1000
0001
0000
0010
0000
0100
1000
0001
1000
,  // measure 24
0010
0000
0000
0000
1001
1000
0010
1000
0101
0000
1000
0100
0021
0000
0000
0031
,  // measure 25
2010
0000
0000
0000
0000
0000
0000
0000
0000
0000
0000
0000
0000
0000
0000
0000
0000
0000
0000
0000
0000
0000
0000
3000
0012
0000
0000
0000
0000
0000
0000
0000
0000
0000
0000
0000
0000
0000
0000
0000
0000
0000
0000
0000
0000
0000
0000
0000
2003
0000
0000
0000
0000
0000
0000
0000
0000
0000
0000
0000
0000
0000
0000
0000
0000
0000
0000
0000
0000
0000
0000
0000
0000
0000
0000
0000
0000
0000
0000
0000
0000
0000
0000
0000
0000
0000
0000
0000
0000
0000
0000
0000
0000
3000
0000
0000
0101
0000
0000
0000
0000
0000
0000
0000
0000
0000
0000
0000
0000
0000
0000
0000
0000
0000
0000
0000
0000
0000
0000
0000
1000
0000
0000
0000
0000
0000
0000
0000
0000
0000
0000
0000
0010
0000
0000
0000
0000
0000
0000
0000
0000
0000
0000
0000
1200
0000
0000
0000
0000
0000
0000
0000
0000
0000
0000
0000
0000
0000
0000
0000
0000
0000
0000
0000
0000
0000
0000
0000
0000
0000
0000
0000
0000
0000
0000
0000
0000
0000
0000
0000
1300
0000
0000
0000
0000
0000
0000
0000
0000
0000
0000
0000
,  // measure 26
0201
0000
0000
0000
0000
0000
0000
0000
0000
0000
0000
0000
0000
0000
0000
0000
0000
0000
0000
0000
0000
0000
0000
0300
0120
0000
0000
0000
0000
0000
0000
0000
0000
0000
0000
0000
0000
0000
0000
0000
0000
0000
0000
0000
0000
0000
0000
0000
2030
0000
0000
0000
0000
0000
0000
0000
0000
0000
0000
0000
0000
0000
0000
0000
0000
0000
0000
0000
0000
0000
0000
0000
3100
0000
0000
0000
0000
0000
0000
0000
0000
0000
0000
0000
0000
0000
0000
0000
0000
0000
0000
0000
0000
0000
0000
0000
0101
0000
0000
0000
0000
0000
0000
0000
0000
0000
0000
0000
0000
0000
0000
0000
0000
0000
0000
0000
0000
0000
0000
0000
0001
0000
0000
0000
0000
0000
0000
0000
0000
0000
0000
0000
0100
0000
0000
0000
0000
0000
0000
0000
0000
0000
0000
0000
2001
0000
0000
0000
0000
0000
0000
0000
0000
0000
0000
0000
0000
0000
0000
0000
0000
0000
0000
0000
0000
0000
0000
0000
0000
0000
0000
0000
0000
0000
0000
0000
0000
0000
0000
0000
3001
0000
0000
0000
0000
0000
0000
0000
0000
0000
0000
0000
,  // measure 27
0010
0100
0001
1000
0001
0000
0100
0000
0001
0000
0100
0000
2000
0000
0000
0000
,  // measure 28
3001
0010
0001
0010
2000
0000
3001
0010
,  // measure 29
0100
0000
1000
0000
0001
0000
1000
0010
0100
0000
0001
1000
1100
0000
1000
0001
,  // measure 30
0011
0000
0101
0000
1001
0000
0001
1000
0110
0000
1000
0010
0101
0000
0001
1000
,  // measure 31
0101
0000
0000
1100
0000
0000
0010
0000
0000
0000
0000
0000
0001
0000
0000
0100
0000
0010
0000
0100
0000
1000
0000
0000
,  // measure 32
0100
0000
0010
0000
0100
0000
0001
0000
1000
0100
0000
1000
0001
0000
0000
0010
0000
0000
1000
0000
0000
0100
0000
0000
,  // measure 33
0020
0000
0031
0010
1000
0100
0020
0000
,  // measure 34
0031
0000
0100
0000
1000
0000
0100
0000
0001
0000
0010
0000
0100
0000
0001
0100
,  // measure 35
0101
0000
0000
0000
1100
0000
0100
0000
1001
0000
1000
0000
0010
1000
0010
0000
0200
0000
0000
0000
0301
0000
0000
0000
1100
0000
0000
0000
0100
0000
1000
0000
,  // measure 36
1010
0000
0000
0000
0011
0000
0000
0010
0100
0000
1000
0000
0000
0000
0001
0000
0200
0000
0000
0000
1300
0000
0000
0000
0101
0000
0000
0000
1000
0000
0100
0000
,  // measure 37
0020
0000
0000
0000
1030
0000
0010
0000
0001
0000
1000
0000
0001
0100
1000
0000
0100
0000
0000
0000
0010
0000
0000
0000
1000
0000
0000
0000
0100
0000
0000
0000
,  // measure 38
0002
0000
1003
0010
0001
0100
2000
0000
,  // measure 39
3001
0000
0000
0010
0000
0000
0100
0000
0000
0001
0000
0000
1000
0000
0000
0000
0000
0000
0101
0000
0000
0100
0000
0010
,  // measure 40
0000
0100
0000
1000
0000
0000
0100
0000
0010
0000
0100
0000
0001
0000
0000
0000
1000
0000
0100
0000
0000
0000
1000
0000
,  // measure 41
0001
0000
0000
0000
0000
0000
1001
0000
0000
0100
0000
0010
0000
0100
0000
1000
0000
0000
0010
0000
0100
0000
0010
0000
,  // measure 42
0001
0000
1000
0000
0000
0100
0001
0000
0000
0000
0000
0000
1100
0000
0000
0010
0000
1000
0000
0100
0000
0010
0000
0000
,  // measure 43
0010
0000
0001
0000
0100
0000
0010
0000
1000
0100
0000
1000
0001
0000
0000
0010
0000
0000
0001
0000
0000
0010
0000
0000
,  // measure 44
2000
0000
3001
0010
0001
0010
2000
0000
,  // measure 45
3001
0010
0001
0010
1000
0001
0010
0001
,  // measure 46
0010
1000
0001
0010
1000
0010
0001
1000
,  // measure 47
0010
0001
0010
0000
0100
0001
0100
0001
,  // measure 48
2000
0000
3100
0001
0100
0001
2000
0000
,  // measure 49
3100
0001
0100
1000
0001
0010
0100
0001
,  // measure 50
1000
0100
0001
0100
0010
0001
0100
1000
,  // measure 51
0001
0010
0100
0001
2000
0000
0000
0000
,  // measure 52
0000
0000
3010
1000
0200
0000
2300
0000
,  // measure 53
3002
0000
0203
0000
,  // measure 54
0000
0000
0320
0000
,  // measure 55
0000
0000
2030
0000
,  // measure 56
0000
0000
3000
0000
,  // measure 57
0000
0000
0000
0000
,  // measure 58
0000
0000
0000
0000
0000
0000
0000
0000
0000
0002
0000
0000
0000
0000
0000
0000
,  // measure 59
0000
0000
0003
0000
;

//---------------dance-single - [Ness]----------------
#NOTES:
     dance-single:
     [Ness]:
     Medium:
     7:
     0.409,0.637,0.303,0.180,0.123:
0000
0000
0000
0000
,
0000
0000
0000
0000
,
0000
0000
0000
0000
,
0000
0000
0000
0000
,
2000
0000
0000
0000
0000
0000
3010
0100
,
0001
0000
1000
0000
0010
1000
0010
0000
,
0100
0001
0010
0100
,
1000
0001
1000
0000
0010
0100
0001
0000
,
0010
0000
0100
0000
1001
0000
1000
0010
,
1000
0000
0100
0000
1100
0000
0100
1000
,
0001
0100
0101
0100
,
0010
0000
0000
1000
0000
0000
1000
0000
1010
0000
0000
0000
1000
0000
0001
0000
,
0100
0000
0001
0000
0101
0000
0001
0010
,
0100
0000
1000
0000
1001
0000
1000
0010
,
0100
0000
0001
0000
0011
0000
0010
0100
,
1000
0000
0000
1000
0000
0000
1000
0000
1010
0000
0000
0000
1000
0000
0100
0000
,
0020
0000
0000
0000
0000
0000
0031
0100
,
0010
1000
0001
1000
,
0100
0000
0010
0100
1000
0000
0001
0010
,
0100
0000
1000
0001
0100
0000
0010
0000
,
2000
0000
0000
0000
0000
0000
3010
1000
,
0100
0000
0100
0000
0010
0001
0100
0000
,
0001
0010
0100
0000
1000
0001
0100
0001
,
1001
0000
0000
0000
2000
0000
3010
0000
1100
0000
1000
0100
2000
0000
0001
0001
,
3001
0100
0010
0100
0001
0000
0100
0000
0101
0000
1000
0100
2000
0000
0001
0001
,
3001
0010
0100
0010
0001
0000
0000
0000
1001
0000
1000
0001
2000
0000
0010
0010
,
3010
0100
0001
0100
0010
0000
0000
0000
1000
0000
0000
0000
1001
0000
0000
0000
,
1000
0010
0100
0000
0001
0000
0101
0000
,
0001
0000
1000
0000
0100
0000
1000
0000
1100
0000
0100
1000
0001
0000
1000
0001
,
0100
0000
0010
0000
0100
0000
0000
0000
0101
0000
0001
1000
0100
0000
1000
0010
,
0100
0001
0011
0000
0010
0200
0000
1300
,
0020
0000
0000
0000
0000
0000
0130
0000
0001
0100
0000
0001
0100
0000
0000
0000
0000
0000
0010
0000
0000
0000
0000
0000
,
0110
0000
0001
0010
0100
0000
1000
0000
,
1001
0000
0000
0000
1000
0000
0010
0000
0100
0000
0100
0000
0101
0000
0001
0010
,
0100
0000
1000
0000
1100
0000
0000
0000
0010
0000
1000
0000
1001
0000
1000
0010
,
0100
0000
0001
0000
0101
0000
0000
0000
0001
0000
0010
0000
1100
0000
0100
1000
,
0001
0000
1000
0010
0100
0000
0001
0000
1000
0000
0000
0000
0010
0000
0000
0000
,
1100
0000
0001
1000
0010
0000
0100
0000
,
0011
0000
1000
0001
0010
0000
1100
0200
,
0000
0000
0000
1300
0000
0000
0020
0000
0000
0000
0000
0000
0130
0000
0000
0000
0001
0000
0100
0000
0000
0000
0001
0000
,
1000
0000
1100
0200
0000
0310
0002
0000
,
0103
0010
1000
0000
1100
0200
0000
1300
,
0020
0000
0000
0000
0000
0000
0130
0000
0001
0100
0000
0001
1000
0000
0000
0000
0000
0000
0001
0000
0000
1000
0000
0000
,
1001
0000
1000
0010
1000
0000
0100
0000
,
0110
0000
0100
0010
0001
0000
0100
0010
,
0110
0000
0000
0000
0010
0000
0000
0000
1000
0000
0000
0100
0000
0000
0100
0000
,
1100
0000
0100
1000
0001
0000
0010
0000
,
0110
0000
0010
0001
0100
0000
0010
0100
,
0110
0000
0010
1000
0001
0000
0010
0000
,
1001
0000
0000
0000
0001
0000
1000
0000
1000
0000
0000
0001
0000
0000
0001
0000
,
0101
0000
0100
0001
2000
0000
0000
0000
,
0000
0000
3010
1000
0200
0000
2300
0000
,
3002
0000
0203
0000
,
0000
0000
0320
0000
,
0000
0000
2030
0000
,
0000
0000
3000
0000
;

//---------------dance-single - [Ness]----------------
#NOTES:
     dance-single:
     [Ness]:
     Easy:
     5:
     0.279,0.410,0.131,0.131,0.000:
0000
0000
0000
0000
,
0000
0000
0000
0000
,
0000
0000
0000
0000
,
0000
0000
0000
0000
,
0200
0000
0000
0000
0000
0000
0310
0001
,
0010
0100
1000
0001
,
0100
0010
0100
0010
,
1000
0100
0010
0001
,
2000
0000
3001
0010
,
0100
1000
0001
0100
,
0020
0000
0130
0001
,
1000
0100
1100
0000
,
0200
0000
1300
0010
,
0100
0001
0010
0100
,
0020
0000
0031
0100
,
0010
1000
0100
0010
,
0002
0000
0000
0000
0000
0000
0103
0010
,
0100
0001
1000
0100
,
0020
0000
0000
0000
,
0032
0000
0000
0000
,
0203
0000
0000
0000
0000
0000
0301
0010
,
0001
0100
0010
1000
,
0100
0000
0010
0000
0100
0000
0010
0100
,
0110
0000
0001
0000
1001
1000
0101
0000
,
0101
0000
0001
0000
1001
0001
1100
0000
,
1100
0000
0010
0000
1001
1000
0011
0000
,
0011
0100
0001
0101
,
0100
0001
1000
1001
,
1000
0000
0010
0000
0110
0100
0100
0100
,
0100
0100
0010
0000
0100
0100
0100
0100
,
0100
0100
0010
0000
1000
0100
0000
1000
,
0100
0000
1000
0100
1000
0000
0000
0000
,
0001
0000
0010
0100
1000
0000
0001
0000
,
0100
0000
0010
0000
1000
0000
0001
0010
,
0100
0100
1000
0000
0001
0000
1000
0010
,
0100
0100
0001
0000
1000
0000
0001
0010
,
1000
0010
0001
0000
1000
0000
0001
0000
,
1001
1000
0010
0100
,
0110
0000
0100
0000
0001
0000
0010
0100
,
0000
1000
0100
0000
0010
0000
0001
0000
,
0100
0000
0010
0100
0000
0001
0100
0000
,
0010
1000
0100
0000
1000
0010
0000
0100
,
0001
0000
0010
0100
1000
0000
0001
0000
,
0010
0000
0001
0100
0001
0000
1000
0000
,
0010
0100
0001
1000
,
0001
0010
0100
1000
,
0001
0010
0100
1000
,
0001
0000
1000
0010
1000
0000
0100
0000
,
0010
0001
0100
0010
,
1000
0100
0010
0001
,
0100
0010
2000
0000
,
0000
0000
3010
1000
0200
0000
2300
0000
,
3002
0000
0203
0000
,
0000
0000
0320
0000
,
0000
0000
2030
0000
,
0000
0000
3000
0000
;

//---------------dance-single - [Ness]----------------
#NOTES:
     dance-single:
     [Ness]:
     Beginner:
     2:
     0.069,0.108,0.000,0.016,0.000:
0000
0000
0000
0000
,
0000
0000
0000
0000
,
0000
0000
0000
0000
,
0000
0000
0000
0000
,
1000
0000
0000
0000
,
0001
0000
0000
0000
,
0010
0000
0000
0000
,
0100
0000
0000
0000
,
0000
0000
1000
0000
,
0000
0000
0001
0000
,
0000
0000
0010
0000
,
0000
0000
0100
0000
,
0000
0000
0010
0000
,
0000
0000
0001
0000
,
0000
0000
1000
0000
,
0000
0000
0010
0000
,
0200
0000
0000
0300
,
0000
0000
0000
0000
,
0200
0000
0000
0300
,
0000
0000
0000
0000
,
0000
0000
0000
0000
,
0000
0000
0000
0000
,
0010
0000
0000
0000
,
1000
1000
0000
0100
,
0000
0001
0000
0100
,
0000
1000
0000
0010
,
0000
0000
0000
0001
,
0000
0000
0000
1000
,
0000
0000
0100
0000
,
0010
0000
0001
0000
,
0100
0000
0010
0000
,
0000
0010
0000
0000
,
1000
0000
0000
0000
,
0100
0000
0010
0000
,
0010
0000
0001
0000
,
1000
0000
0100
0000
,
1000
0000
0000
0000
,
0001
0000
0000
0000
,
0010
0000
0000
0100
,
0000
0000
0100
0000
,
0010
0010
0000
0000
,
0010
0000
0001
0000
,
0000
0100
0000
0000
,
0010
0000
0000
0000
,
1000
0000
0000
0000
,
0100
0000
0000
0000
,
0010
0000
0000
0000
,
0001
0000
0000
0000
,
0100
0000
0000
0000
,
1000
0000
0000
0000
,
0001
0000
0010
0000
,
0000
0000
0000
0000
,
0000
0000
0100
0000
;

//---------------dance-double - [Ness]----------------
#NOTES:
     dance-double:
     [Ness]:
     Hard:
     9:
     0.534,0.623,0.156,0.402,0.238:
00000000
00000000
00000000
00000000
,
00000000
00000000
00000000
00000000
,
00000000
00000000
00000000
00000000
,
00000000
00000000
00000000
00000000
,
10000000
01000000
00010000
00001000
00020000
00000000
00031000
00000100
,
00000001
00001000
00000002
00000000
00000013
00000100
00001000
00000010
,
00000001
00000010
00001000
00010000
00001000
00010000
00100000
00010000
,
00100000
00010000
01000000
00100000
01000000
00100000
10000000
00010000
,
01000000
00010000
00001000
00000100
00000002
00000000
00000103
00001000
,
00010000
01000000
20000000
00000000
31000000
00010000
00001000
00000100
,
00000001
00000100
00001000
00010000
01000000
10000000
01000000
00010000
,
00001000
00000100
00000001
00000100
00001000
01000000
10000000
01000000
,
00010000
00100000
10000000
00100000
00002000
00000000
00003010
00000001
,
00000010
00001000
00020000
00000000
00130000
10000000
00100000
00010000
,
00001000
00000010
00000001
00000010
00001000
00010000
00100000
10000000
,
00100000
00010000
00001000
00000100
00000001
00000100
00001000
00010000
,
00002000
00000000
00000000
00000000
00000000
00000000
00013000
00000100
,
00002000
00000000
00003020
00000000
00000130
00000001
00000010
00000100
,
00001000
00000000
00000100
00010000
00000100
00000000
00010000
00001000
00010000
00000000
00001000
01000000
00001000
00000000
01000000
00000000
,
00010000
00000000
10000000
00010000
10000000
00000000
00100000
10000000
00100000
00000000
01000000
00000000
00010000
00000000
00100000
00000000
,
02000000
00000000
00000000
00000000
00000000
00000000
13000000
00100000
,
20000000
00000000
30020000
00000000
00130000
00001000
00010000
00000010
,
00000100
00000000
00000001
00000000
00000100
00000000
00001000
00000000
00000100
00000000
00000010
00000000
00001000
00000100
00001000
00000100
,
00001100
00000000
00000000
00000000
00001001
00000000
00000000
00000000
00000010
00000000
00001000
00000100
00021000
00000000
00000000
00031000
,
02100000
00000000
00010000
00000000
03100000
00000000
00000000
00000000
10010000
00000000
10000000
00010000
00210000
00000000
00000000
00301000
,
00011000
00000000
01010000
00000000
01000000
00000000
00000000
00000000
01010000
00000000
01000000
00001000
00020000
00000000
00000000
00030010
,
00000100
00001000
00000100
00001000
00000100
00000000
00000001
00000000
00001000
00000000
00000100
00000000
00020000
00000000
00000000
00000000
,
00031000
01000000
10000000
01000000
00020000
00000000
00130000
10000000
,
00100000
00000000
00001000
00000000
00011000
00000000
00000000
00000000
00110000
00000000
00100000
00010000
20000000
00000000
00000000
31000000
,
00100000
00000000
00001000
00010000
00011000
00000000
00000000
00000000
00010100
00000000
00000100
00001000
00000020
00000000
00000000
00000130
,
00000001
00000000
00000000
00000010
00000000
00000000
00000110
00000000
00000000
00000000
00000000
00000000
00000100
00000000
00000000
00001000
00000000
00000100
00000000
00001000
00000000
00010000
00000000
00000000
,
00001000
00000000
00010000
00000000
00001000
00000000
00010000
00000000
00100000
01000000
00000000
00100000
01000000
00000000
00000000
10000000
00000000
00000000
00100000
00000000
00000000
00010000
00000000
00000000
,
00200000
00000000
00310000
00100000
10000000
01000000
00020000
00000000
,
00031000
00000000
00000100
00000000
00000001
00000000
00000100
00000000
00002000
00000000
00000000
00000000
00003100
00000000
00000001
00000100
,
00000020
00000000
00000000
00000000
00000000
00000000
00001030
00000000
00000100
00000000
00000010
00000000
00000100
00001000
00000001
00000000
00000200
00000000
00000000
00000000
00000000
00000000
00000000
00000000
00000310
00000000
00000000
00000000
00001000
00000000
00000001
00000000
,
00000020
00000000
00000100
00000130
00001000
00000010
00000000
00011000
00100000
00000000
00000000
00000000
01010000
00000000
01000000
10000000
,
02000000
00000000
00000000
00000000
00000000
00000000
03100000
00000000
10000000
00000000
01000000
00000000
00010000
01000000
10000000
00000000
00010000
00000000
00000000
00000000
00100000
00000000
00000000
00000000
01000000
00000000
00000000
00000000
10000000
00000000
00000000
00000000
,
00020000
00000000
00031000
00000010
00000100
00000001
00002000
00000000
,
00013000
00000000
00000000
00100000
00000000
00000000
01000000
00000000
00000000
10000000
00000000
00000000
00010000
00000000
00000000
00000000
00000000
00000000
01010000
00000000
00000000
10000000
00000000
00010000
,
00000000
00100000
00000000
01000000
00000000
00000000
10000000
00000000
00010000
00000000
01000000
00000000
00001000
00000000
00000000
00000000
00010000
00000000
00000100
00000000
00000000
00000000
00010000
00000000
,
00000100
00000000
00000000
00001000
00000000
00000000
00001100
00000000
00000000
00000100
00000000
00001000
00000000
00000010
00000000
00000100
00000000
00000000
00000001
00000000
00000010
00000000
00000100
00000000
,
00001000
00000000
00100000
00010000
00000000
00100000
00010000
00000000
00000000
00000000
00000000
00000000
01100000
00000000
00000000
10000000
00000000
00100000
00000000
01000000
00000000
00010000
00000000
00000000
,
00100000
00000000
00001000
00000000
00010000
00000000
00000100
00000000
00001000
00000010
00000000
00000100
00000001
00000000
00000000
00000010
00000000
00000000
00000100
00000000
00000000
00010000
00000000
00000000
,
00002000
00000000
01003000
00010000
10000000
00100000
00002000
00000000
,
00013000
00001000
00000100
00000001
00000100
00000010
00001000
00000010
,
00000001
00001000
00000100
00000010
00000100
00001000
00000010
00000100
,
00000010
00001000
00010000
01000000
10000000
01000000
00010000
00100000
,
02000000
00000000
13000000
00100000
00010000
00001000
00000020
00000000
,
00000130
00001000
00001000
00000100
00000010
00000100
00010000
00001000
,
01000000
00010000
10000000
00100000
00010000
00100000
01000000
00010000
,
00100000
00001000
00010000
00000100
00020000
00000000
00000000
00000000
,
00000000
00000000
00031000
00010000
00000020
00000000
00000230
00000000
,
00000302
00000023
00002030
00003200
,
00000302
00002003
00003200
00020300
,
00032000
02003000
23000000
00000000
,
00000000
32000000
03200000
00000000
,
00000000
00300000
00000000
00000000
;

//---------------dance-double - [Ness]----------------
#NOTES:
     dance-double:
     [Ness]:
     Medium:
     6:
     0.349,0.478,0.262,0.049,0.086:
00000000
00000000
00000000
00000000
,
00000000
00000000
00000000
00000000
,
00000000
00000000
00000000
00000000
,
00000000
00000000
00000000
00000000
,
00100000
00100000
20010000
30100000
,
00100000
10020000
00130000
00001000
,
00010000
00000010
00001000
00000100
,
00000010
00000001
00000100
00000010
,
00001000
00000000
00000001
00000000
00001001
00000000
00000001
00000010
,
00000100
00000000
00010000
00000000
00011000
00000000
00001000
01000000
,
00010000
00000000
00100000
01000000
01100000
00000000
01000000
00000000
,
10000000
00000000
00000000
00100000
00000000
00000000
10000000
00000000
11000000
00000000
00000000
00000000
01000000
00000000
00100000
00000000
,
00001000
00000000
01000000
00000000
01010000
00000000
01000000
00100000
,
01000000
00000000
00010000
00000000
00110000
00000000
00100000
00001000
,
00010000
00000010
00000110
00000100
,
00000001
00000000
00000000
00000010
00000000
00000000
00000100
00000000
00000110
00000000
00000000
00000000
00000100
00000000
00010000
00000000
,
00002000
00000000
00000000
00013000
,
00000100
00001000
00000010
00000100
,
00000001
00000010
00000100
00010000
,
00001000
01000000
00010000
00100000
,
02000000
00000000
00000000
13000000
,
00100000
01000000
00010000
00100000
,
00001000
00000000
00010000
00000000
00000100
00000000
00001000
00000001
,
00001001
00000000
00000000
00000000
00000001
00000000
00000000
00000000
00000011
00000000
00000010
00000100
00001000
00000000
00000000
00000000
,
00001100
00000000
00001100
00000000
00000100
00000000
00000000
00000000
00010000
00000000
00001000
01000000
00010000
00000000
00000000
10000000
,
00100000
00000000
10000000
00000000
01000000
00000000
00000000
00000000
11000000
00000000
01000000
10000000
00010000
00000000
00000000
00100000
,
00001000
00010000
00000100
00000000
00001000
00000000
00000110
00000000
,
00000100
00001000
00000110
00000100
,
00000010
00000000
00010000
00000000
00011000
00000000
00000000
00000000
00100000
00000000
00010000
10000000
00100000
00000000
00000000
00010000
,
00100000
00000000
00010000
00000000
00100000
00000000
00000000
00000000
00001000
00000000
00010000
00000010
00000100
00000000
00000000
00010000
,
00000010
00000100
00000001
00000000
00000010
00000100
00000000
00010000
,
00001000
00000000
01000000
00100000
01000000
00000000
00010000
00000000
,
00110000
01000000
00010000
00110000
,
00100000
00000000
00000000
00000000
00001000
00000000
00010000
00000000
00011000
00000000
00000000
00000000
00000100
00000000
00001000
00000100
,
00001000
00000000
00000010
00000000
00000100
00000000
00000001
00000010
00000010
00000000
00000000
00000000
00000011
00000000
00000001
00000100
,
00000001
00000000
00000010
00000000
00000100
00001000
00000000
00000100
00001000
00000000
00000000
00000000
00001100
00000000
00000100
00010000
,
00001000
00000000
00000000
01000000
00010000
00000000
10000000
10000000
01000000
00000000
00000000
00000000
00100000
00000000
00000000
00000000
,
00110000
00001000
00010000
00001100
,
00000100
00000000
00001000
00000010
00000110
00000000
00000001
00000010
,
00000000
00000100
00010000
00000000
00001000
00000000
01000000
00000000
,
00100000
00000000
10000000
01000000
00000000
00100000
00001000
00000000
,
00010000
00000000
00000100
00000000
00001000
00000010
00000000
00000100
,
00000001
00000000
00000010
00000100
00010000
00000000
00001000
00000000
,
00011000
00000000
00001000
00010000
00000100
00000000
00001000
00000000
,
00001100
00000000
00000100
00001000
00000010
00000000
00000100
00000010
,
00000110
00000000
00000000
00000000
00000100
00000000
00000000
00000000
00000001
00000000
00000000
00000010
00000000
00000000
00000100
00000000
,
00001000
00000000
00000100
00010000
00001000
00000000
01000000
00000000
,
01010000
00000000
01000000
00010000
10000000
00000000
00100000
00000000
,
10100000
00000000
00100000
01000000
00010000
00000000
00100000
00010000
,
00110000
00000000
00000000
00000000
00100000
00000000
00000000
00000000
00001000
00000000
00000000
00010000
00000000
00000000
00000100
00000000
,
00001000
00000000
00000010
00001000
00000002
00000000
00000000
00000000
,
00000000
00000013
00000100
00010000
,
00001000
01000000
00010000
10000000
,
00100000
01000000
00010000
00100000
,
01000000
10000000
00020000
00000000
,
00000000
00000000
00030000
00000000
;

//---------------dance-double - [Ness]----------------
#NOTES:
     dance-double:
     [Ness]:
     Easy:
     4:
     0.237,0.290,0.025,0.107,0.000:
00000000
00000000
00000000
00000000
,
00000000
00000000
00000000
00000000
,
00000000
00000000
00000000
00000000
,
00000000
00000000
00000000
00000000
,
10000000
00010000
00100000
00001000
,
00010000
00000010
00000100
00000001
,
00000010
00000100
00010000
00001000
,
01000000
00010000
10000000
01000000
,
00100000
00001000
00010000
00000100
,
00001000
00000010
00000100
00000100
,
00000001
00000010
00000100
00010000
,
00001000
01000000
00100000
00100000
,
10000000
01000000
00100000
00001000
,
00010000
00000100
00001000
00000010
,
00000100
00000001
00000010
00000100
,
00010000
00001000
01000000
01000000
,
00200000
00000000
00000000
00300000
,
20000000
00000000
00000000
30000000
,
00020000
00000000
00000000
00030000
,
00200000
00000000
00000000
00300000
,
00002000
00000000
00000000
00003000
,
00020000
00000000
00000000
00030000
,
00000200
00000000
00000000
00001300
,
00000110
00000000
00000100
00000000
00000001
00001000
00000001
00000000
,
00000010
00000000
00000100
00000000
00010000
00001000
00010000
00000000
,
00001000
00000000
01000000
00000000
00010000
10000000
00010000
00000000
,
00100000
01000000
10000000
00010000
,
00100000
00001000
00010000
00000100
,
00000010
00000000
00000001
00000000
00000100
00000010
00001000
00000000
,
00000100
00010000
00000100
00000000
00010000
00001000
01000000
00000000
,
00010000
10000000
00010000
00000000
00200000
00000000
00000000
00010000
,
00000000
00010000
00310000
01000000
,
00100000
10000000
01000000
00100000
,
00001000
00000000
00010000
00000000
00001000
00000000
00010000
00000100
,
00001000
00000000
00000010
00000100
00000001
00000000
00000010
00000100
,
00010000
00000000
00001000
00010000
00000100
00000000
00001000
00000010
,
00000100
00000000
00000001
00000010
00000100
00000000
00010000
00000000
,
00001000
01000000
00010000
10000000
,
00100000
01000000
10010000
00200000
,
00000000
01000000
00000000
00000000
00310000
00000000
00000000
00000000
,
00021000
00000000
00000100
00000000
00000000
00001000
00000000
00000000
,
00030010
00000000
00000100
00000000
00000001
00000000
00000000
00001000
,
00000000
00000100
00000010
00000001
,
00000100
00000100
00000001
00001000
,
00000100
00010000
00001000
01000000
,
00100000
00100000
10000000
01000000
,
20000000
30020000
01030000
00100000
,
10000000
00010000
00100000
00001000
,
00010000
00010000
00000100
00001000
,
00000010
00000100
00000001
00000010
,
00000100
00000100
00020000
00000000
,
00000000
00000000
00031000
00010000
,
00000100
00000100
00001000
00000010
,
00000100
00000001
00000100
00000000
,
00000010
00000000
00001000
00000000
;
