#TITLE:サヨナラ・ヘヴン;
#SUBTITLE:;
#ARTIST:猫叉Master;
#TITLETRANSLIT:Sayonara Heaven;
#SUBTITLETRANSLIT:;
#ARTISTTRANSLIT:Nekomata Master;
#GENRE:;
#CREDIT:;
#MENUCOLOR:;
#METERTYPE:DDR;
#BANNER:Sayonara Heaven-bn.png;
#BACKGROUND:Sayonara Heaven-bg.png;
#LYRICSPATH:;
#CDTITLE:ddrencorecdtitle.png;
#MUSIC:Sayonara Heaven.mp3;
#OFFSET:-0.937;
#SAMPLESTART:70.135;
#SAMPLELENGTH:14.995;
#SELECTABLE:YES;
#LISTSORT:;
#BPMS:0.000=111.000;
#STOPS:;
#BGCHANGES:;
#ATTACKS:;

//---------------dance-single - ----------------
#NOTES:
     dance-single:
     :
     Beginner:
     1:
     0.094,0.156,0.048,0.019,0.000:
0000
0000
0000
0000
,
0000
0000
0000
0000
,
0000
0000
0000
0000
,
0000
0000
0000
0000
,
0000
0000
0000
0000
,
0000
0000
0000
0000
,
0000
0000
0000
0000
,
0001
0000
0000
0000
,
0010
0000
0001
0000
,
0100
0000
0100
0000
,
0010
0000
1000
0000
,
0100
0000
0010
0000
,
0001
0000
0100
0000
,
0010
0000
0010
0000
,
1000
0000
0000
0000
,
0001
0000
0000
0000
,
0001
0000
0000
0000
,
1000
0000
0100
0000
,
0010
0000
0001
0000
,
1000
0000
0000
0000
,
1000
0000
0000
0000
,
0001
0000
0100
0000
,
0010
0000
1000
0000
,
0001
0000
0000
0000
,
1000
0000
0000
0000
,
0100
0000
0000
0000
,
0100
0000
0000
0000
,
1001
0000
0000
0000
,
1001
0000
0000
0000
,
0100
0000
0000
0000
,
0010
0000
0000
0000
,
1001
0000
0000
0000
,
0001
0000
1000
0000
,
0001
0000
0001
0000
,
1000
0000
0100
0000
,
0010
0010
0010
0000
,
0220
0000
0000
0000
,
0000
0000
0330
0000
,
0001
0000
1000
0000
,
0001
0000
0000
0000
,
0100
0000
1000
0000
,
0010
0000
0010
0000
,
0100
0000
0001
0000
,
0010
0000
0100
0000
,
1000
0000
0010
0000
,
0100
0000
0100
0000
,
0001
0000
0000
1001
;

//---------------dance-single - ----------------
#NOTES:
     dance-single:
     :
     Easy:
     3:
     0.192,0.225,0.086,0.181,0.000:
0000
0000
0000
0000
,
0000
0000
0000
0000
,
0000
0000
0000
0000
,
0000
0000
0000
0000
,
1000
0000
1000
0000
,
1000
0000
0110
0000
,
0001
0000
0001
0000
,
0002
0000
0003
0010
,
0020
0000
0031
1000
,
0002
0000
0103
0100
,
0001
0010
0100
1000
,
2000
0000
3010
0100
,
0200
0000
0301
1000
,
0002
0000
0013
0001
,
1000
0010
1000
0000
,
0001
0000
0001
0000
,
1000
0100
1000
0001
,
0000
0000
0010
0000
,
0001
0000
0010
0000
,
1000
0000
1000
0000
,
0001
0010
0001
1000
,
0000
0000
0100
0000
,
1000
0000
0100
0000
,
0001
0001
0002
0000
,
1003
1000
2000
0000
,
3010
1000
0010
0100
,
0001
0000
0010
0000
,
0001
0100
0102
0000
,
1003
0100
2100
0000
,
3001
0010
0001
1000
,
0020
0000
0000
0030
,
1001
0000
0000
0000
,
0001
0000
0010
0000
,
0001
0000
0001
0000
,
1000
0000
0100
0000
,
0100
1000
0001
0000
,
1001
0000
0110
0000
,
1001
0000
1001
0000
,
0010
0000
0010
0001
,
2000
0000
3000
0100
,
0200
0000
1300
0001
,
2000
0000
3010
0010
,
1000
0100
0010
0001
,
0002
0000
1003
0010
,
0020
0000
1030
0001
,
2000
0000
3100
1000
,
0001
0100
0001
2002
,
0000
3003
0000
0000
;

//---------------dance-single - ----------------
#NOTES:
     dance-single:
     :
     Medium:
     4:
     0.233,0.248,0.076,0.172,0.014:
0000
0000
0000
0000
,
0000
0000
0000
0000
,
0000
0000
0000
0000
,
0000
0000
0000
0100
,
1000
0000
0010
0000
,
0100
0000
1001
0000
,
0010
0000
0100
1000
,
0002
0000
0003
0100
,
0020
0000
1030
0001
,
0200
0000
0310
0010
,
1000
0000
0100
0000
0100
1000
0010
0000
,
2000
0000
3010
1000
,
0200
0000
0310
0001
,
0020
0000
0031
0001
,
1000
0001
1000
0001
1000
0000
0000
0000
,
0001
0001
0100
0010
,
1000
0100
0010
0001
,
1001
0000
0000
0100
0100
0000
1000
0000
,
0010
0000
0100
0000
0001
0000
0010
0001
,
1000
1000
0100
0010
,
0001
0100
0010
1000
,
0000
0000
0000
0010
0010
0000
1000
0000
,
0100
0010
0001
0000
,
1000
0010
2000
0000
,
3001
0100
0002
0000
,
0013
0001
1000
0010
,
0200
0010
0310
0000
,
1000
0000
0000
0100
0000
0000
0010
0000
0001
0000
0000
0000
0000
0000
0000
0000
,
0001
0000
0000
0100
0000
0000
0010
0000
1000
0000
0000
0000
0000
0000
0000
0000
,
1000
0000
0000
0001
0000
0000
1000
0000
0001
0000
0000
0000
0100
0000
0000
0000
,
0020
0000
0000
0030
,
1001
0000
0000
0000
,
1000
0100
1000
0010
,
1000
0001
0100
0000
,
0001
0010
0001
1000
,
0100
0010
0100
0010
0100
0000
0000
0000
,
1100
0000
0110
0000
,
1100
0000
1001
0000
,
0001
0000
0100
0010
,
2000
0000
3000
0010
,
0200
0000
0301
1000
,
0020
0000
0130
0100
,
0001
0000
0010
0000
0010
0001
0100
0000
,
0002
0000
0103
0001
,
0020
0000
0130
1000
,
0200
0000
1300
1000
,
0001
1000
0001
1000
0001
0000
2002
0000
,
0000
3003
0000
0000
;

//---------------dance-single - ----------------
#NOTES:
     dance-single:
     :
     Hard:
     7:
     0.349,0.383,0.086,0.181,0.124:
0000
0000
0000
0000
,
0000
0000
0000
0000
,
0000
0000
0000
0000
,
0000
0000
0000
0000
0000
0000
0010
1000
,
0100
1000
0001
0100
,
0010
0000
1000
0000
1001
0000
0100
0001
,
0010
0000
0000
0000
0001
0000
0000
0000
1000
0000
0000
0010
0100
0000
0010
0000
,
2000
0000
3000
0001
,
0200
0000
0310
1000
,
0002
0000
1003
0100
,
1000
0010
1000
0010
0100
0100
0001
1000
,
0002
0000
0013
0001
,
2000
0000
3010
1000
,
0200
0000
1300
0001
,
0001
0000
0100
0000
0001
0000
0100
0000
0010
0000
0000
1000
0001
0000
0000
0000
,
1000
0000
0000
0100
0000
0000
1000
0000
0001
0000
0000
0000
0100
0000
0001
0000
,
0010
0001
0100
0001
1000
0000
0010
0000
,
1001
0000
0000
0000
0000
0000
0100
0000
0100
0000
0000
0001
0000
0000
1000
0000
,
0010
0000
0000
1000
0000
0000
0001
0000
0100
0000
0000
0000
0010
0000
1000
0000
,
0001
0000
0000
0010
0000
0000
0001
0000
1000
0000
0000
0000
0010
0000
1000
0000
,
0100
1000
0010
1000
0001
0000
0100
0000
,
0000
0000
0000
0000
1001
0000
0010
0000
0010
0000
0000
1000
0000
0000
0001
0000
,
0010
0000
0000
0001
0000
0000
1000
0000
0100
0000
0000
1000
0001
0000
0000
0000
,
0010
0000
0000
0001
0000
0000
0010
0000
0120
0000
0000
0000
0030
0000
0010
0000
,
0100
0000
0000
1000
0000
0000
0100
0000
0210
0000
0000
0000
0300
0000
0100
0000
,
1000
0000
0000
0010
0000
0000
1000
0000
0001
0000
0000
0000
0010
0000
0001
0000
,
0200
0010
0002
0303
,
1000
0000
0000
0010
0000
0000
1000
0000
0001
0000
0100
0000
0110
0000
0100
0000
,
0001
0000
0000
0100
0000
0000
0001
0000
1000
0000
0010
0000
0110
0000
0010
0000
,
1000
0000
0000
0100
0000
0000
1000
0000
0001
0000
0000
0000
0100
0000
0001
0000
,
2000
0000
0000
0000
0010
0000
0000
0000
0001
0000
0000
0001
0000
0000
3001
0000
,
1000
0000
0000
0000
1000
0000
0000
0000
1000
0000
0000
0000
0000
0000
0000
0000
0001
0000
0000
0000
0001
0000
0000
0000
0001
0000
0000
0000
0000
0000
0000
0000
0000
0010
0000
0000
0100
0000
0000
0000
0000
0000
0010
0000
0000
0000
0000
0000
,
0001
0000
1000
0001
0100
0000
0100
0010
,
1000
0000
1000
0100
0010
0000
0100
1000
,
0001
0000
0110
0000
0010
0001
1000
1000
,
0001
0100
1000
0100
0001
0000
0010
0001
,
1000
0000
0000
0010
1000
0000
1000
0000
0001
0000
0000
0100
0001
0000
0001
0000
,
1000
0000
0000
0001
1000
0000
0100
0000
0010
0000
0000
0000
0011
0000
0010
0000
,
0001
0000
0000
0100
0001
0000
0010
0000
0100
0000
0100
0000
0010
0000
0010
0000
,
0200
0000
0300
0010
,
0002
0000
0103
0001
,
2000
0000
3001
0010
,
0001
0100
0001
0100
0010
0010
1000
0001
,
2000
0000
3100
1000
,
0002
0000
0103
0001
,
0020
0000
0031
1000
,
0100
0000
1000
0000
0010
0000
0100
0000
0001
0000
0000
2000
0002
0000
0000
0000
,
0000
3003
0000
0000
;

//---------------dance-single - ----------------
#NOTES:
     dance-single:
     :
     Challenge:
     8:
     0.440,0.541,0.258,0.200,0.253: // measure 1
0000
0000
0000
0000
,  // measure 2
0000
0000
0000
0000
,  // measure 3
0000
0000
0000
0000
,  // measure 4
0000
0000
0000
0000
0000
0000
0100
0001
,  // measure 5
1000
0000
0000
0100
1000
0000
1000
0000
0001
0000
0000
0010
0001
0000
0001
0000
,  // measure 6
1000
0000
0000
0001
1000
0000
0010
0000
0100
0000
0000
0000
0010
0000
1000
0000
,  // measure 7
0001
0000
0000
0010
0001
0000
0001
0000
1000
0000
0000
0100
1000
0000
1100
0000
,  // measure 8
0020
0000
0000
0230
,  // measure 9
0002
0000
0000
0000
0300
0000
0000
0000
1003
0000
0000
0010
1000
0000
0001
0000
,  // measure 10
0010
0100
1010
0101
,  // measure 11
0010
0000
0001
0000
0100
0000
0010
0000
0100
0000
0001
0010
1000
0000
0010
0000
,  // measure 12
0200
0000
0000
0000
0000
0000
0000
0310
0002
0000
0000
0000
0100
0000
0000
0000
,  // measure 13
2003
0000
0000
0000
0000
0000
0000
0000
3010
0000
0000
1000
0100
0000
0010
0000
,  // measure 14
0001
0010
0101
1010
,  // measure 15
0100
0000
1000
0000
0010
0000
0100
0000
0010
0000
0000
1000
0100
0000
1000
0001
,  // measure 16
1000
0000
0000
0010
0000
0000
0100
0000
0001
0000
0000
0000
0010
0000
0001
0000
,  // measure 17
0100
0100
0010
0010
1000
0000
0100
0000
,  // measure 18
1001
0000
0000
0000
0000
0000
0010
0000
0001
0000
0000
0100
0000
0000
1000
0000
,  // measure 19
0001
0000
0000
0010
0000
0000
0100
0000
0001
0000
0000
0000
0010
0000
0001
1000
,  // measure 20
0001
0000
0000
0100
0000
0000
0010
0000
1000
0000
0000
0000
0100
0000
1000
0000
,  // measure 21
0010
0010
0100
0100
0001
0000
1000
0000
,  // measure 22
0010
0000
0000
0000
1001
0000
0100
0000
1000
0000
0000
0010
0000
0000
0001
0000
,  // measure 23
1000
0000
0000
0100
0000
0000
0010
0000
1000
0000
0000
1000
0010
0000
0100
0001
,  // measure 24
0200
0000
0000
0010
0000
0000
0301
0000
0100
0000
0001
0000
0001
0000
0010
0001
,  // measure 25
0020
0000
0000
0100
0000
0000
0031
0000
0010
0000
0001
0000
0001
0000
1000
0001
,  // measure 26
2000
0000
0000
0100
0000
0000
3001
0000
1000
0000
0000
1000
0100
0000
0010
0000
,  // measure 27
0002
0000
0000
0000
0100
0000
0000
0000
0010
0000
0003
0000
1000
0000
0100
1000
,  // measure 28
0200
0000
0000
0010
0000
0000
1300
0000
0010
0000
1010
0000
1010
0000
0010
1000
,  // measure 29
0020
0000
0000
0100
0000
0000
1030
0000
0100
0000
1100
0000
1100
0000
1000
0001
,  // measure 30
2000
0000
0000
0010
0000
0000
3001
0000
1000
0000
0000
0001
0010
0000
0100
0000
,  // measure 31
0010
1001
0100
1001
,  // measure 32
0001
0000
0000
0000
0001
0000
0000
0000
0001
0000
0000
0000
0000
0000
0000
0000
1000
0000
0000
0000
1000
0000
0000
0000
1000
0000
0000
0000
0000
0000
0000
0000
0000
0001
0000
0000
0010
0000
0000
0000
0000
0000
0011
0000
0000
0000
0000
0000
,  // measure 33
0001
0000
0000
0100
0001
0000
0001
0000
1000
0000
0000
0010
1000
0000
1000
0000
,  // measure 34
0001
0000
0000
1000
0001
0000
0010
0000
0100
0000
0000
0000
0010
0000
0001
0000
,  // measure 35
1000
0000
0000
0100
1000
0000
1000
0000
0010
0000
0100
0000
0001
0000
0001
0000
,  // measure 36
1000
0010
0001
0010
1000
0000
0100
1000
,  // measure 37
1010
0000
0000
1001
0000
0000
0011
0000
0011
0000
0000
0101
0000
0000
0110
0000
,  // measure 38
0110
0000
0000
1010
0000
0000
1001
0000
1001
0000
0000
0000
1100
0000
0100
0000
,  // measure 39
1000
0000
0000
0010
1000
0000
0100
0000
0010
0000
0010
0000
0100
0000
0100
0000
,  // measure 40
0020
0000
0000
0032
,  // measure 41
2000
0000
0000
0000
0003
0000
0000
0000
3010
0000
0000
0100
0010
0000
1000
0000
,  // measure 42
0100
0010
1100
0011
,  // measure 43
0100
0000
1000
0000
0010
0000
0100
0000
0010
0000
1000
0100
0001
0000
0100
0000
,  // measure 44
0020
0000
0000
0000
0000
0000
0000
0130
2000
0000
0000
0000
0010
0000
0000
0000
,  // measure 45
3002
0000
0000
0000
0000
0000
0000
0000
0103
0000
0000
0010
0100
0000
0001
0000
,  // measure 46
0010
0000
0000
0001
0100
0000
0100
0000
0010
0000
0000
1000
0100
0000
0000
0000
,  // measure 47
0010
0000
0001
0000
0100
0000
0010
0000
1000
0000
0000
0002
2000
0000
0000
0000
,  // measure 48
0000
3003
0000
0000
;

//---------------dance-double - ----------------
#NOTES:
     dance-double:
     :
     Easy:
     2:
     0.161,0.203,0.057,0.200,0.000:
00000000
00000000
00000000
00000000
,
00000000
00000000
00000000
00000000
,
00000000
00000000
00000000
00000000
,
00000000
00000000
00000000
00000000
,
10000000
00000000
01000000
00000000
,
10000000
00000000
10000000
00000000
,
00010000
00000000
00100000
00000000
,
00020000
00000000
00030000
01000000
,
02000000
00000000
03001000
00000000
,
00020000
00000000
00031000
00000000
,
00010000
00000000
00000010
00000000
,
00002000
00000000
00003010
00000010
,
00000200
00000000
00000301
00000000
,
00002000
00000000
00003100
00000000
,
00000100
00001000
00000010
00000000
,
00010000
00000000
00000100
00000000
,
00001000
00000000
00001000
00000000
,
00001001
00000000
00000100
00000000
,
00000010
00000000
00010000
00000000
,
00001000
00000000
01000000
00000000
,
00010000
00000000
00010000
00000000
,
00000000
10010000
01000000
00000000
,
00100000
00000000
10000000
00000000
,
00020000
00000000
10030000
00000000
,
20000000
00000000
31000000
00000000
,
00100000
00000000
00001000
00000000
,
00022000
00000000
00033000
00000000
,
00002000
00100000
00103000
00000000
,
00020000
00000100
00030100
00000000
,
00001000
00000000
00000010
00000000
,
00000200
00000000
00000000
00000300
,
00001001
00000000
00000000
00000000
,
00000001
00000000
00000010
00000000
,
00000001
00000000
00000001
00000000
,
00001000
00000000
00000100
00000000
,
00010000
00010000
00001000
00000000
,
01000000
00000000
01000000
00000000
,
01000000
00000000
10010000
00000000
,
00100000
00000000
00010000
00000000
,
20000000
00000000
30000000
00100000
,
00200000
00000000
10300000
00000000
,
00020000
00000000
01030000
00000000
,
00010000
00000000
00100000
00000000
,
00002000
00000000
00013000
00010000
,
00000200
00000000
00001300
00000000
,
00000020
00000000
00000130
00000000
,
00000001
00001000
00000001
00002002
,
00000000
00003003
00000000
00000000
;

//---------------dance-double - ----------------
#NOTES:
     dance-double:
     :
     Medium:
     4:
     0.229,0.271,0.095,0.172,0.014:
00000000
00000000
00000000
00000000
,
00000000
00000000
00000000
00000000
,
00000000
00000000
00000000
00000000
,
00000000
00000000
00000000
00010000
,
01000000
00000000
00001000
00000000
,
00010000
00000000
00011000
00000000
,
00010000
00000000
00000010
00000000
,
00000200
00000000
00000300
00000010
,
00000020
00000000
00001030
00000001
,
00002000
00000000
00003100
00000100
,
00001000
00000001
00001000
00000000
00000010
00001000
00000010
00000000
,
00020000
00000000
00031000
00010000
,
00002000
00000000
01003000
01000000
,
00020000
00000000
00130000
00100000
,
00010000
10000000
10010000
00000000
,
10000000
01000000
10000000
00000000
,
01000000
00100000
01000000
00100000
,
00001000
00000000
00000000
00001000
00000010
00000000
00000010
00000000
,
00000100
00000100
00000010
00000000
,
00000001
00000100
00000001
00000000
,
00000100
00000010
00000100
00000010
,
00000000
00000000
00010000
00001000
00100000
00000000
00100000
00000000
,
01000000
01000000
00100000
00000000
,
10000000
00100000
20000000
00000000
,
30010000
01000000
00020000
00000000
,
00130000
00001000
00010000
00000010
,
00020000
00001000
00031000
00000000
,
01000000
00000000
00000000
01000000
00000000
00000000
00010000
00000000
10000000
00000000
00000000
00000000
10010000
00000000
00000000
00000000
,
00100000
00000000
00000000
00100000
00000000
00000000
10000000
00000000
00010000
00000000
00000000
00000000
10010000
00000000
00000000
00000000
,
00100000
00000000
00000000
00001000
00000000
00000000
00010000
00000000
00001000
00000000
00000000
00000000
00000010
00000000
00000000
00000000
,
00000200
00000000
00000000
00000300
,
00001001
00000000
00000000
00000000
,
00000001
00000010
00000001
00001000
,
00000001
00000100
00000010
00000000
,
00000010
00001000
00000100
00010000
,
00001000
01000000
00010000
00000000
,
11000000
00000000
00110000
00000000
,
01100000
00000000
10010000
00000000
,
01000000
00000000
10000000
10000000
,
00200000
00000000
00300000
01000000
,
02000000
00000000
03010000
10000000
,
00020000
00000000
00130000
00100000
,
00010000
10000000
00010000
00000000
01000000
00010000
01000000
00000000
,
00002000
00000000
00013000
00001000
,
00020000
00000000
00030010
00000010
,
00002000
00000000
00003100
00000100
,
00001000
00000000
00000001
00001000
00000001
00000000
00002002
00000000
,
00000000
00003003
00000000
00000000
;

//---------------dance-double - ----------------
#NOTES:
     dance-double:
     :
     Hard:
     7:
     0.329,0.338,0.048,0.162,0.119:
00000000
00000000
00000000
00000000
,
00000000
00000000
00000000
00000000
,
00000000
00000000
00000000
00000000
,
00000000
00000000
00000000
00000000
00000000
00000000
00000010
00001000
,
00000001
00000010
00000001
00000100
,
00000001
00000000
00001000
00000000
00010000
00000000
01000000
00010000
,
10000000
00000000
00000000
00000000
01000000
00000000
00000000
00000000
10000000
00000000
00000000
00100000
10000000
00000000
00100000
00000000
,
02000000
00000000
03000000
00100000
,
20000000
00000000
31000000
10000000
,
00020000
00000000
00130000
00001000
,
00010000
00001000
00010000
00000010
00001000
00000100
00010000
00001000
,
02000000
00000000
03100000
10000000
,
00020000
00000000
00130000
00001000
,
00020000
00000000
00030010
00000010
,
00001000
00000000
00000100
00000000
00000010
00000000
00000001
00000000
00001000
00000000
00000000
00000001
00001000
00000000
00000000
00000000
,
00000001
00000000
00000000
00000010
00000000
00000000
00000001
00000000
00000100
00000000
00000000
00000000
00000010
00000000
00000010
00000000
,
00001000
00001000
00000001
00000001
00000100
00000000
00000010
00000000
,
00001001
00000000
00000000
00000000
00000000
00000000
00000100
00000000
00010000
00000000
00000000
00000100
00000000
00000000
00001000
00000000
,
00000010
00000000
00000000
00010000
00000000
00000000
00001000
00000000
01000000
00000000
00000000
00000000
01000000
00000000
00010000
00000000
,
10000000
00000000
00000000
00100000
00000000
00000000
10000000
00000000
01000000
00000000
00000000
00000000
00100000
00000000
00100000
00000000
,
00010000
00010000
10000000
10000000
00100000
00000000
01000000
00000000
,
00000000
00000000
00000000
00000000
00010000
00000000
00100000
00000000
00001000
00000000
00000000
00100000
00000000
00000000
00010000
00000000
,
01000000
00000000
00000000
00001000
00000000
00000000
00010000
00000000
00000010
00000000
00000000
00001000
00000010
00000000
00000000
00000000
,
00000100
00000000
00000000
00000100
00000000
00000000
00000100
00000000
00000010
00000000
00001000
00000000
00000001
00000000
00000000
00000000
,
00000010
00000000
00000000
00000010
00000000
00000000
00000010
00000000
00000100
00000000
00001000
00000000
00000001
00000000
00000000
00000000
,
00000010
00000000
00000000
00000001
00000000
00000000
00000100
00000000
00001000
00000000
00000000
00000000
00001000
00000000
00010000
00000000
,
00200000
10000000
02000000
03300000
,
00100000
00000000
00000000
00100000
00000000
00000000
00100000
00000000
10000000
00000000
01000000
00000000
10010000
00000000
00000000
00000000
,
01000000
00000000
00000000
01000000
00000000
00000000
01000000
00000000
00010000
00000000
00100000
00000000
10010000
00000000
00000000
00000000
,
00100000
00000000
00000000
00010000
00000000
00000000
01000000
00000000
00001000
00000000
00000000
00010000
00001000
00000000
00010000
00000000
,
00000200
00000000
00000000
00000300
,
00001000
00000000
00000000
00000000
00001000
00000000
00000000
00000000
00001000
00000000
00000000
00000000
00000000
00000000
00000000
00000000
00000001
00000000
00000000
00000000
00000001
00000000
00000000
00000000
00000001
00000000
00000000
00000000
00000000
00000000
00000000
00000000
00000000
00001000
00000000
00000000
00000001
00000000
00000000
00000000
00000000
00000000
00000100
00000000
00000000
00000000
00000000
00000000
,
00000010
00000000
00001000
00000100
00000010
00000000
00000100
00001000
,
00000001
00000000
00001000
00000010
00000100
00000000
00000100
00000001
,
00001000
00000000
00010010
00000000
00010000
00001000
00010000
00010000
,
00001000
00100000
01000000
10000000
00010000
00000000
00100000
00000000
,
00010000
00000000
00000000
00010000
00000000
00000000
10000000
00000000
00100000
00000000
00000000
00100000
00000000
00000000
10000000
00000000
,
01000000
00000000
00000000
01000000
00000000
00000000
00100000
00000000
00010000
00000000
00000000
00000000
10010000
00000000
00000000
00000000
,
01000000
00000000
00100000
10000000
00100000
01000000
00010000
00010000
,
00200000
00000000
00300000
00010000
,
20000000
00000000
31000000
10000000
,
00200000
00000000
01300000
00001000
,
00010000
00001000
00010000
00000010
00001000
00000100
00010000
00000010
,
00000200
00000000
00000301
00001000
,
00000020
00000000
00000130
00000001
,
00002000
00000000
00003010
00000010
,
00010000
00000000
00000100
00000000
00001000
00000000
00000010
00000000
00010000
00000000
00000000
00002000
00020000
00000000
00000000
00000000
,
00000000
00033000
00000000
00000000
;

//---------------dance-double - ----------------
#NOTES:
     dance-double:
     :
     Challenge:
     8:
     0.387,0.428,0.095,0.229,0.196:
00000000
00000000
00000000
00000000
,
00000000
00000000
00000000
00000000
,
00000000
00000000
00000000
00000000
,
00000000
00000000
00000000
00000000
00000000
00000000
00000001
00000100
,
00000010
00000000
00000000
00001000
00000100
00000000
00001000
00000000
00000010
00000000
00000000
00000100
00000001
00000000
00000010
00000000
,
00000001
00000000
00000000
00000100
00000010
00000000
00001000
00000000
00000100
00000000
00000000
00000000
00010000
00000000
00001000
00000000
,
01000000
00000000
00000000
00100000
10000000
00000000
01000000
00000000
10000000
00000000
00000000
01000000
00100000
00000000
00010000
00000000
,
02000000
00000000
03000000
00100000
,
00020000
00000000
00130000
10000000
,
02000000
00000000
03010000
00001000
,
00000010
00000000
00000100
00000000
00001000
00000000
00000010
00000000
00000100
00000000
00001000
00000100
00000001
00000000
00000010
00000000
,
00000200
00000000
00000000
00000000
00000000
00000000
00000300
00001000
00000002
00000000
00000000
00000000
00000010
00000000
00000000
00000000
,
00002003
00000000
00003010
00000001
,
00000200
00000000
00001300
00010000
,
00100000
00000000
01000000
00000000
00010000
00000000
00100000
00000000
01000000
00000000
00000000
00100000
00010000
00000000
10000000
00010000
,
10000000
00000000
00000000
01000000
00000000
00000000
00100000
00000000
00001000
00000000
00000000
00000000
00010000
00000000
00010000
00000000
,
01000000
00100000
00001000
00000010
00000100
00000000
00001000
00000000
,
00000011
00000000
00000000
00000000
00000000
00000000
00000100
00000000
00001000
00000000
00000000
00010000
00000000
00000000
00100000
00000000
,
10000000
00000000
00000000
00100000
00000000
00000000
00010000
00000000
00001000
00000000
00000000
00000000
00000100
00000000
00000001
00000100
,
00000001
00000000
00000000
00000010
00000000
00000000
00000100
00000000
00010000
00000000
00000000
00000000
00001000
00000000
00001000
00000000
,
00000010
00000100
00010000
01000000
00100000
00000000
00010000
00000000
,
00000000
00000000
00000000
00000000
11000000
00000000
00100000
00000000
00010000
00000000
00000000
00001000
00000000
00000000
00000010
00000000
,
00000001
00000000
00000000
00000010
00000000
00000000
00001000
00000000
00010000
00000000
00000000
01000000
10000000
00000000
00010000
00000000
,
02000000
00000000
00000000
00100000
00000000
00000000
03010000
00000000
01000000
00000000
00100000
00000000
00100000
00000000
10000000
00000000
,
00200000
00000000
00000000
01000000
00000000
00000000
10300000
00000000
00100000
00000000
01000000
00000000
01000000
00000000
00010000
00000000
,
00200000
00000000
00000000
00001000
00000000
00000000
00310000
00000000
00100000
00000000
00000000
00001000
00010000
00000000
00000010
00000000
,
00000200
00001000
00000002
00000303
,
00000020
00000000
00000000
00000001
00000000
00000000
00000130
00000000
00000010
00000000
00000011
00000000
00000011
00000000
00001000
00000000
,
00000200
00000000
00000000
00001000
00000000
00000000
00000310
00000000
00000100
00000000
00001100
00000000
00001100
00000000
00000001
00000000
,
00000200
00000000
00000000
00000010
00000000
00000000
00000301
00000000
00000100
00000000
00000000
00000010
00001000
00000000
00000100
00000000
,
00010000
00100000
10000000
01000000
,
10000000
00000000
00000000
00000000
10000000
00000000
00000000
00000000
10000000
00000000
00000000
00000000
00000000
00000000
00000000
00000000
00010000
00000000
00000000
00000000
00010000
00000000
00000000
00000000
00010000
00000000
00000000
00000000
00000000
00000000
00000000
00000000
00000000
10000000
00000000
00000000
00010000
00000000
00000000
00000000
00000000
00000000
01000000
00000000
00000000
00000000
00000000
00000000
,
00100000
00000000
00000000
10000000
01000000
00000000
10000000
00000000
00100000
00000000
00000000
01000000
00010000
00000000
00100000
00000000
,
01000000
00000000
00000000
00100000
00010000
00000000
01000000
00000000
00001000
00000000
00000000
00000000
00010000
00000000
00000010
00000000
,
00000100
00000000
00000000
00000010
00001000
00000000
00000100
00000000
00001000
00000000
00001000
00000000
00000001
00000000
00000001
00000000
,
00000100
00000010
00001000
00000001
00000010
00000000
00000100
00000010
,
00000001
00000000
00000000
00001100
00000000
00000000
00010000
00000000
00000010
00000000
00000000
00001100
00000000
00000000
00010000
00000000
,
00001000
00000000
00000000
01010000
00000000
00000000
00001000
00000000
00100000
00000000
00000000
00000000
01010000
00000000
00000000
00000000
,
00100000
00000000
00000000
10000000
01000000
00000000
00100000
00000000
00010000
00000000
01000000
00000000
00001000
00000000
00010000
00000000
,
00000020
00000000
00000030
00000100
,
00002000
00000000
00003100
00000001
,
00000020
00000000
00001030
00010000
,
01000000
00000000
00100000
00000000
00010000
00000000
01000000
00000000
00100000
00000000
00010000
00100000
10000000
00000000
01000000
00000000
,
00200000
00000000
00000000
00000000
00000000
00000000
00300000
00010000
20000000
00000000
00000000
00000000
01000000
00000000
00000000
00000000
,
30020000
00000000
01030000
10000000
,
00200000
00000000
00310000
00001000
,
00000100
00000000
00000010
00000000
00001000
00000000
00000100
00000000
00000010
00000000
00000000
00002000
00020000
00000000
00000000
00000000
,
00000000
00033000
00000000
00000000
;
