#TITLE:Satiric Dances;
#SUBTITLE:(Mvt.3) [SPECIAL];
#ARTIST:Dello Joio vs. MMM Classical;
#TITLETRANSLIT:;
#SUBTITLETRANSLIT:;
#ARTISTTRANSLIT:;
#GENRE:;
#CREDIT:;
#MENUCOLOR:;
#METERTYPE:DDR;
#BANNER:satiricdancesmovement3d.png;
#BACKGROUND:satiricdancesmovement3e.png;
#LYRICSPATH:;
#CDTITLE:currentcdtitle.png;
#MUSIC:Satiric Dances (Mvt.3) [S].mp3;
#OFFSET:-0.016;
#SAMPLESTART:66.980;
#SAMPLELENGTH:14.240;
#SELECTABLE:YES;
#LISTSORT:;
#DISPLAYBPM:165.000;
#BPMS:0.000=165.320,132.000=82.660,134.000=70.470,135.875=165.320,248.000=330.640,272.000=165.320;
#STOPS:;
#BGCHANGES:;
#ATTACKS:;

//---------------dance-single - ----------------
#NOTES:
     dance-single:
     :
     Challenge:
     11:
     1.000,1.000,0.780,0.160,1.000: // measure 1
0000
0000
0000
0000
,  // measure 2
0000
0000
0000
0000
0000
0000
1000
1000
,  // measure 3
1100
0100
0110
0100
0101
0100
0110
0010
,  // measure 4
0011
0011
0110
0110
1100
1100
1001
1001
,  // measure 5
0101
0101
0110
0110
1010
0110
0101
1001
,  // measure 6
1100
1000
0001
0100
0001
1000
0001
0100
,  // measure 7
0010
1000
0001
1000
0010
1000
0001
0100
,  // measure 8
1000
0000
0100
0000
0001
0000
0100
0000
1000
0000
0100
0000
0010
0100
0010
0100
,  // measure 9
0010
0000
1000
0000
0010
0000
0001
0000
0010
0000
1000
0000
0010
0100
0001
0100
,  // measure 10
0010
1000
0010
0100
0001
0100
0010
1000
0010
0100
0001
0100
0010
1000
0100
0010
,  // measure 11
0001
0000
0100
0000
1000
0000
0100
0000
0001
0000
1000
0000
0100
1000
0001
1000
,  // measure 12
0010
0000
0100
0000
1000
0000
0100
0000
0001
0000
0100
0000
0010
1000
0100
0010
,  // measure 13
0001
0000
0000
0000
1000
0000
0000
0000
0100
0000
0000
0000
0010
0000
0000
0000
0100
0000
0000
1000
0100
0000
0000
0000
0010
0000
0001
0000
1000
0000
0100
0000
,  // measure 14
0010
0000
0000
0000
0001
0000
0000
0000
0100
0000
0000
0000
0001
0000
0000
0000
1000
0000
0000
0010
1000
0000
0000
0000
0001
0000
0100
0000
0010
0000
0100
0000
,  // measure 15
0001
0000
1000
0000
0100
0000
1000
0000
0001
0000
1000
0000
0010
1000
0100
1000
,  // measure 16
0010
0000
0100
0000
0001
0000
1000
0000
0100
0000
0010
0000
0001
1000
0100
0010
,  // measure 17
0001
0000
0100
0000
0001
0100
0010
0100
0001
0000
1000
0000
0001
0010
0100
1000
,  // measure 18
0002
0000
0000
0000
0010
0000
0000
0000
0100
0000
0000
0000
1003
0100
0010
0001
,  // measure 19
1000
0000
1100
0000
0001
0000
0101
0000
1000
0000
1001
0000
0001
0100
0010
0100
,  // measure 20
0001
0010
0100
0010
0001
0100
0010
1000
0100
0010
0100
1000
0100
0010
0001
1000
,  // measure 21
0010
0000
0110
0000
0100
0000
0101
0000
0001
0000
1001
0000
0001
0100
0010
1000
,  // measure 22
0100
0000
0011
0000
0100
0000
0101
0000
1000
0000
1001
0000
0100
0010
1000
0001
,  // measure 23
0100
0000
0000
0000
0010
0000
0000
0000
1000
0000
0000
0000
0100
0000
0000
0000
0010
0000
0000
1000
0010
0000
0000
0000
0100
0000
1000
0000
0001
0000
0100
0000
,  // measure 24
0010
0000
0000
0000
0001
0000
0000
0000
0010
0000
0000
0000
1000
0000
0000
0000
0001
0000
0000
0100
1000
0000
0000
0000
0100
0000
0001
0000
1000
0000
0100
0000
,  // measure 25
0010
0000
1000
0000
0010
0000
0001
0000
1000
0000
0100
0000
0010
0001
0100
0010
,  // measure 26
1000
0000
0001
0000
0100
0000
0010
0000
0100
0000
1000
0000
0100
0010
1000
0100
,  // measure 27
0010
0000
0001
0000
1000
0100
1000
0001
0010
0000
0100
0000
0100
1000
0001
0100
,  // measure 28
0010
0000
1001
0000
0010
0000
1001
0000
0100
0000
1001
0000
0100
0001
0100
0010
,  // measure 29
1000
0000
1100
0000
0001
0000
0101
0000
1001
0000
0100
0000
0010
1000
0100
0010
,  // measure 30
0001
0000
1100
0000
1000
0000
0100
0000
0010
0000
0001
0000
0100
0010
1000
0001
,  // measure 31
0100
0000
1001
0000
0100
0000
0010
0000
1020
0000
0000
0030
1100
0000
0000
0000
,  // measure 32
0101
1000
0101
0010
0101
1000
1000
1100
,  // measure 33
1100
0010
1100
1000
0000
0002
0100
0003
,  // measure 34
0202
0000
0000
0003
0000
2000
0000
0300
0020
0000
3000
0002
0000
0000
0000
0030
,  // measure 35
1003
0100
0001
0100
1000
0001
1000
0001
,  // measure 36
0010
0200
1000
1000
1000
1000
1000
1000
,  // measure 37
1300
0000
0010
0000
0100
0000
0001
0000
0100
0000
0010
0000
1000
0001
0100
0010
,  // measure 38
1000
0000
0100
0000
0010
0000
0001
0000
1000
0000
0100
0000
0010
0001
0100
0010
,  // measure 39
1000
0000
0100
0000
1001
0000
0100
0000
1100
0000
0001
0000
1000
0010
0100
0001
,  // measure 40
0010
0000
0100
0000
1100
0000
1000
0000
0110
0000
0010
0000
1000
0001
0100
0010
,  // measure 41
1000
0100
0010
0001
0100
1000
0100
0001
0010
0100
1000
0010
0001
0010
1000
0100
,  // measure 42
0010
0001
1000
0100
0010
0001
0100
0010
0100
0001
1000
0100
0010
0001
1000
0100
,  // measure 43
0020
1000
0000
0001
0000
0130
1000
0001
,  // measure 44
0200
0010
0000
1000
0000
0310
1000
0100
,  // measure 45
0010
0001
0100
1000
0100
0001
0010
0100
1000
0010
0001
0010
1000
0100
0010
0001
,  // measure 46
1000
0100
0010
0100
1000
0100
0010
0100
1000
0100
0010
0100
1000
0001
0100
0001
,  // measure 47
1000
0010
0100
0010
1000
0010
0100
0010
1000
0010
0100
0010
1000
0001
0100
0001
,  // measure 48
1000
0001
0100
0001
1000
0010
1000
0001
1000
0100
1000
0001
0100
0010
0100
0001
,  // measure 49
1000
0010
0100
0001
1000
0010
0100
0001
1000
0010
0100
0001
1000
0010
0100
0001
,  // measure 50
0010
0100
1000
0001
0010
0100
1000
0001
0010
0100
1000
0001
0010
0100
1000
0001
,  // measure 51
0010
0000
0000
0000
1100
0000
0000
0000
1000
0000
0000
0000
1001
0000
0000
0000
0001
0000
0000
0100
0001
0000
0000
0000
1000
0000
0100
0000
0010
0000
0100
0000
,  // measure 52
1000
0000
0000
0000
1001
0000
0000
0000
0010
0000
0000
0000
1010
0000
0000
0000
0100
0000
0000
0001
0100
0000
0000
0000
0010
0000
1000
0000
0100
0000
0010
0000
,  // measure 53
0001
0000
1100
0000
0001
0000
1100
0000
1000
0000
0110
0000
0100
0010
1000
0001
,  // measure 54
0100
0000
0110
0000
0100
0000
1001
0000
0001
0000
1001
0000
0001
0010
0100
1000
,  // measure 55
0001
0000
0101
0000
0100
0010
1000
0001
0100
0000
0110
0000
0010
1000
0100
0010
,  // measure 56
0001
0000
0100
0000
1000
0000
0100
0000
0001
0000
0100
0000
1000
0100
0010
0100
,  // measure 57
0001
0010
0100
0001
0100
0010
0001
0010
0100
0001
0100
0010
0001
0010
0100
1000
,  // measure 58
0001
0010
0001
0010
0001
0010
0001
0010
0001
0000
0100
0000
0010
0100
0001
0100
,  // measure 59
0010
1000
0010
1000
0010
1000
0010
1000
0100
0000
0010
0000
0001
0010
0100
1000
,  // measure 60
0001
0100
0001
0100
0001
0100
0001
0100
0001
0100
0001
0100
0001
0100
0001
0100
,  // measure 61
0010
1000
0010
1000
0010
1000
0010
1000
0100
1000
0100
1000
0100
0010
0100
0010
,  // measure 62
0001
0010
0001
1000
0001
0100
0001
1000
0001
0100
0001
1000
0001
0100
0001
1000
,  // measure 63
0001
0001
0101
0101
,  // measure 64
1001
0000
1001
0000
0010
1000
0010
0100
,  // measure 65
0001
0110
0101
0101
,  // measure 66
1001
0000
0011
0000
0100
1000
0010
0100
,  // measure 67
0001
0101
1001
0101
,  // measure 68
2100
3001
2100
3001
,  // measure 69
1002
0000
0000
0000
0020
0000
0000
0003
0130
0010
0100
0010
0100
0001
0100
0002
,  // measure 70
1000
0100
1003
0000
;

//---------------dance-double - ----------------
#NOTES:
     dance-double:
     :
     Challenge:
     11:
     1.000,1.000,0.300,0.120,0.900:
00000000
00000000
00000000
00000000
,
00000000
00000000
00000000
00000000
00000000
00000000
00000100
00010000
,
00011000
00000100
00001100
00000010
00000110
00000100
00000101
00000100
,
00000010
00000010
00001000
00001000
00000100
00000100
00000010
00000010
,
00000001
00000001
00000100
00000100
00000010
00010000
00001000
01000000
,
00010000
00100000
01000000
10000000
00010000
00100000
01000000
10000000
,
00001000
00010000
00100000
01000000
00001000
00010000
00000100
00001000
,
00000001
00000000
00000100
00000000
00000010
00000000
00000100
00000000
00000001
00000000
00000100
00000000
00000010
00001000
00000100
00001000
,
00000010
00000000
00000100
00000000
00000001
00000000
00001000
00000000
00000100
00000000
00000010
00000000
00000100
00010000
00001000
00010000
,
00000100
00010000
00001000
00010000
00000100
00010000
00001000
00010000
00000100
00010000
00001000
00010000
00000100
00010000
00001000
01000000
,
00010000
00000000
00100000
00000000
00010000
00000000
01000000
00000000
00100000
00000000
10000000
00000000
01000000
00100000
00010000
10000000
,
01000000
00000000
00100000
00000000
00001000
00000000
00010000
00000000
00000100
00000000
00001000
00000000
00000010
00000100
00000001
00000010
,
00000100
00000000
00000000
00000000
00010000
00000000
00000000
00000000
00001000
00000000
00000000
00000000
00010000
00000000
00000000
00000000
00000100
00000000
00000000
00010000
00000100
00000000
00000000
00000000
00010000
00000000
00001000
00000000
01000000
00000000
00100000
00000000
,
10000000
00000000
00000000
00000000
01000000
00000000
00000000
00000000
00100000
00000000
00000000
00000000
00010000
00000000
00000000
00000000
00100000
00000000
00000000
00001000
00100000
00000000
00000000
00000000
00001000
00000000
00010000
00000000
00000100
00000000
00001000
00000000
,
00000010
00000000
00000100
00000000
00000001
00000000
00000010
00000000
00000100
00000000
00010000
00000000
00000100
00010000
00001000
01000000
,
00010000
00000000
00100000
00000000
00001000
00000000
00010000
00000000
00000010
00000000
00001000
00000000
00000100
00000010
00000001
00001000
,
00000100
00000000
00000010
00000000
00000100
00001000
00000001
00000010
00000100
00000000
00010000
00000000
00001000
01000000
00010000
10000000
,
00100000
00000000
01000000
00000000
00100000
00000000
01000000
00000000
00010000
00000000
10000000
00000000
00010000
10000000
00010000
10000000
,
00010000
00000000
01000000
00000000
00010000
00000000
01000000
00000000
00100000
00000000
10000000
00000000
01000000
00100000
00010000
00100000
,
00001000
00010000
00000100
00001000
00000100
00000010
00000100
00001000
00000010
00000100
00000001
00000010
00000100
00001000
00000001
00001000
,
00000100
00000000
00000010
00000000
00000001
00000000
00000100
00000000
00000010
00000000
00000100
00000000
00000001
00000100
00000010
00001000
,
00000100
00000000
00010000
00000000
00001000
00000000
01000000
00000000
00010000
00000000
10000000
00000000
00100000
01000000
00010000
10000000
,
01000000
00000000
00000000
00000000
00100000
00000000
00000000
00000000
00010000
00000000
00000000
00000000
10000000
00000000
00000000
00000000
01000000
00000000
00000000
00100000
01000000
00000000
00000000
00000000
10000000
00000000
01000000
00000000
00100000
00000000
00001000
00000000
,
00010000
00000000
00000000
00000000
00000100
00000000
00000000
00000000
00001000
00000000
00000000
00000000
00000010
00000000
00000000
00000000
00000100
00000000
00000000
00000001
00000100
00000000
00000000
00000000
00000001
00000000
00000010
00000000
00000100
00000000
00010000
00000000
,
00001000
00000000
01000000
00000000
00100000
00000000
01000000
00000000
00010000
00000000
00100000
00000000
00001000
00100000
00010000
01000000
,
00100000
00000000
01000000
00000000
00010000
00000000
10000000
00000000
01000000
00000000
00100000
00000000
00001000
00010000
00000100
00001000
,
00000010
00000000
00000100
00000000
00001000
00000100
00000010
00000100
00000001
00000000
00000010
00000000
00000100
00001000
00000001
00001000
,
00000010
00000000
00000100
00000000
00000001
00000000
00000010
00000000
00000100
00000000
00010000
00000000
00001000
01000000
00010000
01000000
,
00100000
00000000
10000000
00000000
01000000
00000000
00100000
00000000
00001000
00000000
00010000
00000000
00000100
00001000
00000010
00000100
,
00000001
00000000
00000010
00000000
00000100
00000000
00010000
00000000
00001000
00000000
01000000
00000000
00010000
10000000
00100000
01000000
,
00010000
00100000
11000000
01000000
20010000
00000000
30100000
00000000
,
10100000
01000000
01010000
00100000
10100000
01000000
01000000
00011000
,
00011000
00000100
00001100
00000010
00000000
00000100
00000100
00000000
,
00000002
00000000
00000000
00000000
00000003
00020000
00000000
00000000
20000000
00000000
00030000
00200000
00000000
00000000
30000000
00000000
,
00310000
01000000
00100000
10000000
01000000
00100000
00001000
00010000
,
00000020
00000002
00000000
00000000
00000000
00000000
00000000
00000033
,
00000010
00000000
00000100
00000000
00000001
00000000
00000010
00000000
00000100
00000000
00010000
00000000
00001000
01000000
00100000
10000000
,
01000000
00000000
00100000
00000000
00001000
00000000
00010000
00000000
00000100
00000000
00001000
00000000
00000010
00000100
00000001
00000010
,
00000100
00000000
00010000
00000000
00001000
00000000
01000000
00000000
00010000
00000000
10000000
00000000
00100000
01000000
00010000
00100000
,
01000000
00000000
10000000
00000000
00100000
00000000
10000000
00000000
01000000
00000000
00100000
00000000
00001000
00010000
00000100
00001000
,
00000010
00000100
00000001
00000010
00000001
00000010
00000001
00000010
00000001
00000010
00000001
00000010
00000001
00000010
00000001
00000010
,
00000100
00010000
00000100
00010000
00000100
00010000
00000100
00010000
00000100
00010000
00000100
00010000
00000100
00010000
00001000
01000000
,
00010000
10000000
00010000
10000000
00010000
10000000
00100000
00010000
,
00001000
00000100
00001000
00000100
00001000
00000100
00000010
00001000
,
00000100
00000010
00000100
00001000
00000100
00000010
00000100
00001000
00000100
00000010
00000100
00001000
00000100
00000010
00000001
00000100
,
00000010
00001000
00000100
00001000
00000010
00001000
00000100
00001000
00000010
00001000
00000100
00010000
00001000
00000000
00000000
00000000
,
01000000
00010000
10000000
00010000
01000000
00100000
10000000
01000000
00100000
00010000
10000000
01000000
00100000
00000000
00000000
00000000
,
00001000
00010000
00000100
00000010
00001000
00000010
00000001
00000100
,
00000010
00000100
00000001
00000010
00000100
00010000
00001000
00100000
00010000
01000000
00100000
10000000
01000000
00100000
00010000
10000000
,
01000000
00100000
00010000
01000000
00100000
10000000
01000000
00100000
00001000
00010000
00000010
00000100
00000001
00000010
00000100
00010000
,
00001000
00000000
00000000
00000000
00100000
00000000
00000000
00000000
00001000
00000000
00000000
00000000
00010000
00000000
00000000
00000000
00000100
00000000
00000000
00001000
00000010
00000000
00000000
00000000
00000100
00000000
00000001
00000000
00000010
00000000
00000100
00000000
,
00010000
00000000
00000000
00000000
00001000
00000000
00000000
00000000
01000000
00000000
00000000
00000000
00010000
00000000
00000000
00000000
00100000
00000000
00000000
01000000
10000000
00000000
00000000
00000000
00100000
00000000
01000000
00000000
00010000
00000000
00100000
00000000
,
01000000
00000000
10000000
00000000
00100000
00000000
10000000
00000000
01000000
00000000
00100000
00000000
00001000
00010000
00000100
00001000
,
00000010
00000000
00000100
00000000
00000001
00000000
00000010
00000000
00000100
00000000
00010000
00000000
00001000
01000000
00010000
10000000
,
01000000
00000000
00100000
00000000
01000000
10000000
00010000
01000000
00100000
00000000
01000000
00000000
01000000
00010000
10000000
01000000
,
00100000
00000000
00110000
00000000
00100000
00000000
00110000
00000000
00100000
00000000
00001000
00000000
00010000
00001000
00010000
00000100
,
00001000
00000010
00000100
00000001
00000010
00000100
00001000
00000010
00000100
00000001
00000010
00000100
00001000
00000010
00000100
00000001
,
00001000
00000000
00001000
00000000
00000100
00000000
00000100
00000000
00010000
00000000
00001000
00000000
01000000
00010000
10000000
01000000
,
00100000
00000000
00100000
00000000
00001000
00000000
00001000
00000000
00010000
00000000
00000100
00000000
00001000
00000010
00000100
00000001
,
00000010
00000100
00000010
00000100
00000010
00000100
00000010
00000100
00000010
00000100
00000010
00000100
00000010
00000100
00000010
00000100
,
00010000
00001000
00010000
00001000
00010000
00001000
00010000
00001000
00010000
00000100
00010000
00000100
00001000
00000100
00001000
00000100
,
00001000
00000010
00001000
00000010
00001000
00000010
00001000
00000010
00000100
00000001
00000100
00000001
00000100
00000001
00000100
00000001
,
00001000
00001100
00011000
01010000
,
10010000
00000000
01100000
00000000
10000000
01000000
00100000
00001000
,
00010000
00001100
00000110
00000101
,
00000110
00000000
00001100
00000000
00000100
00010000
00001000
01000000
,
00010000
01100000
10010000
00110000
,
02010000
03001000
02010000
03001000
,
00021000
00100000
00032000
00003020
,
00000001
00000100
00000031
00000000
;
