#TITLE:Satiric Dances;
#SUBTITLE:(Mvt.3) [ANOTHER];
#ARTIST:Dello Joio vs. MMM Classical;
#TITLETRANSLIT:;
#SUBTITLETRANSLIT:;
#ARTISTTRANSLIT:;
#GENRE:;
#CREDIT:;
#MENUCOLOR:;
#METERTYPE:DDR;
#BANNER:satiricdancesmovement3c.png;
#BACKGROUND:satiricdancesmovement3b.png;
#LYRICSPATH:;
#CDTITLE:currentcdtitle.png;
#MUSIC:Satiric Dances (Mvt. 3) [A].mp3;
#OFFSET:-0.003;
#SAMPLESTART:54.400;
#SAMPLELENGTH:9.720;
#SELECTABLE:YES;
#LISTSORT:;
#DISPLAYBPM:183.000;
#BPMS:0.000=183.738,12.000=367.476,28.000=91.869,32.000=183.738,118.000=91.869,120.000=46.300,121.875=47.000,122.000=129.638,146.000=200.071,262.000=100.035,266.000=400.142,290.000=200.071,294.000=800.284,296.000=200.071;
#STOPS:32.000=0.898
,33.250=0.898
,38.500=0.898
,40.000=0.816
,41.250=0.082
,41.500=0.082
,41.750=0.082
,42.000=0.082
,42.250=0.041
,42.375=0.041
,42.500=0.082
,43.750=0.082
,44.000=0.082
,44.250=0.082
,44.500=0.082
,44.750=0.041
,44.875=0.041
,45.000=0.082
,46.250=0.082
,46.500=0.082
,46.750=0.082
,47.000=0.082
,47.250=0.082
,47.500=0.082
,48.750=0.082
,49.000=0.082
,49.250=0.082
,49.500=0.082
,49.750=0.082
,50.000=0.082
,51.250=0.082
,51.500=0.082
,52.750=0.082
,53.000=0.082
,109.250=0.082
,294.000=0.056
,294.250=0.112
,294.750=0.056
,295.000=0.112
,295.500=0.112
;
#BGCHANGES:;
#ATTACKS:;

//---------------dance-single - [Ness]----------------
#NOTES:
     dance-single:
     [Ness]:
     Challenge:
     12:
     1.000,1.000,0.434,0.178,1.000: // measure 1
0000
0000
0000
0000
,  // measure 2
0000
0000
0000
0000
0000
0000
0100
0100
,  // measure 3
0101
1000
1100
0001
0101
0010
1001
0010
,  // measure 4
0100
0100
0001
0001
,  // measure 5
1000
1000
0010
0010
,  // measure 6
0110
0110
1001
1001
,  // measure 7
0101
1100
0011
1010
,  // measure 8
1001
0001
0010
0001
1000
0100
1000
0100
0010
0001
0010
0001
1000
0100
1000
0100
,  // measure 9
0010
0001
0100
0010
0100
0001
1000
0010
0100
0010
1000
0010
0100
0010
1000
0010
,  // measure 10
0100
0010
1000
0010
0100
0010
1000
0010
0100
0001
1000
1000
0010
0100
0001
1000
,  // measure 11
0000
0000
0001
0000
0010
0000
0100
0000
1000
0000
0001
0000
0100
0000
0010
0000
0100
0000
0001
0010
0100
0000
1000
0000
0001
0000
0100
0000
0010
0000
1000
0000
,  // measure 12
0100
0000
0010
0000
0001
0000
0100
0010
0100
0000
0001
0000
1000
0000
0010
0000
0100
0000
0001
0000
1000
0000
1000
0000
1000
0000
1000
0000
1000
0000
1000
0000
,  // measure 13
0100
0001
0100
1000
0001
0001
0001
0001
0001
0100
0010
1000
0100
0010
0001
0100
,  // measure 14
0010
0100
0001
0010
0100
1000
0001
0100
0010
1000
0000
0000
0000
0101
0000
0000
,  // measure 15
0000
1000
0000
0000
0000
0100
1000
0001
0100
0010
0000
1001
0000
0010
0000
1001
,  // measure 16
0000
0010
0000
1001
0000
1000
0010
0100
0001
1000
0010
0100
0001
1000
0010
0100
,  // measure 17
0001
1000
0010
0100
0001
0010
0100
1000
0001
0100
0000
0010
0000
1000
0000
0010
,  // measure 18
0000
0100
0000
0001
0000
0010
0100
1000
0001
0010
0000
0100
0000
1000
0000
0010
,  // measure 19
0000
0001
0000
0010
0000
0100
0001
1000
0100
0010
0000
0001
0000
1000
0000
0100
,  // measure 20
0000
0010
0001
0010
0000
0100
1000
0001
0100
0010
0000
1000
0000
0100
0000
0010
,  // measure 21
0000
0001
1000
0001
0000
0100
0010
1000
0100
0010
0000
0001
0000
1000
0000
0010
,  // measure 22
0000
0100
0000
1000
0000
0100
0010
1000
0010
0100
0000
0001
0000
1000
0000
0100
,  // measure 23
0000
0010
0000
0001
0000
0100
0010
0100
0001
0010
0000
0100
0000
1000
0001
0100
,  // measure 24
0010
1000
0000
0001
0000
0010
0100
1000
0001
0100
0000
0101
0000
1000
0000
0101
,  // measure 25
0000
0010
0000
1001
0000
0010
0000
1001
0000
0100
0000
0011
0000
0100
0000
0011
,  // measure 26
0000
0100
0000
1001
0000
0100
0010
1000
0001
0100
0000
0100
0000
0001
0000
0001
,  // measure 27
0000
1000
0000
1000
0000
0010
0100
0001
0010
0100
0000
1000
0000
0010
0000
1000
,  // measure 28
0000
0002
0000
0000
0000
0013
0000
0000
1100
0000
0010
0000
0101
0000
0010
0000
,  // measure 29
1100
0001
0001
1100
0101
0010
0101
0010
,  // measure 30
0000
0000
1001
0000
1001
0000
0000
0000
0120
0000
0000
0000
0000
2000
0000
0030
,  // measure 31
3000
0000
0000
0000
0002
0000
0000
0000
0000
0000
0000
0000
0000
0000
0000
0000
0000
0000
0000
0000
0000
0000
0000
0000
0000
0000
0000
0000
0000
0000
0000
0000
0000
0000
0000
0000
0000
0000
0000
0000
0000
0000
0023
0000
0000
0000
0000
0000
0000
0000
0000
0000
0000
0000
0000
0000
0000
0000
0000
0000
0000
0000
0000
0000
0000
0000
0030
0000
0000
0000
0000
0000
0000
0000
0000
0000
0000
0000
0000
0000
0000
0000
0000
0000
0000
0000
0000
0000
0000
0000
0000
0000
0000
0000
0000
0000
0011
0000
0000
0000
0000
0000
0000
0000
0000
0000
0000
0000
0000
0000
0000
0000
0000
0000
0000
0000
0000
0000
0000
0000
0010
0000
0000
0000
0000
0000
0000
0000
0000
0000
0000
0000
0000
0000
0000
0000
0000
0000
0000
0000
0000
0000
0000
0000
0100
0000
0000
0000
0000
0000
0000
0000
0000
0000
0000
0000
0000
0000
0000
0000
0000
0000
0000
0000
0000
0000
0000
0000
1000
0000
0000
0000
0000
0000
0000
0000
0000
0000
0000
0000
0000
0000
0000
0000
0000
0000
0000
0000
0000
0000
0000
0000
,  // measure 32
0001
0100
0010
1000
0002
0020
0000
0003
,  // measure 33
0130
1000
0001
0100
0010
1000
0100
1000
,  // measure 34
0010
0000
1000
0000
0100
1000
0001
0100
0010
0000
0100
0000
0001
0000
0100
0000
,  // measure 35
0010
0000
0100
0000
0001
0010
0100
0010
1001
0000
0010
0000
1001
0000
0010
0000
,  // measure 36
1001
0000
0010
0000
0001
1000
0010
0100
1001
0000
0010
0000
1001
0000
0010
0000
,  // measure 37
1001
0000
0010
0000
1000
0001
0100
0010
1001
1000
0001
0100
0001
0100
0001
0100
,  // measure 38
0001
0100
0001
0100
0001
0100
0001
0100
0010
1000
0010
1000
0010
1000
0010
1000
,  // measure 39
0010
1000
0010
1000
0001
0000
0100
0000
0020
0000
1000
0000
0000
0000
1000
0000
,  // measure 40
0000
1030
0100
0010
0001
0200
0000
0001
,  // measure 41
0000
0000
0310
0000
0100
0000
0001
0000
1000
0010
0100
0001
1000
0010
0100
0001
,  // measure 42
1000
0010
0100
0001
0010
0100
1000
0001
0010
0100
1000
0100
0010
0100
1000
0100
,  // measure 43
0010
0100
1000
0100
0010
0000
0000
0000
0010
0100
1000
0100
0010
0100
1000
0100
,  // measure 44
0010
0100
1000
0100
0010
0000
0000
0000
0010
0000
0001
0000
0100
0000
0001
0000
,  // measure 45
0010
0000
0001
0000
1000
0000
0100
0000
0100
1000
0001
1000
0100
1000
0001
1000
,  // measure 46
0100
1000
0001
1000
0100
0010
0100
0010
0100
1000
0001
1000
0100
1000
0001
1000
,  // measure 47
0100
1000
0001
1000
0100
0010
0001
0100
0010
1000
0100
1000
0010
1000
0100
1000
,  // measure 48
0010
1000
0100
1000
0001
0000
0000
0000
0010
0001
0100
0001
0010
0001
0100
0001
,  // measure 49
0010
0001
0100
0001
1000
0000
0000
0000
0010
0000
0100
0000
0001
0000
0100
0000
,  // measure 50
0010
0000
0100
0000
0001
0000
1000
0000
0001
0010
0001
0100
0001
0010
0001
0100
,  // measure 51
0001
0010
0001
0100
0010
1000
0100
1000
0001
0010
0001
0100
0001
0010
0001
0100
,  // measure 52
0001
0010
0001
0100
0010
1000
0100
1000
0010
0000
0100
0000
0001
0000
0010
0000
,  // measure 53
0100
1000
0100
0000
0010
0001
0100
0010
1000
0000
0100
0000
0010
0000
0001
0000
,  // measure 54
0100
0010
0100
0000
0001
1000
0100
0010
0001
0000
0100
0000
0010
0000
1000
0000
,  // measure 55
0100
0000
0010
0000
0001
1000
0100
0010
0001
0000
0100
0000
0010
0000
1000
0000
,  // measure 56
0001
0000
0010
0000
0100
1000
0001
0100
0010
0000
1001
0000
0100
0010
1000
0001
,  // measure 57
0100
0000
1001
0000
0100
0001
1000
0100
0020
0000
0000
0000
0000
0000
0000
0000
,  // measure 58
0000
0000
0000
0000
0130
0010
0100
1000
0001
0010
0001
0100
0001
0010
0001
0100
,  // measure 59
0001
0010
0001
0100
0001
0010
0001
0100
0020
0000
0000
0000
0000
0000
0000
0000
,  // measure 60
1030
0000
0100
0000
1000
0001
0100
0010
2000
0000
0000
0000
0000
0000
0000
0000
,  // measure 61
3100
0000
0010
0000
0001
1000
0100
0010
0001
0100
0000
0000
0100
0001
0000
0100
,  // measure 62
0010
1000
0100
0010
0000
0001
0100
0001
0100
0001
0000
0010
0100
0000
1000
0100
,  // measure 63
1000
0100
0000
1000
0001
1000
0001
1000
0000
0001
0000
0100
0010
0100
0010
0100
,  // measure 64
0000
0001
0100
0001
0100
0000
0010
1000
0010
1000
0010
0100
0010
0000
1000
0100
,  // measure 65
0000
0001
0100
0000
0010
0000
0100
2000
0000
3010
0100
0000
0000
0000
0000
0001
,  // measure 66
1000
0000
0001
1000
0001
1000
0010
0100
0020
0000
0000
0000
2030
0000
0000
0000
,  // measure 67
3200
0302
0013
0100
,  // measure 68
0001
1000
0100
0010
,  // measure 69
0001
0010
0100
1000
0001
0000
0100
0000
,  // measure 70
0010
1000
0100
0010
,  // measure 71
0001
1000
0010
0100
0001
0000
0010
0000
,  // measure 72
0100
1000
0010
0100
,  // measure 73
0001
0010
0100
1000
0020
0000
0000
0000
,  // measure 74
0000
0000
0000
0000
1030
0000
0000
0000
0010
0100
0000
0010
0100
0000
0001
0000
,  // measure 75
1001
0000
0000
0000
;

//---------------dance-double - [Ness]----------------
#NOTES:
     dance-double:
     [Ness]:
     Challenge:
     12:
     1.000,1.000,0.286,0.178,1.000:
00000000
00000000
00000000
00000000
,
00000000
00000000
00000000
00000000
00000000
00000000
00000001
00000010
,
00000100
00000100
00010000
00001000
01000000
00100000
01000000
00100000
,
10000000
10000000
00010000
00010000
,
00100000
00100000
00001000
00001000
,
00010000
00010000
00000100
00000100
,
00000110
00001100
00001010
00011000
,
01010000
01000000
00100000
01000000
00100000
01000000
10000000
01000000
10000000
01000000
00010000
01000000
00010000
10000000
00010000
10000000
,
00010000
00100000
00001000
00010000
00001000
00010000
00000001
00000100
00000001
00000100
00000010
00001000
00000010
00001000
00000001
00000100
,
00000001
00000100
00000000
00001000
00000010
00001000
00000001
00001000
00000001
00001000
00000100
00010000
00001000
00010000
00001000
00010000
,
00100000
00000000
01000000
00000000
10000000
00000000
01000000
00000000
00100000
00000000
00001000
00000000
00001000
00000000
00001000
00000000
00001000
00000000
00001000
00010000
00001000
00000000
00010000
00000000
00000100
00000000
00001000
00000000
00000100
00000000
00001000
00000000
,
00000010
00000000
00000010
00000000
00000010
00000000
00000010
00000100
00000010
00000000
00000100
00000000
00000001
00000000
00001000
00000000
00000100
00000000
00010000
00000000
00010000
00000000
00010000
00000000
00010000
00000000
00010000
00000000
00010000
00000000
00001000
00000000
,
01000000
00001000
00010000
00000100
00000100
00000100
00000100
00000100
00000100
00001000
00000010
00001000
00000100
00000010
00000001
00000100
,
00000010
00001000
00000001
00000010
00000100
00001000
00000100
00010000
00001000
01000000
00000000
00000000
00000000
10010000
00000000
00000000
,
00000000
01000000
00000000
00000000
00000000
00010000
00100000
01000000
10000000
00100000
00000000
01000000
00000000
00100000
00000000
01000000
,
00000000
00100000
00000000
01000000
00000000
00010000
00100000
00001000
00010000
00000100
00001000
00000010
00001000
00000100
00000010
00000100
,
00001000
00000001
00001000
00000100
00000010
00000001
00000100
00000010
00001000
00000100
00000000
00010000
00000000
00001000
00000000
01000000
,
00000000
00010000
00000000
10000000
00000000
00100000
01000000
00010000
00100000
01000000
00000000
10000000
00000000
00010000
00000000
10000000
,
00000000
00100000
00000000
01000000
00000000
00010000
00100000
00001000
00010000
00000100
00000000
00000010
00000000
00000001
00000000
00000100
,
00000000
00000001
00000010
00000100
00000000
00000010
00000100
00001000
00000100
00000010
00000000
00000100
00000000
00010000
00000000
00001000
,
00000000
01000000
00010000
01000000
00000000
00100000
10000000
01000000
10000000
00100000
00000000
01000000
00000000
00010000
00000000
10000000
,
00000000
00010000
00000000
00100000
00000000
01000000
10000000
00100000
01000000
00010000
00000000
00100000
00000000
00001000
00000000
00010000
,
00000000
00000100
00000000
00001000
00000000
00000010
00001000
00000100
00000010
00000001
00000000
00000100
00000000
00000001
00000010
00000100
,
00001000
00000010
00000000
00000100
00000000
00000001
00001000
00000100
00001000
00000010
00000000
00000101
00000000
00000010
00000000
00000101
,
00000000
00000010
00000000
00001001
00000000
00000010
00001000
00000100
00001000
00000010
00000000
00001001
00000000
00000010
00000000
00001001
,
00000000
00000010
00000000
00000100
00000000
00000001
00000010
00000100
00001000
00000100
00000000
00000100
00000000
00010000
00000000
00010000
,
00000000
00001000
00000000
00001000
00000000
01000000
00100000
01000000
00010000
01000000
00000000
00100000
00000000
10000000
00000000
01000000
,
00000000
00210000
00000000
00000000
00000000
01300000
00000000
00000000
11000000
00000000
00100000
00000000
11000000
00000000
00100000
00000000
,
11000000
00100000
00100000
01010000
01010000
00001000
01010000
00001000
,
00000000
00000000
00011000
00000000
00011000
00000000
00000000
00000000
00000210
00000000
00000000
00000000
00000000
00000002
00000000
00000000
,
00000303
00000000
00000000
00000000
00000020
00000000
00000000
00000000
00000000
00000000
00000000
00000000
00000000
00000000
00000000
00000000
00000000
00000000
00000000
00000000
00000000
00000000
00000000
00000000
00000000
00000000
00000000
00000000
00000000
00000000
00000000
00000000
00000030
00000000
00000000
00000000
00000000
00000000
00000000
00000000
00000000
00000000
00000200
00000000
00000000
00000000
00000000
00000000
00000000
00000000
00000000
00000000
00000000
00000000
00000000
00000000
00000000
00000000
00000000
00000000
00000000
00000000
00000000
00000000
00000000
00000000
00000000
00000000
00000000
00000000
00000000
00000000
00000000
00000000
00000000
00000000
00000000
00000000
00000000
00000000
00000000
00000300
00000000
00000000
00000000
00000000
00000000
00000000
00000000
00000000
00000000
00000000
00000000
00000000
00000000
00000000
00001100
00000000
00000000
00000000
00000000
00000000
00000000
00000000
00000000
00000000
00000000
00000000
00000000
00000000
00000000
00000000
00000000
00000000
00000000
00000000
00000000
00000000
00000000
00000000
00000100
00000000
00000000
00000000
00000000
00000000
00000000
00000000
00000000
00000000
00000000
00000000
00000000
00000000
00000000
00000000
00000000
00000000
00000000
00000000
00000000
00000000
00000000
00000000
00001000
00000000
00000000
00000000
00000000
00000000
00000000
00000000
00000000
00000000
00000000
00000000
00000000
00000000
00000000
00000000
00000000
00000000
00000000
00000000
00000000
00000000
00000000
00000000
00000010
00000000
00000000
00000000
00000000
00000000
00000000
00000000
00000000
00000000
00000000
00000000
00000000
00000000
00000000
00000000
00000000
00000000
00000000
00000000
00000000
00000000
00000000
00000000
,
00000100
00000001
00000100
00000001
00002000
00020000
00000000
00000000
,
00000000
00000000
00033000
00000000
01000000
00100000
10000000
00010000
,
01000000
00000000
00100000
00000000
10000000
00100000
01000000
00010000
00100000
00000000
00001000
00000000
00010000
00000000
00000100
00000000
,
00001000
00000000
00000010
00000000
00000100
00000001
00001000
00000100
00001100
00000000
00000010
00000000
00001100
00000000
00000010
00000000
,
00001001
00000000
00000010
00000000
00000001
00001000
00000010
00000100
00000101
00000000
00000010
00000000
00000101
00000000
00000010
00000000
,
00000101
00000000
00001000
00000000
00000100
00010000
00001000
00100000
00010000
01000000
00010000
10000000
00010000
10000000
00010000
10000000
,
00010000
10000000
00010000
10000000
00010000
10000000
00010000
10000000
00100000
10000000
00100000
10000000
00100000
10000000
00100000
10000000
,
00100000
10000000
00100000
10000000
00100000
00000000
01000000
00000000
00020000
00000000
00100000
00000000
00000000
00000000
00100000
00000000
,
00000000
00130000
00001000
00010000
00000200
00001000
00000000
00001000
,
00000000
00000000
00001300
00000000
00000010
00000000
00000100
00000000
00000001
00000010
00000100
00001000
00000001
00000010
00000100
00001000
,
00000001
00000010
00000100
00001000
00000001
00000010
00000100
00010000
00001000
01000000
00001000
01000000
00001000
01000000
00001000
01000000
,
00001000
01000000
00001000
01000000
00010000
00000000
00000000
00000000
01000000
00100000
01000000
00100000
01000000
00100000
01000000
00100000
,
01000000
00100000
01000000
00100000
10000000
00000000
00000000
00000000
00100000
00000000
01000000
00000000
00010000
00000000
01000000
00000000
,
00100000
00000000
01000000
00000000
00010000
00000000
01000000
00000000
00010000
00100000
00010000
01000000
00010000
00100000
00010000
01000000
,
00010000
00100000
00010000
01000000
00100000
10000000
01000000
10000000
00010000
00100000
00010000
01000000
00010000
00100000
00010000
01000000
,
00010000
00100000
00010000
01000000
00100000
10000000
01000000
00100000
00001000
00010000
00001000
00010000
00001000
00010000
00001000
00010000
,
00001000
00010000
00001000
00010000
00000100
00000000
00000000
00000000
00001000
00000100
00001000
00000100
00001000
00000100
00001000
00000100
,
00001000
00000100
00001000
00000100
00000010
00000000
00000000
00000000
00000001
00000000
00000010
00000000
00000001
00000000
00000100
00000000
,
00000001
00000000
00000010
00000000
00000100
00000000
00001000
00000000
00000010
00001000
00000100
00001000
00000010
00001000
00000100
00001000
,
00000010
00001000
00000100
00001000
00000010
00000100
00000001
00000100
00000010
00001000
00000100
00001000
00000010
00001000
00000100
00001000
,
00000010
00001000
00000100
00001000
00000010
00000100
00000001
00001000
00000010
00000000
00010000
00000000
00010000
00000000
00010000
00000000
,
00010000
00001000
00010000
00000000
00000100
00001000
00000010
00000100
00000001
00000000
00000010
00000000
00000010
00000000
00000010
00000000
,
00000010
00000100
00000010
00000000
00000100
00010000
00001000
01000000
00010000
00000000
10000000
00000000
10000000
00000000
10000000
00000000
,
10000000
00000000
10000000
00000000
10000000
01000000
00100000
01000000
10000000
00000000
00100000
00000000
00100000
00000000
00100000
00000000
,
00100000
00000000
00100000
00000000
01000000
00010000
10000000
01000000
00100000
00000000
00001000
00000000
00010000
00000100
00001000
00000010
,
00000100
00000000
00000001
00000000
00000010
00000100
00010000
00001000
00020000
00000000
00000000
00000000
00000000
00000000
00000000
00000000
,
00000000
00000000
00000000
00000000
00031000
00010000
00000100
00010000
00001000
00100000
00001000
00010000
00001000
00100000
00001000
00010000
,
00001000
00100000
00001000
00010000
00001000
00100000
00010000
01000000
00200000
00000000
00000000
00000000
00000000
00000000
00000000
00000000
,
10300000
00000000
00010000
00000000
01000000
00100000
10000000
00010000
02000000
00000000
00000000
00000000
00000000
00000000
00000000
00000000
,
03010000
00000000
00100000
00000000
01000000
10000000
00010000
01000000
00100000
10000000
00000000
00000000
00100000
10000000
00000000
00100000
,
01000000
00100000
01000000
00010000
00000000
00100000
00010000
00100000
00010000
00100000
00000000
00001000
00010000
00000000
00001000
00010000
,
00001000
00010000
00000000
00001000
00010000
00000100
00010000
00000100
00000000
00001000
00000000
00000100
00001000
00000100
00001000
00000100
,
00000000
00010000
00001000
00010000
00001000
00000000
00010000
00000100
00010000
00001000
00010000
00000100
00010000
00000000
00001000
00010000
,
00000000
00001000
01000000
00000000
00010000
00000000
01000000
00200000
00000000
10300000
01000000
00000000
00000000
00000000
00000000
00100000
,
00001000
00000000
00010000
00001000
01000000
00001000
00010000
00000100
00020000
00000000
00000000
00000000
00030200
00000000
00000000
00000000
,
00000302
00002003
00003010
00000001
,
00000100
00000010
00001000
00000100
,
00010000
00001000
01000000
00010000
00100000
00000000
01000000
00000000
,
10000000
00100000
01000000
00010000
,
10000000
00100000
01000000
00010000
00100000
00000000
01000000
00000000
,
10000000
00010000
10000000
00100000
,
01000000
00010000
10000000
01000000
00200000
00000000
00000000
00000000
,
00000000
00000000
00000000
00000000
00310000
00000000
00000000
00000000
01000000
00001000
00000000
00010000
00000100
00000000
00000010
00000000
,
00001001
00000000
00000000
00000000
;
