#TITLE:Satiric Dances;
#SUBTITLE:(Mvt.3);
#ARTIST:Dello Joio vs. MMM Classical;
#TITLETRANSLIT:;
#SUBTITLETRANSLIT:;
#ARTISTTRANSLIT:;
#GENRE:;
#CREDIT:;
#MENUCOLOR:;
#METERTYPE:DDR;
#BANNER:satiricdancesmovement3c.png;
#BACKGROUND:satiricdancesmovement3b.png;
#LYRICSPATH:;
#CDTITLE:ddrencorecdtitle.png;
#MUSIC:Satiric Dances (Mvt.3).mp3;
#OFFSET:-0.039;
#SAMPLESTART:24.700;
#SAMPLELENGTH:14.240;
#SELECTABLE:YES;
#LISTSORT:;
#DISPLAYBPM:165.000;
#BPMS:0.000=165.320,132.000=82.660,134.000=70.470,135.875=165.320;
#STOPS:;
#BGCHANGES:;
#ATTACKS:;

//---------------dance-single - ----------------
#NOTES:
     dance-single:
     :
     Hard:
     9:
     0.696,0.696,0.249,0.219,0.085:
0000
0000
0000
0000
,
0000
0000
0000
0000
0000
0000
0001
0100
,
1000
0100
0001
0010
0100
0010
0001
0010
,
0100
0100
1000
1000
0001
0001
0100
0100
,
0010
0010
1000
1000
0100
0010
0001
1000
,
0100
0011
0100
0011
,
0100
0000
1010
0000
0100
0000
1000
0001
,
0200
0000
0000
0000
0010
0000
0000
0000
1000
0000
0000
0000
0310
0100
0010
0100
,
0020
0000
0000
0000
1000
0000
0000
0000
1000
0000
0000
0000
0130
0001
0100
0000
,
0001
1000
0001
0000
0010
0001
0010
0000
0001
1000
0001
0000
0010
0001
0010
0000
,
0200
0000
0000
0000
0001
0000
0000
0000
1000
0000
0000
0300
0100
1000
0100
1000
,
0200
0000
0000
0000
0001
0000
0000
0000
0010
0000
0000
0000
1300
0010
1000
0010
,
1000
0100
0100
0010
0001
0010
0100
1000
,
0010
1000
0010
1000
0001
0100
0010
1000
,
0100
0010
0001
0010
0001
1000
0100
1000
,
0001
0100
0010
0100
0001
1000
0100
0010
,
0001
1000
1000
0001
1000
0100
1000
0001
,
0202
0303
2002
3003
,
1000
0010
1000
0010
0100
0010
0100
0010
,
0001
0010
0100
0010
1000
0010
0100
0010
,
1000
0100
0010
0100
0001
0100
0010
0100
,
1000
0001
0100
0001
1000
0001
0100
0001
,
1000
0010
1000
0010
0100
0001
1000
0100
,
0010
0001
0010
0001
1000
0100
0010
0001
,
0100
0010
0100
0010
0100
0001
1000
0010
,
0100
0001
0010
0001
0100
0010
1000
0100
,
0010
0001
1000
0100
0010
0100
1000
0001
,
0010
1100
0010
1001
,
0010
0101
0010
1001
,
1000
1000
0010
0010
0100
0100
0001
0001
,
1000
0100
0010
0001
1200
0000
0310
0000
,
0011
0000
1001
0000
0101
0000
0000
1100
,
0101
0000
1001
0000
0000
0010
0010
0000
,
1200
0000
0000
0000
0000
0320
0000
0000
0032
0000
0000
0200
0000
0000
0000
0303
,
1001
0100
0001
0010
0001
0010
0001
0010
,
0100
2000
0000
0000
3001
0010
0100
1000
,
0001
0100
0010
1000
0010
0100
0001
0100
,
0010
1000
0010
0100
0001
0100
0010
1000
,
0001
0010
0100
1000
0100
0010
0001
0010
,
0100
1000
0100
0010
0001
0010
0100
1000
,
0001
0200
0000
0000
0000
0000
0000
0000
,
0320
0000
0000
0000
0000
0000
1030
0100
,
0020
0000
1000
0000
0001
0000
0130
1000
,
0002
0000
0100
0000
0013
0001
0100
0010
,
1000
0100
0001
0100
1000
0100
0001
0100
,
2000
0100
0100
0100
0100
0100
3100
0000
,
0002
0100
0100
0100
0100
0100
0103
0000
,
0010
1000
0100
1000
0010
1000
0100
1000
,
1000
0010
0100
0001
0010
0100
1000
0001
,
0100
0010
1000
0001
0010
0100
1000
0001
,
0100
0010
0100
0010
1000
0010
0100
0001
,
1000
0001
1000
0001
1000
0100
0010
0001
,
0010
0100
0010
0100
1000
0100
0010
0001
,
1000
0100
1000
0100
0001
0100
1000
0001
,
0100
0010
1000
0100
0010
0100
1000
0001
,
0010
0000
1001
0000
0010
0000
0100
1000
,
0010
0100
0010
0000
1000
0100
1000
0000
0001
0100
0001
0000
0010
0001
0010
0000
,
0100
0100
1000
1000
0001
0001
0100
0100
,
0010
0010
1000
1000
0100
0100
0010
0010
,
1001
0000
0000
0000
,
0002
0000
0100
1000
,
0010
0010
0100
0103
,
0011
0010
0100
1000
0100
0010
0001
1000
,
0100
0001
0100
1000
0010
0100
1000
0100
,
0110
0010
1000
0001
0100
1000
0100
1000
,
0200
0001
1000
0310
,
1010
1001
1100
0000
;

//---------------dance-single - ----------------
#NOTES:
     dance-single:
     :
     Easy:
     6:
     0.423,0.597,0.259,0.399,0.000:
0000
0000
0000
0000
,
0000
0000
0000
0000
,
1000
1000
0100
0100
,
0010
0001
0100
0010
,
1000
0001
0100
0010
,
0200
0000
0001
0300
,
2000
0000
0100
3000
,
0020
0000
0000
0031
,
2000
0000
0000
3010
,
0100
1000
0100
0001
,
2000
0000
0000
3100
,
0020
0000
0000
0031
,
1000
0000
0100
0000
1000
0100
1000
0000
,
0001
0000
0100
0000
0001
0100
0001
0000
,
1000
0000
0010
0000
1000
0010
1000
0000
,
0001
0000
0010
0000
0001
0010
0001
0000
,
0100
0000
0010
0000
0100
0010
0100
0000
,
0002
0003
2000
3000
,
0002
0100
0100
0103
,
0010
1000
0010
0000
1000
0000
0001
0000
,
0100
0000
0010
0000
0100
0000
0001
1000
,
0001
0000
0010
0000
0100
0000
1000
0001
,
2000
0100
3100
1000
,
0002
0100
0103
0001
,
1000
0001
1000
0001
,
0010
0100
1000
0001
,
0010
0100
1000
0001
,
0100
0100
0010
0010
,
0100
0100
0010
0010
,
2000
3020
0230
0302
,
1003
0001
1200
0310
,
0100
0000
0100
0000
0100
0000
0000
1000
,
1000
1000
0000
0000
,
2002
0000
0000
3003
,
0001
0001
0100
1000
,
0100
0100
1000
0100
,
0001
0000
0000
0000
,
0000
0000
0000
0000
,
1001
1001
0110
0110
,
1001
1001
0110
0110
,
2002
0000
0000
0003
,
0020
0000
0000
0000
3030
0000
1000
0100
,
0010
0100
1000
0001
,
1000
0100
0010
0001
,
0200
0320
0230
0320
,
1030
0100
1000
1100
,
0001
0100
0001
0101
,
0001
0000
0100
0000
0010
0000
1000
0001
,
1000
0000
0100
0000
0010
0000
0001
1000
,
0001
0000
0010
0000
0100
0000
1000
0001
,
1000
0100
0001
0011
,
0001
0100
1000
1010
,
1000
0001
0110
1001
,
0100
0010
0110
1001
,
0010
0101
0010
0100
,
1001
0100
0010
1000
,
0001
0100
0010
1000
,
0200
2300
3002
0203
,
0320
2030
3200
0320
,
0031
0000
0000
0000
,
2000
0000
0100
0010
,
0200
0000
0000
3300
,
1002
0103
0010
0100
,
1000
0100
0001
0010
,
0110
0010
0002
2003
,
3200
0020
0000
0330
,
0110
1001
0110
0000
;

//---------------dance-single - ----------------
#NOTES:
     dance-single:
     :
     Medium:
     7:
     0.523,0.564,0.528,0.140,0.010:
0000
0000
0000
0000
,
0000
0000
0000
0000
0000
0000
1000
0001
,
1000
0000
0100
0000
0010
0001
0010
0001
,
0100
0010
1000
0100
,
0001
0000
0100
0000
1000
0001
0100
0010
,
1000
0100
0000
0100
0000
0010
0000
0010
,
0000
0001
0000
1000
0000
0001
0000
1000
,
0010
0100
0010
0100
,
0001
0000
1000
0000
0001
1000
0100
0010
,
0001
0100
0010
1000
,
0001
0000
0010
0000
0100
1000
0001
0100
,
0010
0000
1000
0000
0100
0010
0001
1000
,
0100
0000
0010
0000
0001
0100
0010
1000
,
0100
0000
0010
0000
0100
1000
0001
1000
,
0100
0000
0010
0000
0001
0010
0100
0010
,
0001
0000
0100
0000
0001
0010
0100
0010
,
0001
0100
0001
0100
,
0010
1000
0001
0100
,
0000
1001
0000
1001
0000
0110
0000
0110
,
0000
1010
0000
0101
0000
0011
0000
1100
,
0000
0101
0000
0110
0000
1001
0000
0011
,
0000
0110
0000
1001
0000
1100
0000
0110
,
0100
0000
1000
0000
0100
0010
0001
1000
,
0100
0000
0010
0000
0100
1000
0010
0100
,
0001
0000
1000
0000
0001
0010
0100
1000
,
0010
0000
0100
0000
1000
0100
1000
0100
,
0001
0100
0001
0100
,
0000
0101
0000
0101
0000
1100
0000
1100
,
0000
0110
0000
1001
0000
0110
0000
1001
,
0000
0011
0000
0011
0000
1100
0000
1100
,
1000
0100
1000
0100
1100
0000
0011
0000
,
0010
0000
0110
0000
1001
0000
0000
1000
,
0101
0000
0101
0000
0000
0001
0001
0000
,
2000
0000
0000
0000
0000
3200
0000
0000
0320
0000
0000
0200
0000
0000
0030
0000
,
1300
0100
1000
0100
1000
0000
0001
0000
,
0100
0020
0000
0000
0000
0000
0000
0000
,
1030
1000
1000
1000
,
0001
0001
0001
0001
,
0100
0010
0010
0000
1000
0001
0001
0000
,
0010
0100
0100
0000
1000
0001
0001
0000
,
0100
0020
0000
0000
0000
0000
0000
0000
,
2030
0000
0000
0000
0000
0000
3001
1000
,
0020
0000
0100
0000
1000
0000
0130
0001
,
2000
0000
0100
0000
3010
0100
0001
1000
,
0100
0010
0100
0010
0100
0010
0100
0010
,
0001
1000
0000
1000
0000
1000
0000
1010
,
0000
0100
0000
0100
0000
0100
0000
1100
,
0000
0001
0000
1000
0000
0001
0101
0000
,
0000
0010
0000
0100
0000
0010
0110
0000
,
0000
1000
0000
0100
0000
1000
1100
0000
,
0000
1000
0000
0001
0000
0100
0000
0101
,
0000
0001
0000
1000
0000
0010
0000
0011
,
0000
0010
0000
0100
0000
1000
0000
0101
,
0000
0100
0000
0010
0000
1000
0000
0101
,
0000
0001
0000
1000
0000
0010
0000
0110
,
0000
1000
0000
0100
0000
1100
0000
1100
,
0000
0001
0000
0100
0000
0101
0000
0101
,
0000
2000
0000
0100
0000
0100
0000
3100
,
0010
0002
0000
0100
0000
0100
0000
0103
,
0001
0000
0000
0000
,
2000
0000
0100
0010
,
0002
0000
0000
3003
,
1001
0000
0100
0010
1000
0000
0100
0010
,
0001
0000
1000
0010
0001
0000
0010
0000
,
1000
0100
0010
0001
1000
0100
1000
0100
,
2000
0010
3001
0110
,
1001
0110
1001
0000
;

//---------------dance-single - ----------------
#NOTES:
     dance-single:
     :
     Beginner:
     2:
     0.194,0.331,0.120,0.010,0.000:
0000
0000
0000
0000
,
0000
0000
0000
0000
,
0000
0000
0000
0000
,
0000
0000
0000
0000
,
0000
0000
0000
0000
,
0000
0000
0000
0000
,
0000
0000
0000
0000
,
0001
0000
0000
0100
,
0100
0000
0000
0010
,
0010
0010
0010
0010
,
0010
0000
0000
1000
,
1000
0000
0000
0001
,
0001
0000
0000
0000
,
0100
0000
0000
0000
,
0010
0000
0000
1000
,
1000
0000
0000
0001
,
0001
0000
1000
0000
,
0010
0000
0100
0000
,
0010
0000
0000
1000
,
1000
1000
1000
1000
,
1000
0000
0000
0001
,
0001
0000
0000
0100
,
0100
0000
0000
0000
,
0010
0000
0000
0000
,
1000
0000
0000
1000
,
1000
0000
0000
0001
,
0001
0000
0010
0000
,
0100
0000
1000
0000
,
0001
0000
0100
0000
,
0010
0010
0010
0010
,
0010
0000
1001
0000
,
1000
1000
1000
0000
,
0001
0001
0000
0000
,
0200
0000
0000
0000
,
0300
0000
1000
0000
,
0001
0000
1000
0000
,
0010
0000
0000
0000
,
0000
0000
0000
0000
,
0100
0000
0100
0000
,
0001
0000
0001
0000
,
1000
0000
0000
0000
,
0010
0000
0000
0100
,
0100
0000
0000
0010
,
0010
0000
0000
1000
,
1000
0000
0000
0000
,
0001
0000
0000
0010
,
0010
0000
0000
0100
,
0100
0100
0100
0100
,
0100
0000
0000
1000
,
1000
0000
0000
0001
,
0001
0000
0100
0000
,
0010
0000
1000
0000
,
0001
0000
0000
0010
,
0010
0000
0000
0100
,
0100
0000
1000
0000
,
0010
0000
0000
1000
,
1000
1000
1000
1000
,
1000
0000
0001
0001
,
0001
0000
0100
0100
,
0100
0000
0000
0000
,
0010
0000
0100
0100
,
0100
0000
0001
0000
,
1001
0000
0110
0000
,
1001
0000
0110
0000
,
1001
0000
0110
0000
,
0110
0000
1001
0000
,
0110
0110
0110
0000
;

//---------------dance-double - ----------------
#NOTES:
     dance-double:
     :
     Hard:
     9:
     0.691,0.762,0.349,0.219,0.120: // measure 1
00000000
00000000
00000000
00000000
,  // measure 2
00000000
00000000
00000000
00000000
00000000
00000000
00100000
01000000
,  // measure 3
10000000
00010000
01000000
00100000
00010000
00100000
00010000
00100000
,  // measure 4
01000000
01000000
00001000
00001000
00010000
00010000
00000100
00000100
,  // measure 5
00001000
00001000
00010000
00010000
00100000
01000000
10000000
00010000
,  // measure 6
10010000
00000000
00000000
00000000
,  // measure 7
00000000
00000000
00000000
00000000
,  // measure 8
00011000
00000000
00000000
00000000
00100000
00000000
00000000
00000000
00001000
00000000
00000000
00000000
00010000
00001000
00010000
00001000
,  // measure 9
00010000
00000000
00000000
00000000
00000010
00000000
00000000
00000000
00001000
00000000
00000000
00000000
00000100
00000010
00000100
00000000
,  // measure 10
00000010
00000001
00000010
00000000
00000100
00000010
00000100
00000000
00001000
00000100
00001000
00000000
00000001
00001000
00000010
00000000
,  // measure 11
00000100
00000000
00000000
00000000
00000010
00000000
00000000
00000000
00010000
00000000
00000000
00000000
00001000
00010000
00001000
00010000
,  // measure 12
00100000
00000000
00000000
00000000
01000000
00000000
00000000
00000000
00010000
00000000
00000000
00000000
01000000
00010000
01000000
00010000
,  // measure 13
01000000
00100000
10000000
00010000
00100000
00001000
00010000
00000010
,  // measure 14
00000100
00000001
00000100
00000010
00001000
00000100
00001000
00000000
,  // measure 15
00000100
00010000
00000100
00010000
00001000
01000000
00001000
00000000
,  // measure 16
01000000
00100000
01000000
00100000
10000000
00010000
10000000
01000000
,  // measure 17
00100000
00001000
00100000
00001000
00010000
00001000
00010000
00001000
,  // measure 18
00000020
00000000
00000002
00000030
,  // measure 19
00001003
00000100
00000010
00000100
00001000
00000100
00000010
00000100
,  // measure 20
00010000
00001000
01000000
00001000
00010000
00001000
01000000
00001000
,  // measure 21
00010000
01000000
00100000
00010000
10000000
00100000
01000000
00010000
,  // measure 22
10000000
01000000
00010000
01000000
10000000
00100000
01000000
00010000
,  // measure 23
00100000
00001000
00010000
00001000
00010000
00000100
00000010
00000000
,  // measure 24
00000001
00000010
00000001
00000100
00000010
00001000
00000100
00000000
,  // measure 25
00010000
00001000
00100000
00010000
01000000
10000000
01000000
00010000
,  // measure 26
00100000
01000000
10000000
00100000
00010000
00100000
10000000
01000000
,  // measure 27
00100000
00001000
00010000
00000010
00001000
00000100
00000010
00000001
,  // measure 28
00000100
00001010
00000000
00001010
00000000
00001100
00000000
00001100
,  // measure 29
00000000
00110000
00000000
00110000
00000000
01010000
00000000
01010000
,  // measure 30
01000000
01000000
00100000
00100000
10000000
10000000
01000000
01000000
,  // measure 31
10000000
00000000
00010000
00000000
01000000
00000000
00001000
00000000
00021000
00000000
00000000
00030000
00001010
00000000
00000000
00000000
,  // measure 32
00000101
00000000
00001100
00000000
00010100
00000000
00000000
01001000
,  // measure 33
00110000
00000000
01001000
00000000
00000000
10000000
10000000
00000000
,  // measure 34
00020000
00000000
00000000
00000000
00000000
00230000
00000000
00000000
00302000
00000000
00000000
00003020
00000000
00000000
00000000
00000000
,  // measure 35
00000130
00000010
00000001
00000010
00000100
00001000
00000100
00001000
,  // measure 36
00010000
00200000
00000000
00000000
00000000
00000000
00000000
00300000
,  // measure 37
00010000
01000000
00100000
10000000
00010000
00100000
00001000
00010000
,  // measure 38
00000100
00001000
00000010
00000100
00000001
00000010
00000100
00001000
,  // measure 39
00001000
00000010
00000100
00000001
00001000
00000100
00010000
00001000
,  // measure 40
00100000
00010000
01000000
00100000
10000000
01000000
00100000
00010000
,  // measure 41
10000000
00020000
00000000
00000000
00000000
00000000
00000000
00000000
,  // measure 42
00230000
00000000
00000000
00000000
00000000
00000000
01300000
00100000
,  // measure 43
00010000
00110000
00000000
01001000
00000000
00110000
00000000
01001000
,  // measure 44
00000000
00010100
00000000
00001010
00000000
00010100
00000000
00001010
,  // measure 45
00000010
00001000
00000010
00000000
00001000
00000010
00001000
00000000
00000100
00001000
00000100
00000000
00001000
00000100
00001000
00000000
,  // measure 46
00000001
00000000
00000100
00000000
00000001
00000000
00000100
00000000
00000010
00000000
00001000
00000000
00000100
00001000
00000100
00001000
,  // measure 47
00000100
00000000
00010000
00000000
00001000
00000000
01000000
00000000
00010000
00000000
00100000
00000000
01000000
00100000
01000000
00000000
,  // measure 48
10000000
01000000
10000000
00000000
00100000
10000000
00100000
00000000
01000000
00010000
01000000
00000000
00100000
01000000
00100000
00000000
,  // measure 49
01000000
00001000
00010000
00000100
00001000
00000100
00010000
00001000
,  // measure 50
01000000
00010000
00100000
00001000
00010000
00000010
00001000
00000000
,  // measure 51
00000100
00000010
00000100
00000010
00000001
00000100
00000001
00000010
,  // measure 52
00000100
00001000
00000100
00001000
00000100
00010000
00001000
01000000
,  // measure 53
00010000
10000000
00010000
10000000
00100000
01000000
00010000
00100000
,  // measure 54
01000000
10000000
01000000
10000000
00100000
01000000
00010000
10000000
,  // measure 55
00010000
00100000
00010000
01000000
00100000
10000000
01000000
00100000
,  // measure 56
00020000
00032000
00003020
00000032
,  // measure 57
00000203
00002300
00023000
00230000
,  // measure 58
01300000
01000000
10000000
10000000
00100000
00100000
01000000
01000000
,  // measure 59
00001000
00001000
00010000
00010000
00000100
00000100
00000010
00000010
,  // measure 60
00001100
00000000
00000000
00000000
,  // measure 61
00022000
00003000
00000010
00032000
,  // measure 62
00010000
00100000
00023000
00030010
,  // measure 63
00000100
00000001
00000010
00000100
00010000
00001000
01000000
10000000
,  // measure 64
01000000
00010000
00100000
00001000
00000010
00000001
00000010
00001000
,  // measure 65
00010000
00100000
01000000
10000000
00100000
01000000
00010000
10000000
,  // measure 66
10010000
00110000
00001100
00000101
,  // measure 67
00000110
00011000
10010000
00000000
;

//---------------dance-double - ----------------
#NOTES:
     dance-double:
     :
     Medium:
     7:
     0.507,0.564,0.279,0.219,0.010:
00000000
00000000
00000000
00000000
,
00000000
00000000
00000000
00000000
,
00010000
00000000
00100000
00000000
00001000
00010000
00001000
00010000
,
00000100
00000100
00001000
00001000
,
00000010
00000000
00000010
00000000
00000100
00000001
00000010
00000100
,
00010000
00001000
00000000
00001000
00000000
01000000
00000000
00010000
,
00000000
10000000
00000000
10000000
00000000
00100000
01000000
00001000
,
00010000
00010000
00000100
00000100
,
00001000
00000000
00001000
00000000
00000010
00000100
00000001
00000010
,
00000100
00010000
00001000
01000000
,
00100000
00000000
10000000
00000000
01000000
00100000
00010000
10000000
,
00100000
00000000
01000000
00000000
00010000
00100000
00001000
00010000
,
00000100
00000000
00001000
00000000
00000010
00000100
00000001
00001000
,
00000010
00000000
00000100
00000000
00000001
00000100
00000010
00001000
,
00000100
00000000
00010000
00000000
00000100
00010000
00001000
00010000
,
00000100
00000000
00010000
00000000
00001000
01000000
00010000
01000000
,
00100000
01000000
00010000
00100000
,
01000000
10000000
00010000
11000000
,
01000000
00000000
10000000
00000000
00010000
10000000
01000000
00100000
,
00001000
00010000
00000010
00000100
,
00001001
00000000
00000010
00000000
00000100
00000001
00001000
00000100
,
00000010
00000000
00000001
00000000
00000100
00000010
00000100
00000001
,
00000010
00000000
00001100
00000000
00000100
00010000
00001000
01000000
,
00010000
00000000
10000000
00000000
00100000
01000000
00010000
00100000
,
00001000
00000000
00011000
00000000
00010000
00000100
00001000
00000010
,
00000100
00000000
00000001
00000000
00000010
00000100
00010000
00001000
,
00100000
00010000
01000000
10000000
,
01000000
00100000
10000000
01010000
,
01000000
00010000
00100000
00001000
,
00010000
00000100
00001000
00000010
,
00000100
00000001
00000100
00000010
00001001
00000000
00000010
00000000
,
00000101
00000000
00000101
00000000
00001100
00000000
00000000
00011000
,
00011000
00000000
00011000
00000000
00000000
00100000
00100000
00000000
,
02000000
00000000
00000000
00000000
00000000
23000000
00000000
00000000
30200000
00000000
00000000
02300000
00000000
00000000
00000000
00000000
,
03001000
00010000
00000100
00001000
,
00000010
00002000
00000000
00000000
00000000
00000000
00000000
00000000
,
00003100
00000100
00000100
00000100
,
00010000
00010000
00010000
00010000
,
00001000
01000000
00100000
10000000
,
01000000
00100000
00001000
00010000
,
00000010
00000200
00000000
00000000
00000000
00000000
00000000
00000000
,
00000302
00000000
00000000
00000000
00000000
00000000
00000013
00000100
,
00002200
00000000
00000000
00000000
00000000
00003300
00000100
00010000
,
00002000
00000000
00000000
00000000
00000000
01003000
00010000
01000000
,
00100000
10000000
00100000
10000000
00100000
10000000
00100000
10000000
,
00010000
01000000
00010000
00000000
10000000
00000000
01010000
00000000
,
00100000
10000000
00010000
00000000
10000000
00000000
10010000
00000000
,
00100000
00010000
00100000
00000000
00001000
00010000
00001000
00000000
,
00000200
00002300
00003020
00000230
,
00000302
00002003
00003020
00000230
,
00000301
00001000
00000100
00000000
00001000
00000000
00001100
00000000
,
00000100
00010000
00001000
00000000
00100000
00000000
00110000
00000000
,
00100000
00001000
00010000
00000000
00000010
00000000
00000110
00000000
,
00000100
00000001
00001000
00000000
00000100
00000000
00001100
00000000
,
00010000
00001000
01000000
00000000
00100000
00000000
10010000
00000000
,
10000000
00010000
00100000
00000000
01000000
00000000
10010000
00000000
,
10000000
00100000
01000000
00000000
00010000
00000000
01010000
00000000
,
01000000
00001000
00010000
00000010
,
00001000
00000100
00010000
00001000
,
00010000
00000000
00000000
00000000
,
00021000
00000000
00000100
00000100
,
00030200
00000010
00000010
00000010
,
00000301
00000100
00000001
00000001
00000100
00000000
00000101
00000000
,
00001000
00000100
00001000
00001000
00000010
00000000
00000110
00000000
,
00010000
00001000
00010000
00001000
01000000
00010000
01000000
00010000
,
20000000
00200000
00000000
30300000
,
11000000
11000000
11000000
00000000
;

//---------------dance-double - ----------------
#NOTES:
     dance-double:
     :
     Easy:
     4:
     0.312,0.298,0.030,0.120,0.000:
00000000
00000000
00000000
00000000
,
00000000
00000000
00000000
00000000
,
00100000
00000000
00001000
00010000
,
00001000
00000000
00010000
00000100
,
00000010
00000001
00000010
00000001
,
00000100
00000000
00000010
00000000
,
00010000
00000000
00001000
00000000
,
01000000
00000000
00010000
00100000
,
01000000
00000000
10000000
00100000
,
10000000
01000000
10000000
01000000
,
00100000
00000000
00001000
00010000
,
00001000
00000000
00010000
00000100
,
00001000
00001000
00000010
00000100
,
00000001
00000001
00000010
00000100
,
00010000
00010000
00001000
00010000
,
00000100
00000100
00000010
00000100
,
00001000
00000010
00000100
00000001
,
00000010
00000000
00000100
00000000
,
00010000
00000000
00001000
00000000
,
01000000
00100000
01000000
00100000
,
10000000
00000000
01000000
00000000
,
00100000
00000000
00001000
00000000
,
01000000
01000000
00100000
10000000
,
01000000
01000000
00100000
00001000
,
00010000
00010000
00000100
00000100
,
00001000
00001000
00000010
00000010
,
00000100
00000001
00000010
00000100
,
00010000
00010000
00001000
00001000
,
00010000
00010000
00001000
00001000
,
00100000
00001000
00010000
00000100
,
00001000
00000010
00000100
00000100
,
00000001
00001000
00001100
00000000
,
00000100
00010000
00000000
00000000
,
00022000
00000000
00000000
00033000
,
01000000
01000000
01000000
01000000
,
00200000
00000000
00000000
00000000
,
10300000
00000000
00000000
00000000
,
00000000
00000000
00000000
00000000
,
00010000
00010000
00100000
00100000
,
00001000
00001000
00010000
00010000
,
00000010
00001000
00000100
00000010
,
00000001
00000100
00000010
00001000
,
00000100
00000000
00000000
00010000
,
00001000
00000000
00000000
01000000
,
00100000
01000000
00100000
01000000
,
00020000
00000000
00000000
00130000
,
00020000
00000000
00000000
00130000
,
00001000
00010000
00000100
00001000
,
00000020
00000000
00000000
00000130
,
00000020
00000000
00000000
00000130
,
00000001
00000001
00000010
00000100
,
00001000
00001000
00000100
00010000
,
00001000
00001000
01000000
00010000
,
10000000
10000000
00100000
01000000
,
00010000
00010000
00100000
00100000
,
00001000
00010000
00001000
00010000
,
00000100
00001000
00000100
00001000
,
00000010
00000010
00000100
00000100
,
00000001
00000001
00001000
00001000
,
00000100
00000000
00000000
00000000
,
00020000
00000000
00032000
00000000
,
02003000
00000000
03200000
00000000
,
10300000
10000000
01000000
00100000
,
00001000
00010000
00000100
00001000
,
00000010
00000100
00000001
00000010
,
00000100
00020000
00000000
00000000
,
00031000
00010000
00011000
00000000
;
