#TITLE:SHIFT;
#SUBTITLE:;
#ARTIST:AKIRA YAMAOKA;
#TITLETRANSLIT:;
#SUBTITLETRANSLIT:;
#ARTISTTRANSLIT:;
#GENRE:;
#CREDIT:;
#MENUCOLOR:;
#METERTYPE:DDR;
#BANNER:SHIFT-1.png;
#BACKGROUND:SHIFT-bg.png;
#LYRICSPATH:;
#CDTITLE:ddrencorecdtitle.png;
#MUSIC:SHIFT.mp3;
#OFFSET:-0.012;
#SAMPLESTART:25.840;
#SAMPLELENGTH:14.770;
#SELECTABLE:YES;
#LISTSORT:;
#BPMS:0.000=130.000;
#STOPS:233.000=0.115
;
#BGCHANGES:;
#ATTACKS:;

//---------------dance-single - ----------------
#NOTES:
     dance-single:
     :
     Hard:
     8:
     0.516,0.515,0.384,0.148,0.157:
0000
0000
0000
0000
,
0000
0000
0000
0000
,
1000
0000
0001
0000
1000
0100
0010
0000
,
0100
0000
0010
0000
0100
0010
0001
0000
,
1000
0000
0001
0000
0100
0010
1000
0000
,
0001
0000
0100
0000
0001
1000
1001
0000
,
0101
0000
0000
0000
1000
0000
0000
0100
0000
0000
1000
0000
0001
0000
0010
0000
,
0001
0000
0100
0000
0010
0000
0000
1000
0000
0000
0001
0000
1001
0000
0000
0000
,
1100
0000
0000
0000
0001
0000
0000
1000
0000
0000
0001
0000
0100
0000
1000
0000
,
0100
0000
0001
0000
1000
0000
1100
0000
0000
0110
0000
0000
0011
0000
0000
0000
,
0001
0100
0010
0200
0000
0001
0301
0000
,
1000
0100
0010
0001
1000
0010
0100
0000
,
0001
1000
0010
2000
0000
0001
3001
0000
,
1000
0100
0010
0001
1000
0010
0110
0000
,
0001
0000
1000
0001
0000
0000
0001
0000
0100
0000
0010
0000
1000
0000
0100
0000
,
0010
0000
0100
0010
0000
0000
0010
0000
0001
0000
1000
0000
1001
0000
0000
0000
,
1000
0000
0010
0100
0000
0100
0010
0000
1000
0000
0100
0000
0010
0000
0001
0000
,
1000
0000
0001
0100
0000
0100
0001
0000
1000
0100
1000
0000
0001
0000
0010
0000
,
0001
1000
0100
1000
0001
0100
0010
1000
,
0001
0100
0000
0102
0000
1003
0000
0000
,
1000
0100
0001
0100
1000
0010
0100
0001
,
0010
0001
0000
1100
0000
0001
1000
0001
,
0101
0000
1010
0000
0001
0100
0001
0000
,
1000
0100
1000
0100
0000
0010
0011
0000
,
0101
0000
1010
0000
0001
0100
0001
0000
,
1000
0001
0000
1000
0001
0000
0100
0000
0100
0000
0010
0000
1001
0000
0000
0000
,
0110
0000
0000
0100
0000
0010
0000
0100
0010
0000
1000
0000
0001
0000
0000
0000
,
0110
0000
0000
1000
0000
0001
0000
1000
0001
0000
0100
0000
0010
0000
0000
0000
,
1000
0000
0100
0000
0010
0000
0100
0000
1000
0100
0010
0000
0001
0000
0100
0000
,
0010
1000
0001
0101
0000
1000
1001
0000
,
0100
0010
1000
0010
2000
0000
0000
0000
,
3002
0000
0203
0000
,
0310
1000
0100
0001
0200
0000
0000
0000
,
2300
0000
3000
0000
,
1001
0001
0100
0010
2000
0000
3001
0000
,
1000
0000
0100
0000
0010
0000
0000
0001
0000
0000
0010
0000
0100
0000
0000
0000
,
0010
0001
1000
0002
0100
0200
0303
0000
,
1000
0000
0010
0000
0100
0000
0000
0001
0000
0000
0100
0000
0010
0000
0100
0000
,
0001
0000
1000
0000
0001
0000
1000
0000
0100
0010
0000
0100
0000
0000
0010
0000
,
0001
1000
0010
0100
0001
0000
0000
0000
,
1000
0000
0010
0000
0100
0000
0001
0000
1000
0100
0000
1000
0000
0000
0100
0000
,
0010
0001
0010
0000
0001
0000
1000
0000
1001
0000
0000
0000
0000
0000
0000
0000
,
0001
0000
0100
0000
0010
0000
0100
0000
0001
1000
0000
0001
0000
0000
1000
0000
,
0100
0010
0001
0100
0010
0100
0010
0000
,
0100
0000
0001
0000
1000
0000
0100
0000
0010
0001
0000
0010
0000
0000
0001
0000
,
0100
0010
1000
0002
2000
0000
3003
0000
,
0011
0000
0000
0000
0000
0000
0000
1100
0000
0000
1001
0000
0000
0000
0101
0000
,
0100
0000
0001
0000
1000
0000
0010
1000
0010
0000
1000
0000
0001
0000
0000
0000
,
2002
3003
2020
3030
,
0110
0000
0000
0000
1001
0000
0000
0000
1000
0000
0100
0000
0010
0001
0010
0001
,
1000
0001
0100
0001
0000
1000
0010
1000
,
0001
0010
0000
1100
0000
0011
0000
1000
,
0100
1000
0010
0100
0000
0001
1000
0001
,
1000
0100
0000
0110
0000
1100
0000
1000
,
0100
0001
0100
1000
0010
0100
0001
1000
,
0010
1000
0000
0101
0000
0011
0000
1000
,
0100
0001
0100
1000
0010
0100
0001
0010
,
0001
1000
0000
0110
0000
1001
0000
0001
,
0101
0000
0000
0000
1010
0000
0000
0000
0000
0000
0110
0000
0000
1001
0000
0000
,
0110
0000
0000
0000
;

//---------------dance-single - ----------------
#NOTES:
     dance-single:
     :
     Medium:
     6:
     0.418,0.438,0.279,0.183,0.039:
0000
0000
0000
0000
,
0000
0000
0000
0000
,
1000
0100
1000
0100
,
0010
0000
0001
0000
1000
0001
1000
0000
,
0001
0100
0001
0100
,
0010
0000
1000
0000
0001
1000
0001
0000
,
1001
0000
1000
0000
0010
0100
0001
0000
,
0010
0001
1000
0000
0001
1000
0001
0000
,
1000
0000
0100
0000
0010
0100
0010
0000
,
0001
0000
1000
0000
0001
0000
1000
0000
0000
1001
0000
0000
0110
0000
0000
0000
,
0100
0010
1000
0100
0000
0000
0010
0100
,
1000
0020
0000
0100
0000
0130
0000
0000
,
1000
0010
0100
0001
0000
0000
0001
1000
,
0100
0020
0000
0001
0000
0031
0000
0000
,
1001
0000
1000
0001
0100
0010
0100
0000
,
0010
1000
0001
0000
0010
0001
1000
0000
,
0100
0010
0001
0010
0001
0000
1000
0000
,
0001
0000
0000
1000
0000
0000
0001
0000
1000
0000
0100
0000
0010
0000
0000
0000
,
0100
0100
0010
0010
0000
0000
0001
1000
,
0001
0100
0000
0110
0000
1001
0000
0000
,
0001
0001
1000
1000
0000
0000
1000
0001
,
1000
0001
0000
1100
0000
0010
0001
0000
,
1000
0001
1000
0000
0001
1000
0100
0000
,
1000
0000
0001
0000
1000
0100
0010
0000
,
0100
0010
0100
1000
0001
1000
0001
0000
,
1000
0000
0000
0001
0000
0000
1000
0000
2002
0000
0000
0000
3003
0000
0000
0000
,
2020
0000
0000
0000
3030
0000
0000
0001
0000
0000
0100
0000
0001
0000
0000
0000
,
0022
0000
0033
0000
1000
0100
1000
0000
,
0110
0000
1001
0000
0100
0010
0100
0000
,
2002
0000
3003
0000
0010
0100
0110
0000
,
0010
1000
0001
0100
0002
0000
0000
0000
,
2003
0000
3020
0000
,
0130
0010
0100
0010
2000
0000
0000
0000
,
3002
0000
0003
0000
,
1000
0100
0010
0001
1000
0000
0001
0000
,
0100
0000
0010
0000
0100
0001
0100
0000
,
0001
0100
0010
1000
0100
0000
0010
0000
,
0001
1000
0001
0000
0100
0010
0100
0100
,
0100
0000
0000
0000
0010
0000
0000
0000
1000
0000
0000
0001
0000
0000
1000
0000
,
0100
1000
0100
0010
0001
0000
0000
0000
,
1000
0000
0000
0000
0010
0000
0000
0000
0100
0000
0000
0001
0000
0000
0100
0000
,
0001
1000
0001
1000
0100
0000
0000
0000
,
1010
0000
0000
0000
0101
0000
0000
0000
0001
0000
0000
1000
0000
0000
0001
0000
,
1000
0001
0100
0010
0100
0000
0000
0000
,
0010
0000
1000
0000
0010
0000
0000
0000
0100
0000
0000
0001
0000
0000
0100
0000
,
0001
1000
0010
0100
0001
0000
0000
0000
,
2002
0000
0000
3003
,
1000
0100
0010
0000
0001
0010
0100
0000
,
0220
0330
2002
3003
,
1100
0011
1010
0101
,
1000
0010
1000
0001
0100
0000
0001
0000
,
1000
0100
0000
0010
0000
0100
1000
0000
,
0010
0100
0001
1000
0001
0000
0100
0000
,
0010
0100
0000
0001
0000
0100
0001
0000
,
1000
0010
1000
0001
0000
0000
0001
0100
,
0010
1000
0000
1001
0000
0110
0000
0000
,
0010
1000
0001
0100
0000
0000
0100
0001
,
1000
0100
0000
0011
0000
1100
0000
0000
,
1001
0000
0000
0000
0110
0000
0000
0000
0000
0000
1001
0000
0000
0110
0000
0000
,
1001
0000
0000
0000
;

//---------------dance-single - ----------------
#NOTES:
     dance-single:
     :
     Beginner:
     1:
     0.130,0.258,0.122,0.000,0.000:
0000
0000
0000
0000
,
0000
0000
0000
0000
,
1000
0000
0000
0000
,
1000
0000
0000
0000
,
0001
0000
0000
0000
,
0001
0000
1000
0000
,
1001
0000
0000
0000
,
1000
0000
0100
0000
,
1000
0000
0000
0000
,
1001
0000
0000
0000
,
0010
0000
0100
0000
,
0010
0000
0000
0000
,
1000
0000
0001
0000
,
1000
0000
0100
0000
,
0110
0000
0000
0000
,
0010
0000
0001
0000
,
1000
0000
0000
0000
,
0001
0000
0100
0000
,
0001
0000
1000
0000
,
0010
0000
0000
0000
,
0100
0000
0001
0000
,
1000
0000
1000
0000
,
1001
0000
0000
0000
,
0100
0000
0000
0000
,
0110
0000
0000
0000
,
0010
0000
0000
0000
,
1000
0000
0100
0000
,
0010
0000
0001
0000
,
1000
0000
0001
0000
,
1000
0000
0001
0000
,
1001
0000
0000
0000
,
0100
0000
0000
0000
,
0010
0000
0000
0000
,
1000
0000
0000
0000
,
0001
0000
1000
0000
,
0100
0000
0010
0000
,
0001
0000
1000
0000
,
0100
0000
0000
0000
,
0010
0000
0100
0000
,
0010
0000
0100
0000
,
1000
0000
0100
0000
,
1000
0000
0000
0000
,
0001
0000
0100
0000
,
0001
0000
0100
0000
,
0010
0000
0100
0000
,
0010
0000
0000
0000
,
0110
0000
0000
0000
,
1000
0000
0001
0000
,
1001
0000
1001
0000
,
0110
0000
0110
0000
,
1001
0000
0000
0000
,
0001
0000
1000
0000
,
0100
0000
0000
0000
,
1000
0000
0001
0000
,
0010
0000
0001
0000
,
1000
0000
0100
0000
,
0010
0000
0001
0000
,
0100
0000
0010
0000
,
0110
0000
0000
0000
,
1001
0000
0000
0000
;

//---------------dance-single - ----------------
#NOTES:
     dance-single:
     :
     Easy:
     4:
     0.284,0.464,0.192,0.236,0.000:
0000
0000
0000
0000
,
0000
0000
0000
0000
,
1000
0000
0001
0100
,
0001
0000
1000
0100
,
1000
0000
0001
0010
,
0001
1000
0010
0100
,
0110
0000
0010
0100
,
0010
1000
0100
0010
,
0001
0000
1000
0001
,
1001
0000
0110
0000
,
0010
1000
0001
1000
,
0200
0000
0310
0000
,
0010
0100
0010
0001
,
2000
0000
3001
0000
,
1000
0010
0100
0001
,
1000
0100
0010
0100
,
0010
0001
0010
0001
,
2002
3003
0220
0330
,
0010
1000
0100
0010
,
0002
2000
0000
3003
,
1000
0001
0100
0010
,
1000
0001
0100
0010
,
0210
0000
0000
0000
,
0302
0000
0000
0000
,
2003
0000
0000
0000
,
3200
0000
0000
0000
,
1300
0100
1000
0000
,
0001
0100
0001
0000
,
1000
0010
0100
0001
,
1000
0100
0020
0030
,
0001
1000
1001
0000
,
0002
0000
2003
0000
,
3010
0100
0110
0000
,
2002
0000
0000
3003
,
1000
0100
0010
0001
,
1000
0100
1000
0100
,
0010
0001
0010
0001
,
1000
0010
0100
0001
,
1001
1000
0010
0100
,
0001
1000
0100
0000
,
0010
0100
0010
0001
,
1000
0010
1000
0000
,
0001
0100
0010
0100
,
0010
1000
0100
0000
,
1000
0100
0010
0001
,
1000
0001
2002
3003
,
0220
0000
0000
0330
,
0100
0010
0100
0010
,
2002
3003
0220
0330
,
1001
1001
1001
1001
,
1001
1000
0100
0010
,
0001
1000
0001
0100
,
0010
0100
0001
1000
,
0100
0010
0100
0000
,
0010
0001
1000
0100
,
1000
0010
0100
0000
,
0001
1000
0001
1000
,
0100
0010
0001
1000
,
1001
2002
3003
0000
,
0110
0000
0000
0000
;

//---------------dance-double - ----------------
#NOTES:
     dance-double:
     :
     Easy:
     4:
     0.256,0.361,0.175,0.122,0.000:
00000000
00000000
00000000
00000000
,
00000000
00000000
00000000
00000000
,
00001000
00010000
00001000
00100000
,
00010000
00100000
00010000
00000000
,
10000000
00100000
10000000
00010000
,
01000000
00010000
00100000
00000000
,
01100000
00000000
00100000
00010000
,
00100000
00001000
00100000
00000000
,
00011000
00000000
00001000
00010000
,
00000100
00001000
00000100
00000000
,
00000010
00000001
00001000
00000000
,
00000010
00000000
00001000
00000000
,
00000001
00000100
00000001
00000000
,
00001000
00000000
00000100
00000000
,
00000110
00000000
00000010
00000001
,
00001000
00000010
00001000
00000000
,
00000110
00000000
00000010
00001000
,
00000100
00001000
00000100
00000000
,
00011000
00000000
00010000
00001000
,
01000000
00000000
00010000
00000000
,
10010000
00000000
10000000
00100000
,
01000000
00000000
00100000
00000000
,
10000000
01000000
00100000
00010000
,
01000000
00100000
01000000
00000000
,
00010000
00100000
00001000
00010000
,
00000100
00000100
00000100
00000000
,
00000220
00000000
00000000
00000330
,
00002002
00000000
00000000
00003003
,
00000001
00001000
00000001
00000000
,
00001000
00000001
00001000
00000000
,
00000010
00000100
00000110
00000000
,
00000010
00000000
00001000
00000000
,
00000100
00010000
00011000
00000000
,
00022000
00000000
00000000
00033000
,
00001000
01000000
01100000
00000000
,
00100000
10000000
01000000
00100000
,
00010000
10000000
10010000
00000000
,
00010000
01000000
00001000
00010000
,
00001000
00010000
00000100
00010000
,
00000100
00001000
00000100
00000000
,
00000010
00000001
00001000
00000010
,
00001000
00000001
00000100
00000000
,
00000001
00001000
00000010
00001000
,
00000100
00001000
00000100
00000000
,
00010000
00000100
00010000
00001000
,
01000000
01000000
01000000
00000000
,
02200000
00000000
00000000
03300000
,
00100000
10000000
00010000
10000000
,
20020000
30030000
02200000
03300000
,
00100000
10000000
01000000
00100000
,
01100000
00000000
00100000
10000000
,
00010000
10000000
00010000
00000000
,
10000000
00000000
00010000
00100000
,
00001000
00010000
00001000
00000000
,
00010000
00000100
00010000
00000100
,
00000010
00000100
00000010
00000000
,
00000001
00000010
00000001
00001000
,
00000010
00000100
00000010
00000000
,
00000110
00002002
00000000
00003003
,
00000110
00000000
00000000
00000000
;

//---------------dance-double - ----------------
#NOTES:
     dance-double:
     :
     Medium:
     5:
     0.393,0.438,0.314,0.227,0.017:
00000000
00000000
00000000
00000000
,
00000000
00000000
00000000
00000000
,
10000000
00100000
10000000
00010000
,
00100000
00000000
00001000
00000000
00010000
00010000
00010000
00000000
,
00001000
00010000
00001000
00010000
,
00000100
00000000
00000010
00000000
00000001
00000001
00000001
00000000
,
00001001
00000000
00000000
00000000
00000010
00001000
00000010
00010000
,
00002000
00100000
00010000
01000000
,
00013000
00000000
00001000
00000000
01000000
00010000
01000000
00100000
,
20000000
00000000
00000000
00000000
00100000
00000000
00100000
00000000
00000000
00010000
00000000
00000000
30010000
00000000
00000000
00000000
,
00010000
01000000
00100000
20000000
00000000
00010000
30010000
00000000
,
10000000
00010000
00000000
01100000
00000000
10010000
00000000
00000000
,
00010000
00100000
00001000
00020000
00000000
00001000
00031000
00000000
,
00010000
00000100
00000000
00001100
00000000
00000011
00000000
00000000
,
00001100
00000000
00001010
00000000
00010000
00000100
00010000
00000000
,
00001000
01000000
00001000
00000000
10000000
00100000
10000000
00000000
,
01010000
00000000
10010000
00000000
10000000
01000000
10000000
00000000
,
00010000
00000000
00000000
00010000
00000000
00000000
00020000
00000000
00000000
00000000
00000000
00000000
10030000
00000000
00000000
00000000
,
00010000
10000000
01000000
00100000
,
00001000
00100000
00000000
00101000
00000000
00011000
00000000
00000000
,
00010000
00000100
00001000
00000100
,
00000010
00000001
00000000
00001100
00000000
00001001
00000000
00000000
,
00000020
00000000
00001000
00000000
,
00000230
00000000
00000001
00000000
,
00000301
00000100
00000010
00001000
,
00000100
00000000
00000000
00010000
00000000
00000000
00000100
00000000
00010000
00000000
00001000
00000000
00010000
00000000
00000000
00000000
,
00220000
00000000
00330000
00000000
00010000
10000000
00010000
00000000
,
20020000
00000000
30030000
00000000
01000000
00100000
01000000
00000000
,
01010000
00000000
10100000
00000000
00010000
01000000
00001000
00000000
,
00011000
00000000
00010100
00000000
00000100
00001000
00000001
00000000
,
00001010
00000000
00000100
00000100
00000100
00000000
00000000
00000000
,
00000020
00000000
00002030
00000000
,
00003001
00000000
00001000
00001000
00001000
00000000
00000000
00000000
,
00000200
00000000
00020300
00000000
,
00031000
00010000
00001000
00010000
00001000
00000000
01000000
00000000
,
00010000
10000000
10010000
00000000
,
10000000
01000000
00100000
00020000
20000000
00000000
30030000
00000000
,
10000000
01000000
00220000
00330000
,
00010000
00100000
00001000
00010000
00001000
00000000
00100000
00000000
,
00001000
00010000
00001000
00010000
,
00000100
00001000
00000100
00001000
00000001
00000000
00000010
00000000
,
00000001
00000100
00000010
00000100
,
00000001
00000100
00000001
00001000
00000010
00000000
00001000
00000000
,
00000100
00001000
00000100
00001000
00000100
00000000
00000000
00000000
,
00010000
00001000
00100000
00001000
00010000
00000000
00001000
00000000
,
01000000
00010000
01000000
00010000
01000000
00000000
00000000
00000000
,
20020000
00000000
00000000
30030000
,
00010000
01000000
00100000
10000000
,
22000000
33000000
00220000
00330000
,
10010000
00000000
01100000
00000000
00010000
01000000
00010000
01000000
,
00010000
00000000
00100000
00000000
00001000
00000000
00010000
00000100
,
00010000
00000100
00000000
00001000
00000000
00000100
00000000
00001000
,
00000100
00000000
00000010
00000000
00000001
00000000
00000010
00000001
,
00000010
00000001
00000000
00001100
00000000
00001001
00000000
00000001
,
00000100
00000000
00000001
00000100
00000000
00000000
00000100
00000001
,
00001000
00000010
00000000
00001000
00000000
00000200
00000000
00000000
,
00010300
00000000
00001000
00100000
00000000
00000000
00100000
00010000
,
10000000
01000000
00000000
00110000
00000000
11000000
00000000
00000000
,
10010000
00000000
00000000
00000000
01100000
00000000
00000000
00000000
00000000
00000000
10010000
00000000
00000000
01100000
00000000
00000000
,
10010000
00000000
00000000
00000000
;

//---------------dance-double - ----------------
#NOTES:
     dance-double:
     :
     Hard:
     8:
     0.501,0.541,0.384,0.131,0.140: // measure 1
00000000
00000000
00000000
00000000
,  // measure 2
00000000
00000000
00000000
00000000
,  // measure 3
00001000
00000000
00000100
00000000
00000010
00000100
00001000
00000000
,  // measure 4
00000100
00010000
00000100
00000000
00100000
00001000
00100000
00000000
,  // measure 5
00010000
00000000
01000000
00000000
00100000
01000000
00010000
00000000
,  // measure 6
10000000
01000000
00100000
00010000
00100000
00001000
00101000
00000000
,  // measure 7
00011000
00000000
00000000
00000000
00010100
00000000
00000000
00000100
00000000
00000000
00010000
00000000
00000100
00000000
00000010
00000000
,  // measure 8
00000001
00000000
00001000
00000000
00000010
00000000
00000000
00001010
00000000
00000000
00001000
00000000
00000100
00000000
00000000
00000000
,  // measure 9
00010100
00000000
00010000
00001000
01000000
00100000
10000000
00010000
,  // measure 10
10000000
00000000
01000000
00000000
00100000
00000000
01100000
00000000
00000000
10010000
00000000
00000000
01100000
00000000
00000000
00000000
,  // measure 11
00100000
10000000
01000000
20000000
00000000
00010000
30010000
00000000
,  // measure 12
00010000
01000000
00100000
01000000
00000000
00001000
00010000
00000000
,  // measure 13
00001000
00010000
00000100
00000020
00000000
00000001
00000031
00000000
,  // measure 14
00001000
00000010
00000000
00010010
00000000
00001100
00000000
00000000
,  // measure 15
00000100
00000000
00010000
00001000
00000000
00001000
00010000
00000000
00001000
00000000
01000000
00000000
00010000
00000000
00000000
00000000
,  // measure 16
10000000
00100000
00010000
00100000
10000000
01000000
00100000
00000000
,  // measure 17
01000000
00000000
00100000
00010000
00000000
00010000
01000000
00000000
00010000
00000000
00100000
00000000
00001000
00000000
00010000
00000000
,  // measure 18
00011000
00000000
00000000
00010100
00000000
00000000
00001100
00000000
00001000
00000001
00001000
00000000
00001001
00000000
00000000
00000000
,  // measure 19
00000010
00001000
00000100
00010000
00001000
01000000
00100000
10000000
,  // measure 20
01000000
00100000
00000000
01100000
00000000
10010000
00000000
00000000
,  // measure 21
10000000
01000000
00100000
00010000
00100000
00001000
00000010
00000001
,  // measure 22
00001000
00000001
00000000
00001100
00000000
00001001
00000000
00000000
,  // measure 23
00002010
00000000
00000001
00000000
00000100
00000100
00000100
00000000
,  // measure 24
00003002
00000000
00000010
00000000
00001000
00001000
00001003
00000000
,  // measure 25
00000010
00010000
00001000
00010000
00000100
00010000
00001000
00000000
,  // measure 26
00010000
00000000
00000000
00001000
00000000
00000000
01000000
00000000
01100000
00000000
01100000
00000000
01100000
00000000
00000000
00000000
,  // measure 27
00100000
00000000
10000000
00100000
00000000
10000000
00000000
00100000
01000000
00000000
00010000
00000000
10000000
00000000
00000000
00000000
,  // measure 28
00010000
00000000
00100000
00001000
00000000
00010000
00000000
00000100
00001000
00000000
00000100
00000000
00000010
00000000
00000000
00000000
,  // measure 29
00000100
00000000
00000010
00000000
00000001
00000000
00001000
00000000
00000010
00000100
00000010
00000000
00001000
00000000
00000001
00000000
,  // measure 30
00001000
00000000
00000001
00000100
00000000
00000001
00000000
00000100
00000001
00000000
00001000
00000010
00001000
00000000
00000000
00000000
,  // measure 31
00000010
00010000
00001000
00010000
00002000
00000000
00000000
00000000
,  // measure 32
02003000
00000000
03200000
00000000
,  // measure 33
10300000
00100000
10000000
00010000
00200000
00000000
00000000
00000000
,  // measure 34
00002000
00000000
00303000
00000000
,  // measure 35
00010000
00100000
00010000
10000000
00100000
00000000
01010000
00000000
,  // measure 36
10000000
00000000
00010000
00000000
01000000
00000000
00000000
00010000
00000000
00000000
01000000
00000000
00010000
00000000
00000000
00000000
,  // measure 37
10000000
10000000
10000000
10000000
20000000
00000000
00000000
00000000
,  // measure 38
30010000
10000000
01000000
00100000
00010000
01000000
00001000
00001000
,  // measure 39
00001000
00000000
00010000
00000000
00001000
00000000
00010000
00000000
00000100
00000000
00000000
00000010
00000000
00000000
00000001
00000000
,  // measure 40
00000010
00000001
00000100
00000010
00001000
00000000
00000000
00000000
,  // measure 41
00000010
00000000
00001000
00000000
00000100
00000000
00010000
00000000
00001000
01000000
00000000
00001000
00000000
00000000
01000000
00000000
,  // measure 42
00010000
10000000
01000000
00100000
00010000
00000000
00000000
00000000
,  // measure 43
00100000
00000000
00010000
00000000
01000000
00000000
00001000
00000000
00010000
00000000
00000000
00000100
00000000
00000000
00001000
00000000
,  // measure 44
00000100
00000010
00000001
00000100
00000001
00000000
00000000
00000000
,  // measure 45
00001000
00000000
00000100
00000000
00000010
00000000
00000100
00000000
00000010
00000001
00000010
00000001
00000000
00000000
00000010
00000000
,  // measure 46
00000001
00000100
00000010
00001000
00001001
00000000
00000000
00000000
,  // measure 47
00000110
00000000
00000000
00000000
00000000
00000000
00000000
00000101
00000000
00000000
00000101
00000000
00000000
00000000
00000001
00000000
,  // measure 48
00002000
00000010
00000100
00003010
,  // measure 49
00002020
00003030
00020020
00030030
,  // measure 50
00011000
00000000
00000000
00000000
01001000
00000000
00000000
00000000
01000000
00000000
00100000
00000000
10000000
00010000
10000000
00010000
,  // measure 51
01000000
00010000
10000000
01000000
00100000
00010000
00100000
00001000
,  // measure 52
00010000
00000100
00000000
00000110
00000000
00001001
00000000
00000001
,  // measure 53
00000100
00000010
00001000
00000010
00000100
00000001
00001000
00000100
,  // measure 54
00010000
00000100
00000000
00011000
00000000
00010100
00000000
00000000
,  // measure 55
00000100
00010000
00001000
00010000
00001000
01000000
00100000
01000000
,  // measure 56
00010000
10000000
00000000
00110000
00000000
11000000
00000000
00000000
,  // measure 57
01000000
00100000
00010000
00100000
00001000
00010000
00001000
00000100
,  // measure 58
00001000
00010000
00000000
00011000
00000000
00010100
00000000
00000000
,  // measure 59
00001100
00000000
00000000
00000000
00000011
00000000
00000000
00000000
00000000
00000000
00001001
00000000
00000000
00000110
00000000
00000000
,  // measure 60
00001001
00000000
00000000
00000000
;
