#TITLE:Robots FTW;
#SUBTITLE:;
#ARTIST:Kelly Bailey;
#TITLETRANSLIT:;
#SUBTITLETRANSLIT:;
#ARTISTTRANSLIT:;
#GENRE:;
#CREDIT:;
#MENUCOLOR:;
#METERTYPE:DDR;
#BANNER:Robots FTW-bn.png;
#BACKGROUND:Robots FTW-bg.png;
#LYRICSPATH:;
#CDTITLE:;
#MUSIC:Robots FTW.mp3;
#OFFSET:-0.006;
#SAMPLESTART:24.000;
#SAMPLELENGTH:19.200;
#SELECTABLE:YES;
#LISTSORT:;
#BPMS:0.000=200.000;
#STOPS:;
#BGCHANGES:;
#ATTACKS:;

//---------------dance-single - ----------------
#NOTES:
     dance-single:
     :
     Hard:
     9:
     0.799,0.790,0.226,0.362,0.267:
0000
0000
0000
0000
,
0000
0000
0000
0000
,
0000
0000
0000
0000
,
0000
0000
0000
0000
,
1000
0000
0000
0010
0000
0000
0100
0000
0010
0000
0000
0000
1000
0000
0100
0000
,
0000
0000
0100
0000
0000
0010
0000
0001
0000
0000
1000
0000
0001
0000
0100
0000
,
0010
0000
1000
0000
0010
0000
0100
0001
,
0000
0000
0001
0000
0000
0010
0000
0000
0100
0000
1000
0000
0010
0000
0100
0000
,
0001
0000
1000
0100
0010
0000
0001
0100
,
0000
0000
0100
0000
0000
0010
0000
1000
0000
0000
0100
0000
0010
0000
0001
0000
,
1000
1000
0001
0010
0010
0100
0010
0001
,
1000
0001
0001
0100
0100
0010
0100
0010
,
1000
0100
0000
0011
0000
1001
0000
0101
,
0000
0010
1000
0100
1000
0001
0100
0010
,
1000
0000
0100
0000
0000
0000
0011
0000
0000
0000
0001
0100
0000
0000
0010
0000
,
0000
0000
1000
0000
0010
0000
0100
0000
0001
0000
1000
0000
0001
0010
0001
0000
,
1000
0010
0000
0101
0000
1001
0000
1100
,
0000
1000
0100
0010
0001
0100
0010
1000
,
0001
0100
0001
0000
0000
0000
1010
0000
0000
0000
1001
0000
0000
0000
0011
0000
,
0000
0000
0100
1000
0100
0000
1000
0001
1000
0000
0010
0000
0100
0000
0001
0000
,
2000
0000
3010
0100
0001
0020
0000
0130
,
2000
0000
0000
0000
3001
0000
0100
0000
0001
0000
0000
0020
0000
0000
0000
0000
,
0230
0000
1300
0001
0200
0000
0010
0000
,
1000
0000
0000
0000
0010
0000
0000
0000
0301
0000
0000
0010
0000
0000
0100
0000
,
2000
0000
3010
1000
0002
0000
0013
0000
,
0200
0000
1300
0100
0020
0000
0031
0000
,
1000
0000
1000
0001
1000
0001
1000
0001
,
0010
0000
0000
0100
0000
0000
0010
0000
0000
0001
0000
0000
1000
0000
0000
0010
0000
0000
0100
0000
0001
0000
1000
0000
,
0200
0000
1300
0100
1000
0001
0010
0001
,
0200
0000
0310
1000
0002
0000
0013
0000
,
0200
1000
0320
0001
,
0032
0000
1000
0000
0103
0010
1000
0010
,
0200
0001
0302
1000
,
2003
0100
3200
0010
,
0320
0001
0032
1000
,
2003
0010
3020
0100
,
0130
0000
0000
0001
0000
0000
0100
0000
0001
0000
0000
1000
0000
0000
0100
0000
,
0000
0000
0100
0000
0000
1000
0000
0001
0000
0000
0100
0000
0010
0000
0000
0000
,
1000
1000
0010
0000
1000
0000
0001
0010
,
0000
0000
0010
0000
0000
0100
0000
0000
1000
0000
0001
0000
0100
0000
0001
0000
,
1000
1000
0010
0000
0010
0000
1000
0001
,
0000
0000
0001
0000
0000
1000
0000
0100
0000
0000
0010
0000
0001
0000
0000
0000
,
0100
0100
0001
1000
1000
0100
0010
0010
,
0001
0000
1000
0000
1000
0000
0001
0000
0100
0010
0100
0010
0100
0000
0001
0000
,
1000
0100
1000
0010
0100
0000
0000
0000
,
0001
0001
0000
0000
0011
0000
0100
1000
,
1000
0000
0010
0010
0100
0001
0000
0000
,
1000
0000
0010
0000
1000
0001
0000
0000
0100
0000
0010
0100
0000
0000
0001
0000
,
1000
0001
1000
0000
0000
0000
0100
0000
0010
0000
0000
0000
0000
0000
0000
0000
,
0001
0001
0000
1000
0000
0010
0010
0100
,
0100
0000
0000
0000
0001
0000
0001
0000
1000
0100
1000
0000
0000
0000
0000
0000
,
0010
0000
0100
0000
0010
0000
0000
0000
1001
0000
1000
0000
0000
0000
0001
0010
,
0100
0000
0100
1000
0000
0000
0001
0000
0100
0000
0000
0000
0000
0000
0000
0000
,
0010
1000
0100
0000
0000
0000
1000
0000
0000
0000
0000
0000
0001
0000
0001
0000
,
0100
0000
0000
0010
0010
1000
0000
1000
,
0000
0000
0001
0000
0010
0000
0000
0000
0001
0000
1000
0001
0000
0000
1000
0001
,
0100
0010
0000
1000
0010
0100
0010
1000
,
0100
0010
0001
1000
0010
1000
0001
0010
,
0100
1000
0000
1010
0000
0100
0001
0010
,
0000
0000
0100
0000
0000
0000
1000
0000
0100
0000
0010
0000
0001
1000
0001
0000
,
0200
0000
0310
1000
0010
0200
0000
0301
,
2000
0000
0000
0000
3100
0000
0010
0000
0001
0000
0000
2000
0000
0000
0000
0000
,
3020
0000
0130
0001
2000
0000
3100
0000
,
1000
0000
0001
0000
1000
0000
0010
0000
0100
0000
0000
0001
0000
0000
1000
0000
,
0200
0000
0310
0001
0200
0000
0301
1000
,
0020
0000
0130
0010
2000
0000
3100
0010
,
0002
0000
0013
0100
1000
0000
0001
1000
,
0001
0000
0100
0000
0001
0000
0000
0000
0100
0000
0010
0000
1000
0010
1000
0010
,
2000
0000
3001
0010
0001
0100
0010
1000
,
0200
0000
1300
0001
0020
0000
0130
0010
,
0002
0000
1003
0010
0200
0000
0301
1000
,
0010
0000
0000
0000
1000
0000
0100
0000
0010
0000
0001
0000
1000
0001
1000
0001
,
0100
0010
0100
0000
0001
0100
0001
0000
,
1000
0010
1000
0000
0001
0010
0001
0000
,
1000
0100
1000
0000
0001
1000
0001
0000
,
0100
0010
0100
0000
0001
0010
0100
0100
,
1000
0000
0000
0010
0000
0000
1000
0000
0010
0000
0000
0100
0000
0000
0001
0000
,
0000
0000
0001
0000
0000
0010
0000
0100
0000
0000
1000
0000
0100
0000
0000
0000
,
1000
0001
1000
0001
0100
0000
0000
0000
0010
0000
0100
0000
0010
0000
1000
0000
,
0000
0000
1000
0000
0000
0100
0000
0000
0010
0000
0001
0000
1000
0000
0000
0000
,
0001
0100
0001
0100
0010
0000
0000
0000
1000
0000
0001
0000
1000
0000
0100
0000
,
0000
0000
0100
0000
0000
0010
0000
0001
0000
0000
1000
0000
0010
0000
0000
0000
,
0100
0100
0001
1000
1000
0100
0010
0010
,
0001
0000
0010
0000
0010
0000
0100
0000
1000
0000
0001
0000
1000
0001
1000
0001
,
1000
0010
0000
0101
0000
0011
0000
0101
,
0000
0010
1000
0100
1000
0001
0100
0010
,
1000
0001
1000
0000
0000
0000
1100
0000
0000
0000
1010
0000
0000
0000
1100
0000
,
0000
0000
1000
0001
1000
0000
0001
1000
0001
0000
1000
0000
0010
0000
0100
0000
,
0001
1000
0000
0101
0000
1010
0000
0101
,
0000
0001
0010
0100
1000
0100
0010
0001
,
1000
0001
1000
0000
0000
0000
1010
0000
0000
0000
0101
0000
0000
0000
1010
0000
,
0000
0000
0100
0001
0100
0000
0010
1000
0010
0000
0100
0000
0001
0000
0010
0000
;

//---------------dance-single - ----------------
#NOTES:
     dance-single:
     :
     Medium:
     7:
     0.539,0.581,0.235,0.462,0.000: // measure 1
0000
0000
0000
0000
,  // measure 2
0000
0000
0000
0000
,  // measure 3
1001
0000
1001
0000
,  // measure 4
1001
0000
1001
0000
,  // measure 5
0001
0100
0001
1000
,  // measure 6
0100
0010
0001
0001
,  // measure 7
1000
0010
0100
0001
,  // measure 8
1000
0100
0010
0010
,  // measure 9
0001
0010
0001
1000
,  // measure 10
0010
0100
0001
0001
,  // measure 11
0100
0010
1000
0001
,  // measure 12
0010
0000
0100
0000
1000
0001
1000
0000
,  // measure 13
0010
0100
0010
1000
,  // measure 14
0100
0010
0001
0001
,  // measure 15
1000
0001
1000
0010
,  // measure 16
0100
0000
0001
0000
0010
0000
0010
0001
,  // measure 17
1000
0010
0100
0001
,  // measure 18
1000
0010
1000
1000
,  // measure 19
0001
0010
0100
1000
,  // measure 20
0001
0000
0100
0000
0010
0000
1000
0100
,  // measure 21
0020
0000
0031
2000
,  // measure 22
3020
0000
0130
0002
,  // measure 23
2003
3100
0200
0000
,  // measure 24
0010
0000
0300
0000
0100
0000
1000
0001
,  // measure 25
2000
3010
0020
0130
,  // measure 26
0200
0301
0002
1003
,  // measure 27
2000
0000
0010
0000
,  // measure 28
0100
0000
3000
0000
1000
0000
0001
0100
,  // measure 29
0002
0000
0010
0000
,  // measure 30
0203
0310
0020
1030
,  // measure 31
2000
3001
0002
0000
,  // measure 32
0100
0003
0001
2000
,  // measure 33
3200
0310
0020
0000
,  // measure 34
0032
1003
2000
0000
,  // measure 35
3020
0130
0200
0301
,  // measure 36
0002
1003
2000
3100
,  // measure 37
0100
0010
0001
1000
,  // measure 38
0001
0100
0010
0010
,  // measure 39
1000
0100
1000
0001
,  // measure 40
0010
0001
1000
1000
,  // measure 41
0010
0100
0001
0100
,  // measure 42
0001
0010
0100
0100
,  // measure 43
1000
0100
0010
0001
,  // measure 44
1000
0000
0001
0000
0100
0010
0100
0000
,  // measure 45
0001
0010
0001
0000
,  // measure 46
1000
0000
0000
0000
0010
0000
0100
0001
,  // measure 47
1000
0000
1100
0000
,  // measure 48
0010
0001
0010
0100
,  // measure 49
1000
0001
1000
0000
,  // measure 50
0001
0000
0100
0010
,  // measure 51
1000
0000
1001
0000
,  // measure 52
0001
0000
0100
0000
0001
0000
1000
0001
,  // measure 53
1000
0010
0100
0000
,  // measure 54
0101
0000
0000
0010
,  // measure 55
1000
0000
0000
0100
0010
0000
0000
0000
,  // measure 56
0001
1000
0001
0100
,  // measure 57
0010
0000
0000
1000
0001
1000
0001
0000
,  // measure 58
0100
0010
1000
0100
,  // measure 59
1000
0001
0010
0001
,  // measure 60
0100
0000
0010
0000
1000
0000
0100
0010
,  // measure 61
0002
0000
0003
0000
0001
1000
0002
0000
,  // measure 62
0203
0000
0310
1000
,  // measure 63
2200
3300
0022
0033
,  // measure 64
0001
0000
0100
0000
0010
0000
1000
0001
,  // measure 65
2000
3010
0020
0130
,  // measure 66
0200
0301
0002
1003
,  // measure 67
2000
3100
0010
0001
,  // measure 68
1000
0000
0001
0000
0100
0000
0010
1000
,  // measure 69
0200
1000
0310
0001
,  // measure 70
0200
0310
0020
1030
,  // measure 71
2000
3001
0002
1000
,  // measure 72
0100
1000
0013
0200
,  // measure 73
2300
3001
0002
0103
,  // measure 74
0200
0310
0020
1030
,  // measure 75
2000
3100
0200
0310
,  // measure 76
0020
0031
0002
1003
,  // measure 77
1001
0001
0100
0001
,  // measure 78
1000
0100
0010
0010
,  // measure 79
0100
0010
0001
1000
,  // measure 80
0001
0100
0010
0010
,  // measure 81
1000
0001
0100
0001
,  // measure 82
1000
0010
0100
0100
,  // measure 83
0001
0010
0001
1000
,  // measure 84
0100
0000
1000
0000
0001
0100
0001
0000
,  // measure 85
1000
0101
1000
0101
,  // measure 86
0001
1100
0001
1100
,  // measure 87
1000
1001
1000
1001
,  // measure 88
0001
1001
0001
1001
,  // measure 89
1000
1010
0000
1100
,  // measure 90
0010
0011
0001
0101
,  // measure 91
0010
1010
1000
1001
,  // measure 92
0001
0011
0001
0101
;

//---------------dance-single - ----------------
#NOTES:
     dance-single:
     :
     Easy:
     4:
     0.357,0.457,0.091,0.362,0.000:
0000
0000
0000
0000
,
0000
0000
0000
0000
,
1000
0000
0001
0000
,
1000
0000
0001
0000
,
0100
0000
0010
0000
,
1000
0000
0001
1000
,
0001
0000
0010
0000
,
0001
0000
0100
0010
,
0100
0000
0010
0000
,
1000
0000
0100
1000
,
0100
0000
0010
0000
,
0001
0000
1000
0000
,
0010
0000
0100
0000
,
0001
0000
1000
0100
,
1000
0000
0001
0000
,
0010
0000
0001
1000
,
0001
0000
0100
0000
,
0010
0000
0100
0001
,
0100
0000
0010
0000
,
1000
0000
0100
0000
,
0010
0000
0010
0001
,
1000
0000
1000
0001
,
0200
0000
0320
0000
,
0100
0000
0130
0001
,
2000
0000
3020
0000
,
2030
0000
3200
0000
,
0320
0000
0001
0000
,
0100
0000
0031
1000
,
0020
0000
1030
0000
,
2000
0000
3002
0000
,
0023
0000
0230
0000
,
0010
0000
1300
0001
,
0200
0000
0320
0000
,
2030
0000
3200
0000
,
2300
0000
3002
0000
,
0023
0000
0032
0000
,
0103
0000
0010
0000
,
1000
0000
0001
1000
,
0001
0000
0010
0000
,
0100
0000
1000
0100
,
1000
0000
0001
0000
,
1000
0000
0010
0100
,
0010
0000
1000
0000
,
0001
0000
0010
0100
,
1000
0000
0001
0000
,
0100
0100
0010
1000
,
0001
0000
1001
0000
,
1000
0010
1000
0000
,
0001
0000
0010
0000
,
0100
0100
0000
1000
,
0001
0000
0101
0000
,
0010
1000
0001
1000
,
0100
0000
0010
0000
,
0001
0001
0000
0100
,
0100
0000
0010
0000
,
1000
0100
1000
0010
,
0100
0000
0001
1000
,
0000
0001
0010
0001
,
0010
0000
0100
0000
,
1000
0001
1000
0010
,
0200
0000
0301
1000
,
0200
0000
0310
0001
,
0020
0000
0230
0000
,
1000
0000
1300
0001
,
0200
0000
0320
0000
,
1030
0001
1000
0100
,
0020
0000
0001
0000
,
0031
0010
0001
1000
,
0020
0000
0130
0001
,
2000
0000
3200
0000
,
0320
0000
0032
0000
,
1000
0000
0103
0010
,
2000
0100
3200
0000
,
0320
0001
0032
0000
,
2003
0001
3002
0000
,
0203
0010
0320
0000
,
1030
0000
0100
0000
,
0010
0000
0001
1000
,
0010
0000
0100
0000
,
0010
0000
1000
0100
,
0010
0000
0001
0000
,
0100
0000
0001
1000
,
0010
0000
0100
0000
,
0001
0000
1000
0001
,
1000
0010
0000
0101
,
0000
0010
0000
0101
,
0000
0001
0000
1100
,
0000
0001
0000
1100
,
0000
0010
0000
1001
,
0000
0010
0000
1001
,
0000
0100
0000
1010
,
0000
0100
0000
0011
;

//---------------dance-single - ----------------
#NOTES:
     dance-single:
     :
     Beginner:
     2:
     0.215,0.291,0.136,0.072,0.000:
0000
0000
0000
0000
,
0000
0000
0000
0000
,
1001
0000
0000
0000
,
1001
0000
0000
0000
,
0001
0000
0100
0000
,
0010
0000
0000
0000
,
1000
0000
0001
0000
,
0010
0000
0000
0000
,
0100
0000
0010
0000
,
0001
0000
0000
0000
,
1001
0000
0000
0000
,
0110
0000
0000
0000
,
1000
0000
0001
0000
,
0010
0000
0000
0000
,
0100
0000
1000
0000
,
0010
0000
0000
0000
,
0100
0000
0001
0000
,
1000
0000
0000
0000
,
0110
0000
0000
0000
,
1001
0000
0000
0000
,
2000
0000
3000
0000
,
0002
0000
0003
0000
,
0010
0000
0100
0000
,
1000
0000
0000
0000
,
0001
0000
0100
0000
,
0001
0000
1000
0000
,
0200
0000
0300
0000
,
0010
0000
0001
0001
,
0002
0000
0003
0000
,
0100
0000
0010
0000
,
1000
0000
0100
0000
,
1000
0000
0001
0000
,
0100
0000
0010
0000
,
1000
0000
0100
0000
,
0010
0000
0001
0000
,
0100
0000
0010
0000
,
0110
0000
0100
0000
,
0001
0000
0000
0000
,
1000
0000
0100
0000
,
0010
0000
0000
0000
,
0001
0000
1000
0000
,
0001
0000
0000
0000
,
1001
0000
0000
0000
,
0110
0000
0000
0000
,
0100
0000
0001
0000
,
0000
0000
1001
0000
,
0001
0000
0010
0000
,
0100
0000
0000
0000
,
1000
0000
0001
0000
,
0100
0000
0000
0000
,
0110
0000
0100
0000
,
0001
0000
1000
1000
,
1000
0000
0100
0000
,
0010
0000
0000
0000
,
1001
0000
0001
0000
,
0000
0000
0100
0000
,
0010
0000
1000
0000
,
0001
0000
0010
0000
,
0001
0000
0100
0000
,
0010
0000
1000
1000
,
2000
0000
3000
0000
,
0200
0000
0300
0000
,
0010
0000
0001
0000
,
1000
0000
0010
0010
,
0010
0000
0100
0000
,
0010
0000
1000
0000
,
0002
0000
0003
0000
,
1000
0000
0100
0100
,
0200
0000
0300
0000
,
0010
0000
0001
0000
,
1000
0000
0001
0000
,
0100
0000
0000
0000
,
0010
0000
1000
0000
,
0010
0000
0100
0000
,
0001
0000
0010
0000
,
0001
0000
1000
0000
,
0010
0000
0100
0000
,
0001
0000
0000
0000
,
1000
0000
0001
0000
,
0010
0000
0000
0000
,
0100
0000
0010
0000
,
0001
0000
0000
0000
,
0110
0000
0000
0000
,
1001
0000
0000
0000
,
0000
1000
0000
0000
,
0000
0001
0000
0000
,
0000
1000
0000
0001
,
0000
1000
0000
0000
,
0000
0010
0000
0000
,
0000
0100
0000
0000
,
0000
0010
0000
0100
,
0000
0010
0000
1001
;

//---------------dance-double - ----------------
#NOTES:
     dance-double:
     :
     Hard:
     9:
     0.791,0.832,0.217,0.000,0.253:
00000000
00000000
00000000
00000000
,
00000000
00000000
00000000
00000000
,
10000000
00000000
00010000
00000000
,
00001000
00000000
00000001
00000000
,
00000100
00000000
00000000
00000010
00000000
00000000
00000100
00000000
00000001
00000000
00000000
00001000
00000000
00000000
00000100
00000000
,
00000000
00000000
00010000
00000000
00000000
00001000
00000000
01000000
00000000
00000000
00100000
00000000
10000000
00000000
00000000
00000000
,
01000000
00100000
00001000
00000000
00010000
00000010
00000100
00000001
,
00000000
00000010
00000000
00000000
00000000
00000100
00000000
00000000
00000010
00000000
00000001
00000000
00001000
00000000
00000000
00000000
,
00000010
00000100
00010000
00000000
01000000
00000000
00100000
10000000
,
00000000
00000000
00010000
00000000
00000000
00100000
00000000
00010000
00000000
00000000
01000000
00000000
00100000
00000000
00000000
00000000
,
10000000
01000000
00100000
00001000
00000010
00000100
00010000
00100000
,
01000000
00010000
00100000
00001000
00000010
00000001
00000100
00000001
,
00001000
00000010
00000100
00000000
00000101
00000000
00001010
00000000
,
00011000
00000000
00001000
00100000
01000000
10000000
00100000
01000000
,
00010000
00000000
00100000
00000000
00001000
00000000
00000000
00000000
00010010
00000000
00000000
00001000
00000100
00000000
00000000
00000000
,
00001001
00000000
00000000
00000000
00000010
00000000
00001000
00000000
00000100
00000000
00010000
00000000
00001000
00010000
00001000
00000000
,
01000000
00100000
10000000
00000000
11000000
00000000
00101000
00000000
,
00110000
00000000
00010000
01000000
00010000
00100000
00001000
00000010
,
00000001
00000100
00000001
00000000
00001000
00000000
00000000
00000000
00001100
00000000
00000000
00000000
00011000
00000000
00000000
00000000
,
01010000
00000000
00000000
00000000
00100000
00000000
10000000
00010000
00100000
00000000
00001000
00000000
00010000
00000000
00001000
00000000
,
01000000
00000000
00100000
10000000
00010000
00100000
00010000
01000000
,
00100000
00000000
10000000
01000000
00100000
00001000
00010000
00000010
,
00000100
00000001
00001100
00000010
,
00000001
00000000
00000000
00000000
00000100
00000000
00000000
00000000
00000010
00000000
00000000
00010000
00000000
00000000
00001000
00000000
,
00010000
00000000
00001000
01000000
00100000
10000000
01000000
00000000
,
00100000
00001000
00010000
00000100
00001000
00000000
00000010
00000000
,
00000101
00000100
00000001
00000100
00000001
00000100
00000001
00000100
,
00000010
00000000
00010000
00000000
00000100
00000000
00001000
00000000
00100000
00000000
01000000
00000000
00010000
01000000
00010000
01000000
,
00001000
00000000
00010000
00000100
00000010
00000001
00000100
00000010
,
00010000
00001000
00110000
01000000
,
10000000
00100000
01010000
00100000
,
01000000
00000000
00000000
00000000
00001000
00000000
00000000
00000000
00010000
00000000
00000100
00000000
00000010
00000001
00000010
00000001
,
00000100
00000010
00001000
00000100
00010000
00100000
01000000
00010000
,
00001000
00000100
00000010
00000100
00010000
00100000
10000000
00010000
,
00100000
00001000
00010000
00000010
00000100
00001000
00010000
00100000
,
01000000
00010000
00100000
00001000
00000010
00000100
00001000
00000010
,
00000101
00000000
00000000
00000010
00000000
00000000
00001000
00000000
00000010
00000000
00000000
00000100
00000000
00000000
00000001
00000000
,
00000000
00000000
00001000
00000000
00000000
00000100
00000000
00010000
00000000
00000000
00001000
00000000
01000000
00000000
00000000
00000000
,
00100000
00100000
10000000
00000000
01000000
10000000
01000000
00100000
,
00000000
00000000
00001000
00000000
00000000
00010000
00000000
00000000
00000010
00000000
00000100
00000000
00000001
00000000
00000000
00000000
,
00001000
00000100
00001000
00000100
00010000
00000000
00000000
00000000
00001000
00000000
00010000
00000000
00001000
00000000
01000000
00000000
,
00000000
00000000
00100000
00000000
00000000
10000000
00000000
01000000
00000000
00000000
00100000
00000000
00001000
00000000
00000000
00000000
,
01000000
00010000
00100000
00001000
00000010
00000100
00010000
00100000
,
01000000
00010000
00100000
00001000
00000010
00000001
00000100
00000001
,
00001000
00000100
00001000
00000010
00000100
00000000
00000000
00000000
,
00000001
00000001
00000000
00000000
00001100
00000000
00000100
00010000
,
00010000
00000000
00100000
00100000
10000000
01000000
00000000
00000000
,
10000000
00000000
00100000
00000000
01000000
00010000
00000000
00000000
00100000
00000000
00001000
00010000
00000000
00000000
00011000
00000000
,
00000010
00000000
00000001
00000010
00000001
00000000
00000100
00000000
00000010
00000000
00000000
00000000
00000000
00000000
00000000
00000000
,
00001000
00001000
00000000
00000001
00000000
00000100
00000010
00010000
,
00010000
00000000
00000000
00000000
00100000
00000000
00100000
00000000
01000000
00010000
01000000
00000000
00000000
00000000
00000000
00000000
,
00100000
00000000
10000000
00000000
01000000
00000000
00000000
00000000
00100000
00000000
00100000
00010000
00000000
00000000
01000000
00001000
,
00010000
00000000
00000100
00001000
00000100
00000000
00000010
00000000
00000001
00000000
00000000
00000000
00000000
00000000
00000000
00000000
,
00000100
00000010
00001000
00000000
00000000
00000000
00000010
00000000
00000000
00000000
00001000
00000000
00000100
00000000
00000100
00000000
,
00010000
00000000
00000000
00100000
00100000
10000000
00000000
10000000
,
00000000
00000000
00010000
00000000
00100000
00000000
00000000
00000000
01000000
00000000
01000000
10000000
00000000
00000000
00010000
01000000
,
00001000
00010000
00000000
00100000
01000000
00001000
00000000
00010000
,
00000100
00000010
00000001
00000100
00000010
00010000
00100000
01000000
,
00001000
00000100
00000010
00000001
00000100
00000010
00001000
00000100
,
00010000
00000000
00100000
00000000
10000000
00000000
00100000
00000000
01000000
00000000
00010000
00000000
00100000
00001000
00010000
00000100
,
00001000
00000001
00001000
00000001
00000100
00000010
00001000
00000000
,
00000100
00001000
00000100
00000010
00000001
00000100
00000010
00000000
,
00001000
00000100
00010000
00000000
00001000
01000000
00100000
00000000
,
10000000
00000000
00000000
00000000
00110000
00000000
00000000
00000000
01000000
00000000
00000000
10000000
00000000
00000000
00100000
00000000
,
01000000
00001000
01000000
00010000
00100000
00001000
00000010
00000100
,
00001000
00000001
00000100
00000010
00001000
00010000
00100000
10000000
,
00010000
10000000
00010000
10000000
00010000
10000000
00010000
10000000
,
01000000
00000000
00100000
00000000
00001000
00000000
01000000
00000000
00010000
00000000
00100000
00000000
00001000
00010000
00001000
00010000
,
00001000
00000000
01000000
00100000
10000000
00010000
00100000
00001000
,
00010000
00000010
00000101
00000010
,
00001000
00000100
00010000
00000000
00001000
01000000
00100000
00000000
,
10000000
01000000
00100000
00001000
00000010
00000001
00000100
00000010
,
00001000
00000100
00010000
00000000
00011000
00001000
01000000
00000000
,
00100000
10000000
01000000
00000000
00101000
00001000
00010000
00000000
,
00000010
00000100
00000001
00000000
00000010
00000100
00001000
00000000
,
00011000
00001000
01000000
00000000
00100000
10000000
00010000
00000000
,
00101000
00000000
00000000
00010000
00000000
00000000
00000010
00000000
00000100
00000000
00000000
00000001
00000000
00000000
00000010
00000000
,
00000000
00000000
00000100
00000000
00000000
00010000
00000000
00001000
00000000
00000000
01000000
00000000
00010000
00000000
00000000
00000000
,
10000000
00100000
10000000
00100000
01000000
00000000
00000000
00000000
00010000
00000000
00100000
00000000
00001000
00000000
00010000
00000000
,
00000000
00000000
00000010
00000000
00000000
00000100
00000000
00000000
00000001
00000000
00001000
00000000
00000100
00000000
00000000
00000000
,
00010000
00001000
00010000
00001000
01000000
00000000
00000000
00000000
00100000
00000000
10000000
00000000
00100000
00000000
01000000
00000000
,
00000000
00000000
00010000
00000000
00000000
00100000
00000000
01000000
00000000
00000000
00100000
00000000
00010000
00000000
00000000
00000000
,
10000000
01000000
00100000
00001000
00000010
00000100
00010000
00100000
,
01000000
00010000
00100000
00001000
00000010
00000001
00000100
00000001
,
00001000
00000010
00000100
00000000
00000001
00000000
00001000
00000000
,
00000100
00000000
00010000
00001000
01000000
00100000
10000000
01000000
,
00100000
00001000
00100000
00000000
00001000
00000000
00000000
00000000
01000000
00000000
00000000
00000000
00001000
00000000
00000000
00000000
,
00010000
00000000
00000000
00000000
00000100
00000010
00000001
00000000
00000100
00000000
00000010
00000000
00001000
00000000
00000100
00000000
,
00010000
00001000
01000000
00000000
00100000
00000000
10000000
00000000
,
01000000
00000000
10000000
00100000
01000000
00010000
00100000
00001000
,
00010000
00000010
00010000
00000000
00000100
00000000
00000000
00000000
00000010
00000000
00000000
00000000
00000001
00000000
00000000
00000000
,
00001000
00000000
00000000
00000000
00000010
00010000
00001000
00000000
01000000
00000000
00010000
00000000
00100000
00000000
00001000
00000000
;

//---------------dance-double - ----------------
#NOTES:
     dance-double:
     :
     Medium:
     7:
     0.530,0.581,0.353,0.317,0.000:
00000000
00000000
00000000
00000000
,
00000000
00000000
00000000
00000000
,
10100000
00000000
01010000
00000000
,
10100000
00000000
01001000
00000000
,
00010000
00000100
00000010
00000001
,
00001000
00000000
00000010
00000000
00000100
00000010
00000100
00000000
,
00000001
00001000
00000100
00010000
,
00001000
00000000
01000000
00000000
00100000
10000000
00100000
00000000
,
01000000
00010000
00100000
00001000
,
00010000
00000000
00000010
00000000
00000100
00000001
00000100
00000000
,
00000010
00001000
00000100
00000010
,
00000001
00000100
00010000
01000000
,
00100000
10000000
01000000
00100000
,
00001000
00010000
00000010
00000100
,
00000001
00001000
00000001
00000000
00000011
00000000
00001001
00000000
,
00000101
00000000
00000010
00000000
00010000
00000000
00001000
00010000
,
00001000
01000000
00100000
10000000
,
01000000
00100000
00001000
00010000
,
00000010
00000100
00000010
00000000
00001010
00000000
00001001
00000000
,
00001100
00000000
00000010
00000001
00001000
00000000
00000010
00000000
,
00000200
00000000
00000301
00001000
,
00000200
00000000
00010300
00001000
,
02000000
00100000
03200000
00000000
,
10300000
00000000
01000000
00000000
00100000
00000000
00010000
01000000
,
00002000
00010000
00023000
00000000
,
00030200
00000010
00000320
00000000
,
00000031
00001000
00000010
00000100
,
00000010
00000000
00001000
00000000
00000100
00000000
00010000
00001000
,
00020000
00000000
00031000
01000000
,
00200000
10000000
20300000
00000000
,
32000000
00100000
03200000
00000000
,
00301000
01000000
00001000
00010000
,
00000200
00000010
00000320
00000001
,
00000032
00001000
00002003
00000010
,
00003020
00000100
00000230
00000001
,
00000302
00001000
00002003
00000100
,
00003100
00010000
00001000
01000000
,
00100000
00000000
10000000
00000000
00010000
00100000
00010000
00000000
,
01000000
00001000
00010000
00000100
,
00000010
00000000
00000001
00000000
00001000
00000010
00001000
00000000
,
00000100
00010000
00001000
00100000
,
00010000
00000000
01000000
00000000
00100000
10000000
00100000
00000000
,
01000000
00010000
00100000
00001000
,
00010000
00000010
00000100
00000001
,
00001000
00000000
00001100
00000000
,
00000010
00000000
00000000
00000000
00000001
00000000
00001000
00000001
,
00001000
00000010
00010000
00000000
,
00001000
00000000
00100000
00000000
01000000
10000000
00000000
10000000
,
00010000
00000000
01010000
00000000
,
01000000
00000000
00000000
00000000
00001000
00000000
00010000
00000100
,
00010000
00000010
00000100
00000000
,
00000001
00000000
00001000
00000000
00000100
00010000
00000000
00010000
,
00001000
00000000
01001000
00000000
,
00100000
00000000
00000000
00000000
00000000
00000000
10000000
00010000
,
00100000
00000000
00011000
00000000
,
00001000
00100000
00010000
00000010
,
00000001
00000000
00000000
00000100
00000010
00000000
00001000
00000000
,
00000100
00010000
00000100
00001000
,
00000010
00000100
00010000
01000000
,
00100000
00000000
10000000
00000000
01000000
00000000
00100000
00001000
,
00020000
00000000
00030100
00010000
,
00002000
00000000
01003000
00100000
,
20000000
01000000
30020000
01000000
,
10030000
00000000
00100000
00000000
01000000
00000000
00001000
00010000
,
00002000
00010000
00023000
00000010
,
00030020
00000100
00000230
00000001
,
00000302
00001000
00001003
00000100
,
00010000
00000000
00001000
00000000
01000000
00000000
00100000
10000000
,
02000000
00000000
00100000
00000000
,
23000000
00010000
30020000
01000000
,
02030000
00001000
03002000
00010000
,
00013000
00000010
00000100
00000001
,
00001001
00001000
00001100
00000000
,
00011000
00001000
01001000
00000000
,
10100000
10000000
11000000
01000000
,
00101000
00001000
00011000
00010000
,
00010010
00000010
00000100
00000001
,
00001000
00000000
00000100
00000000
00010000
00001000
00010000
00000000
,
00001000
01000000
00100000
10000000
,
01000000
00000000
00100000
00000000
00001000
00010000
00001000
00000000
,
00010000
00000010
00000100
00000001
,
00000010
00000000
00000100
00000000
00000010
00000001
00000010
00000000
,
00000100
00010000
00001000
01000000
,
00100000
10000000
01000000
10000000
,
00000000
01010000
00000000
00101000
,
00000000
00010010
00000000
00001100
,
00000000
00000011
00000000
00001001
,
00000000
00010100
00000000
00011000
,
00001000
01001000
00000000
10100000
,
00000000
11000000
00000000
00101000
,
00000000
00011000
00000000
00010010
,
00000000
00010100
00000000
00011000
;

//---------------dance-double - ----------------
#NOTES:
     dance-double:
     :
     Easy:
     4:
     0.340,0.374,0.072,0.398,0.000:
00000000
00000000
00000000
00000000
,
00000000
00000000
00000000
00000000
,
10000000
00000000
10000000
00000000
,
10000000
00000000
10000000
00000000
,
00100000
00000000
01000000
00000000
,
00001000
00000000
00010000
00001000
,
00010000
00000000
00000010
00000000
,
00000100
00000000
00000001
00000010
,
00000001
00000000
00000010
00000000
,
00000100
00000000
00010000
00001000
,
00010000
00000000
00001000
00000000
,
01000000
00000000
00100000
00000000
,
10100000
00000000
01000000
00010000
,
00100000
00000000
00001000
00000000
,
00010000
00000000
00000010
00000100
,
00000010
00000000
00001000
00000000
,
00000100
00000000
00010000
00001000
,
01000000
00000000
00100000
00000000
,
10000000
00000000
01000000
00100000
,
01000000
00000000
10000000
00000000
,
20010000
00000000
00000000
30100000
,
02000000
00000000
00000000
03010000
,
00200000
00000000
00302000
00000000
,
01003000
00000000
00001000
00010000
,
00000200
00000000
00000320
00000000
,
00000032
00000000
00002003
00000000
,
00003200
00000000
00001000
00001000
,
00001300
00000100
00010000
00001000
,
02000000
00000000
00010000
00000000
,
03200000
00000000
20300000
00000000
,
30020000
00000000
00230000
00000000
,
00310000
01000000
00010000
00100000
,
00002000
00000000
00023000
00000000
,
00030020
00000000
00000230
00000000
,
00000302
00000000
00000023
00000000
,
00000230
00000000
00020300
00000000
,
00031000
00000000
01000000
00000000
,
00010000
00000000
00100000
00001000
,
00100000
00000000
00010000
00000000
,
01000000
00000000
00001000
00010000
,
00001000
00000000
00010000
00000000
,
00000100
00000000
00000010
00000001
,
00000010
00000000
00000100
00000000
,
00010000
00000000
00001000
00000000
,
00011000
00000000
00001000
00000000
,
01000000
00000000
00100000
10000000
,
01000000
00000000
10000000
00000000
,
00010000
00000000
10010000
00000000
,
10000000
00000000
01000000
00000000
,
00100000
00000000
00001000
00010000
,
00000010
00000000
00000100
00000000
,
00000001
00000000
00000010
00000000
,
00000100
00000000
00010000
00000000
,
00001000
00000000
01000000
00100000
,
10000000
00000000
11000000
00000000
,
00100000
00000000
00001000
00000000
,
00010000
00000000
00000001
00000100
,
00000001
00000100
00000010
00001000
,
00000010
00000000
00010000
00000000
,
00001000
00000000
00100000
00000000
,
00012000
00000000
00000000
01003000
,
00200000
00000000
00000000
10300000
,
00020000
00000000
00230000
00000000
,
00310000
00000000
01000000
00001000
,
00020000
00000000
00030200
00000000
,
00000320
00000000
00000032
00000000
,
00002003
00000000
00000001
00000001
,
00003001
00001000
00000010
00010000
,
00002000
00000000
00010000
00000000
,
02003000
00000000
03200000
00000000
,
20300000
00000000
30020000
00000000
,
00130000
00000000
00001000
01000000
,
00200000
00000000
20300000
00000000
,
32000000
00000000
03200000
00000000
,
00302000
00000000
00023000
00000000
,
00030020
00000000
00000230
00000000
,
00000301
00000000
00000010
00000000
,
00000100
00000000
00010000
00001000
,
00010000
00000000
00001000
00000000
,
01000000
00000000
00100000
10000000
,
00100000
00000000
01000000
00000000
,
00001000
00000000
00010000
00000100
,
00010000
00000000
00000010
00000000
,
00000100
00000000
00000001
00000000
,
00001001
00001000
00000000
00001000
,
00000000
00000100
00000000
00000100
,
00000000
00010000
00000000
00010000
,
00000000
00001000
00000000
00001000
,
00000000
01000000
00000000
01000000
,
00000000
00010000
00000000
00010000
,
00000000
00100000
00000000
00100000
,
00000000
00001000
00000000
00011000
;
