#TITLE:Ricochet;
#SUBTITLE:;
#ARTIST:September;
#TITLETRANSLIT:;
#SUBTITLETRANSLIT:;
#ARTISTTRANSLIT:;
#GENRE:;
#CREDIT:;
#MENUCOLOR:;
#METERTYPE:DDR;
#BANNER:Ricochet-bn.png;
#BACKGROUND:Ricochet-bg.png;
#LYRICSPATH:Ricochet.lrc;
#CDTITLE:DDREncore2.png;
#MUSIC:Ricochet.mp3;
#OFFSET:-0.014;
#SAMPLESTART:46.858;
#SAMPLELENGTH:11.900;
#SELECTABLE:YES;
#LISTSORT:;
#BPMS:0.000=123.000;
#STOPS:;
#BGCHANGES:;
#ATTACKS:;

//---------------dance-single - Spork!----------------
#NOTES:
     dance-single:
     Spork!:
     Hard:
     7:
     0.381,0.430,0.263,0.193,0.009:
0000
0000
0000
0000
,
0000
0000
0000
0000
,
0000
0000
0000
0000
,
0000
0000
0000
0000
,
0011
0000
0001
1000
0010
0000
0010
0000
,
0100
0001
1000
0100
0010
0000
0010
0000
,
1100
0001
0101
0010
,
1001
0011
1010
1001
,
0200
0000
0300
1000
,
0020
0000
0030
0100
,
0002
1000
0103
0010
,
2000
0000
0000
0000
3000
0100
0010
0000
,
0020
0000
0000
0000
0030
0001
0100
0000
,
0200
0000
0000
0000
0300
0100
0010
0000
,
2000
0001
3100
0010
,
0002
0000
0003
0000
,
1000
0100
1000
0010
0100
0001
0010
0100
,
0000
0010
0001
0100
0010
1000
0001
0100
,
0000
0001
1000
0100
0001
0100
1000
0010
,
0000
1000
0100
0010
0002
0000
2003
0000
,
3001
0100
0001
0010
0100
1000
0010
0010
,
0100
0010
1000
0100
0010
0001
1000
1000
,
0001
0100
0001
1000
0100
1000
0000
0020
,
0000
0000
0000
0030
,
1100
0110
0011
0110
,
0011
0101
1001
0100
,
0001
0010
0000
1000
0100
0100
1000
0010
,
0100
0000
0001
0000
0000
0000
0001
0000
0010
0000
0000
0100
1000
0000
0001
0000
,
0101
0110
0101
0110
,
1010
1100
1001
0100
,
1000
0010
0000
0001
0100
0100
0001
0010
,
0100
1000
0000
2000
0001
0001
3001
0000
,
1000
0000
0000
1000
0000
0000
0000
0000
,
0001
0000
0000
0001
0000
0000
0000
1000
,
0010
0000
0000
0010
0000
0000
0000
0000
,
0100
0000
0000
0100
0000
0000
0000
0001
,
0010
0100
0010
0100
1000
0000
0010
0000
,
2000
0000
0000
3000
0002
0000
0000
1003
,
0100
0000
0100
0000
1000
0000
1000
0010
,
0100
0000
0100
0000
0002
0000
0000
0003
,
1000
0100
0001
0000
0210
0000
0000
0000
,
0310
0001
0010
0100
0000
0100
0010
0010
,
0001
0100
1000
0000
0210
0000
0000
0000
,
0310
1000
0010
0100
0000
0100
0010
0010
,
1000
0010
0001
0000
0120
0000
1000
0000
,
0130
0001
0100
0010
0000
0010
0100
0100
,
0001
0010
1000
0000
0120
0000
0001
0000
,
0230
0000
0000
0000
0300
1000
0000
0001
,
0011
0000
0100
0010
0001
0000
0110
0000
,
0100
1000
0010
0100
0001
0000
0001
0000
,
1000
0100
0000
0001
0010
0010
0001
0100
,
0010
0000
1000
0000
0000
0000
1000
0000
0100
0000
0000
0010
0001
0000
1000
0000
,
1010
0000
0100
0010
1000
0000
0110
0000
,
0101
0000
0010
0001
1000
0000
0010
0000
,
0001
0100
0000
1000
0010
0010
1000
0100
,
0010
0001
0100
0010
1000
0000
0001
0000
,
2000
0000
0000
0000
,
0002
0000
0000
3003
;

//---------------dance-single - Spork!----------------
#NOTES:
     dance-single:
     Spork!:
     Beginner:
     1:
     0.099,0.172,0.088,0.044,0.000:
0000
0000
0000
0000
,
0000
0000
0000
0000
,
0000
0000
0000
0000
,
0000
0000
0000
0000
,
0001
0000
0000
0000
,
1000
0000
0000
0000
,
0100
0000
0100
0000
,
0100
0000
0000
0000
,
1001
0000
0000
0000
,
0100
0000
0000
0000
,
0001
0000
0000
0000
,
1000
0000
0000
0000
,
1001
0000
0000
0000
,
0010
0000
0000
0000
,
1000
0000
0000
0000
,
0001
0000
0000
0000
,
2000
0000
3000
0000
,
0002
0000
0003
0000
,
2000
0000
3000
0000
,
0001
0000
1000
0000
,
0020
0000
0030
0000
,
0200
0000
0300
0000
,
0010
0000
1000
0000
,
0001
0000
0000
0000
,
0010
0000
0000
0000
,
0100
0000
0000
0000
,
1001
0000
1001
0000
,
0100
0000
0000
0000
,
0010
0000
0000
0000
,
1000
0000
0000
0000
,
1001
0000
1001
0000
,
0100
0000
0000
0000
,
0010
0000
0000
0000
,
0000
0000
0000
0000
,
0010
0000
0000
0000
,
0000
0000
0000
0000
,
0100
0000
0000
0000
,
0000
0000
0000
0000
,
0100
0000
0000
0000
,
0000
0000
0000
0000
,
1000
0000
0100
0000
,
0010
0000
0010
0000
,
0001
0000
0100
0000
,
0010
0000
1000
0000
,
0001
0000
0010
0000
,
0100
0000
0100
0000
,
1000
0000
0010
0000
,
0100
0000
0000
0000
,
0001
0000
0000
0000
,
0010
0000
0000
0000
,
1001
0000
1001
0000
,
0010
0000
0000
0000
,
1000
0000
0000
0000
,
0100
0000
0000
0000
,
1001
0000
1001
0000
,
0010
0000
0100
0000
,
1000
0000
0000
0000
;

//---------------dance-single - Spork!----------------
#NOTES:
     dance-single:
     Spork!:
     Easy:
     2:
     0.131,0.228,0.105,0.044,0.000:
0000
0000
0000
0000
,
0000
0000
0000
0000
,
0000
0000
0000
0000
,
0000
0000
0000
0000
,
1000
0000
0000
0000
,
0001
0000
0000
0000
,
0100
0000
0100
0000
,
0001
0001
1000
1000
,
0001
0000
0000
0001
,
0100
0000
0000
0100
,
0010
0000
1000
0000
,
0001
0000
0000
0001
,
1000
0000
0000
1000
,
0100
0000
0000
0100
,
0010
0000
0001
0000
,
1000
0000
0000
0000
,
1001
0000
0100
0000
,
1001
0000
0010
0000
,
1100
0000
0100
0000
,
0101
0000
0110
0000
,
1001
0000
0010
0000
,
1001
0000
0100
0000
,
1000
0000
0001
0000
,
0100
0000
0000
0000
,
0001
0000
0010
0000
,
0100
0000
1000
0000
,
0010
0000
0010
0000
,
1001
0000
0100
0000
,
1000
0000
0010
0000
,
0100
0000
0001
0000
,
0010
0000
0010
0000
,
1001
0000
0100
0000
,
0010
0000
0000
0000
,
0000
0000
0000
0000
,
0010
0000
0000
0000
,
0000
0000
0000
0000
,
0100
0000
0000
0000
,
0000
0000
0000
0000
,
0100
0000
0000
0000
,
0000
0000
0000
0000
,
0001
0100
0002
0000
,
0000
0000
0003
0000
,
1000
0100
2000
0000
,
0000
0000
3000
0000
,
0010
0100
0020
0000
,
0000
0000
0030
0000
,
0100
0000
0010
0000
,
1001
0000
0000
0000
,
1000
0000
0010
0000
,
0100
0000
0001
0000
,
0010
0000
0010
0000
,
1001
0000
0010
0000
,
0001
0000
0100
0000
,
0010
0000
1000
0000
,
0100
0000
0100
0000
,
1001
0000
0010
0000
,
0002
0000
0000
0000
,
2000
0000
0000
3003
;

//---------------dance-double - Spork!----------------
#NOTES:
     dance-double:
     Spork!:
     Easy:
     1:
     0.105,0.126,0.000,0.105,0.000:
00000000
00000000
00000000
00000000
,
00000000
00000000
00000000
00000000
,
00000000
00000000
00000000
00000000
,
00000000
00000000
00000000
00000000
,
00010000
00000000
00000000
00000000
,
00010000
00000000
00000000
00000000
,
00001000
00000000
00000000
00000000
,
00001000
00000000
00000000
00000000
,
01000000
00000000
00000000
00000000
,
00100000
00000000
00000000
00000000
,
00010000
00000000
00001000
00000000
,
00010000
00000000
00000000
00000000
,
00000100
00000000
00000000
00000000
,
00000010
00000000
00000000
00000000
,
00001000
00000000
00010000
00000000
,
00001000
00000000
00000000
00000000
,
00000100
00000000
00000000
00000000
,
00000010
00000000
00000000
00000000
,
00010000
00000000
00000000
00000000
,
01000000
00000000
00000000
00000000
,
00100000
00000000
00000000
00000000
,
00001000
00000000
00000000
00000000
,
00010000
00000000
01000000
00000000
,
10000000
00000000
00000000
00000000
,
00020000
00000000
00000000
00000000
,
20030000
00000000
00000000
00000000
,
30100000
00000000
01000000
00000000
,
00001000
00000000
00001000
00000000
,
00002000
00000000
00000000
00000000
,
00003002
00000000
00000000
00000000
,
00000103
00000000
00000010
00000000
,
00010000
00000000
00010000
00000000
,
01000000
00000000
00000000
00000000
,
00000000
00000000
00000000
00000000
,
01000000
00000000
00000000
00000000
,
00000000
00000000
00000000
00000000
,
00010000
00000000
10000000
00000000
,
01000000
00000000
00000000
00000000
,
10000000
00000000
10000000
00000000
,
20000000
00000000
00000000
30000000
,
10000000
00000000
01000000
00000000
,
00100000
00000000
00100000
00000000
,
00001000
00000000
00010000
00000000
,
00001000
00000000
00001000
00000000
,
00010000
00000000
00000010
00000000
,
00000100
00000000
00000100
00000000
,
00000001
00000000
00001000
00000000
,
00000200
00000000
00000000
00000300
,
00002000
00000000
00000000
00000000
,
00003002
00000000
00000000
00000000
,
00001003
00000000
00000010
00000000
,
00010000
00000000
00010000
00000000
,
00020000
00000000
00000000
00000000
,
20030000
00000000
00000000
00000000
,
30010000
00000000
01000000
00000000
,
00001000
00000000
00001000
00000000
,
00002000
00000000
00000000
00000000
,
00020000
00000000
00000000
00033000
;

//---------------dance-single - Spork!----------------
#NOTES:
     dance-single:
     Spork!:
     Medium:
     4:
     0.240,0.303,0.201,0.201,0.000:
0000
0000
0000
0000
,
0000
0000
0000
0000
,
0000
0000
0000
0000
,
0000
0000
0000
0000
,
0001
0000
0100
0000
,
0010
0000
1000
0000
,
0101
0000
1100
0000
,
0110
0001
1000
0110
,
0002
0000
0003
0010
,
0200
0000
0300
1000
,
0010
1000
0001
0100
,
0020
0000
0030
0010
,
2000
0000
3000
0100
,
0020
0000
0030
0001
,
0100
0001
1000
0010
,
0200
0000
0300
0000
,
0001
0001
1000
0100
,
1000
1000
0010
0100
,
0010
0010
1000
0001
,
0010
0100
0110
1001
,
1000
1000
0001
0100
,
0001
0001
0010
0100
,
1000
0000
0001
0000
,
0100
0000
0000
0000
,
1001
0000
1000
0001
1000
0000
1001
0000
,
0100
1000
0010
0100
,
0002
0000
2003
0000
,
3001
0010
1000
0000
,
1001
0000
0001
1000
0001
0000
1001
0000
,
0100
0001
0010
0100
,
2000
0000
3002
0000
,
1003
0000
0010
0000
1000
1000
0001
0000
,
0020
0000
0000
0030
0000
0000
0000
0000
,
0200
0000
0000
0300
0000
0000
0000
0000
,
0020
0000
0000
0030
0000
0000
0000
0000
,
0200
0000
0000
0300
0000
0000
0000
0000
,
1000
0000
0001
0000
,
1000
0000
1000
0000
,
0001
0000
2000
0000
,
0002
0000
0000
3003
,
1100
0101
1100
0000
,
0010
0000
1000
0000
,
0101
1100
0101
0000
,
0010
0000
0001
0000
,
1010
0011
1010
0000
,
0100
0000
0001
0000
,
0011
1010
0011
0000
,
0200
0000
0000
0300
,
0001
0010
1000
0100
,
0001
1000
0100
0010
,
0200
0000
0320
0000
,
0031
0100
1000
1001
,
1000
0010
0001
0100
,
1000
0001
0100
0010
,
0200
0000
0320
0000
,
1030
0100
0010
0001
,
2000
0000
0000
0000
,
0002
0000
0000
3003
;

//---------------dance-double - Spork!----------------
#NOTES:
     dance-double:
     Spork!:
     Medium:
     4:
     0.223,0.278,0.149,0.184,0.000:
00000000
00000000
00000000
00000000
,
00000000
00000000
00000000
00000000
,
00000000
00000000
00000000
00000000
,
00000000
00000000
00000000
00000000
,
11000000
00000000
00000000
00000000
,
01010000
00000000
00000000
00000000
,
00001100
00000000
00011000
00000000
,
00001001
00000100
00000010
00001001
,
00000002
00000000
00000003
00000001
,
00002000
00000000
00003000
00001000
,
00000001
00000100
00000010
00010000
,
00002000
00000000
00000000
00103000
,
00020000
00000000
00030000
00010000
,
20000000
00000000
30000000
10000000
,
00100000
01000000
00010000
00100000
,
00002000
00000000
00000000
00003000
,
00010000
00100000
10000000
00000000
,
00100000
10000000
00010000
00000000
,
10000000
00010000
00001000
00000000
,
00010000
00001000
00011000
00011000
,
00001000
00000010
00000001
00000000
,
00000010
00000001
00001000
00000000
,
00000001
00000000
00000100
00000000
,
00000020
00000000
00000000
00000030
,
00001000
00000100
00000001
00000100
,
00001000
00000010
00010000
00001000
,
02000000
00000000
03200000
00000000
,
10300000
01000000
00100000
00000000
,
00010000
01000000
10000000
01000000
,
00010000
00100000
00001000
00010000
,
00000200
00000000
00000320
00000000
,
00000031
00000100
00000010
00000000
,
00001000
00000000
00000000
00001000
00000000
00000000
00000000
00000000
,
00000001
00000000
00000000
00000001
00000000
00000000
00000000
00000000
,
00000010
00000000
00000000
00000010
00000000
00000000
00000000
00000000
,
00000001
00000000
00000000
00000001
00000000
00000000
00000000
00000000
,
00001000
00000010
00010000
00000000
,
00002000
00000000
00023000
00000000
,
01030000
00100000
00010000
00000000
,
01000000
00100000
10000000
00000000
,
01100000
10000000
10010000
00000000
,
01000000
00000000
00001000
00000000
,
00011000
00010000
00101000
00000000
,
00010000
00000000
00000100
00000000
,
00000110
00000001
00001001
00000000
,
00000010
00000000
00010000
00000000
,
00011000
00001000
00010100
00000000
,
00022000
00000000
00033000
00000000
,
00001000
00000100
00000001
00000010
,
00000100
00010000
00001000
01000000
,
00020000
00000000
20030000
00000000
,
30100000
01000000
00001000
00000000
,
00010000
01000000
10000000
00100000
,
01000000
00001000
00010000
00000100
,
00002000
00000000
00003002
00000000
,
00000103
00000000
00000010
00000000
,
00020000
00000000
00000000
00000000
,
00002000
00000000
00000000
00033000
;

//---------------dance-double - Spork!----------------
#NOTES:
     dance-double:
     Spork!:
     Hard:
     7:
     0.336,0.379,0.280,0.158,0.000: // measure 1
00000000
00000000
00000000
00000000
,  // measure 2
00000000
00000000
00000000
00000000
,  // measure 3
00000000
00000000
00000000
00000000
,  // measure 4
00000000
00000000
00000000
00000000
,  // measure 5
00000001
00000100
00000001
00000001
,  // measure 6
00001000
00000100
00001000
00001000
,  // measure 7
00000101
00000100
00001010
00000010
,  // measure 8
00011000
00010100
00011000
01001000
,  // measure 9
00020000
00000000
00030000
01000000
,  // measure 10
00200000
00000000
00300000
10000000
,  // measure 11
00010000
01000000
00001000
00010000
,  // measure 12
00000020
00000000
00000000
00000000
00000030
00000100
00000010
00000000
,  // measure 13
00002000
00000000
00000000
00000000
00003000
00001000
00000100
00000000
,  // measure 14
00000020
00000000
00000000
00000000
00000030
00000010
00000001
00000000
,  // measure 15
00001000
00000010
00010000
00001000
,  // measure 16
02000000
00000000
00000000
03000000
,  // measure 17
00100000
10000000
01010000
01001000
,  // measure 18
01000000
00010000
00110000
00101000
,  // measure 19
00010000
10000000
10010000
01100000
,  // measure 20
00100000
00010000
00001000
00001000
,  // measure 21
00000010
00000001
00001100
00010100
,  // measure 22
00000100
00001000
00001010
00010010
,  // measure 23
00010000
00001000
00010000
00001000
00000100
00000002
00000000
00002000
,  // measure 24
00000000
00000000
00003003
00000000
,  // measure 25
00000020
00000000
00001000
00010000
00000100
00000000
00000130
00000000
,  // measure 26
00000001
00000010
00000001
00000100
00000000
00000100
00000010
00000000
,  // measure 27
00001010
00001000
00000000
00010010
00000010
00000000
00010000
00000000
,  // measure 28
00001000
00100000
01000000
00000000
,  // measure 29
00200000
00000000
00010000
00001000
01000000
00000000
01300000
00000000
,  // measure 30
10000000
00100000
10000000
01000000
00000000
01000000
00100000
00000000
,  // measure 31
00110000
00010000
00000000
00101000
00100000
00000000
00001000
00000000
,  // measure 32
00010000
00000000
00000010
00000000
00000100
00000100
00000100
00000000
,  // measure 33
00000001
00000000
00000000
00000010
00000000
00000000
00001001
00000000
,  // measure 34
00001000
00000000
00000000
00000010
00000000
00000000
00011000
00000000
,  // measure 35
00010000
00000000
00000000
00000100
00000000
00000000
00011000
00000000
,  // measure 36
00001000
00000000
00000000
01000000
00000000
00000000
10010000
00000000
,  // measure 37
00010000
00100000
00010000
00100000
01000000
00000000
00100000
00000000
,  // measure 38
00002000
00000000
00000000
00003000
00020000
00000000
00000000
00031000
,  // measure 39
00010000
00000000
00010000
00000000
00000100
00000000
00000100
00001000
,  // measure 40
00000010
00000010
00000200
00000000
,  // measure 41
00000301
00000010
00000100
00000000
00000110
00000000
00000000
00000000
,  // measure 42
00001000
00000001
00000100
00001000
00010000
01000000
10000000
00000000
,  // measure 43
10000000
00100000
01000000
00000000
01100000
00000000
00000000
00000000
,  // measure 44
00010000
10000000
01000000
00010000
00001000
00000100
00000001
00000000
,  // measure 45
00001000
00000100
00000010
00000000
00000110
00000000
00000000
00000000
,  // measure 46
00001000
00000001
00000010
00001000
00010000
00100000
10000000
00000000
,  // measure 47
00010000
01000000
00100000
00000000
01100000
00000000
00010000
00000000
,  // measure 48
00002000
00000000
00000000
00000000
00003000
00010000
00000000
00001000
,  // measure 49
00200000
00000000
00010000
00001000
01000000
00000000
01300000
00000000
,  // measure 50
10000000
01000000
00100000
00001000
00010000
00000000
00010000
00000000
,  // measure 51
00010100
00000100
00000000
00001100
00001000
00000000
00000010
00000000
,  // measure 52
00000100
00000001
00001000
00000000
,  // measure 53
00000200
00000000
00001000
00010000
00000010
00000000
00000310
00000000
,  // measure 54
00000100
00000000
00001000
00000010
00010000
00000000
00010000
00000000
,  // measure 55
01001000
01000000
00000000
01010000
00010000
00000000
10000000
00000000
,  // measure 56
01000000
00100000
00010000
01000000
,  // measure 57
00002000
00000000
00000000
00000000
,  // measure 58
00020000
00000000
00000000
00033000
;
