#TITLE:Return Of The Mack 2004;
#SUBTITLE:;
#ARTIST:Mark Morrison;
#TITLETRANSLIT:;
#SUBTITLETRANSLIT:;
#ARTISTTRANSLIT:;
#GENRE:;
#CREDIT:;
#MENUCOLOR:;
#METERTYPE:DDR;
#BANNER:Return Of The Mack 2004-bn.png;
#BACKGROUND:Return Of The Mack 2004-bg.png;
#LYRICSPATH:;
#CDTITLE:ddrencorecdtitle.png;
#MUSIC:Return Of The Mack 2004.mp3;
#OFFSET:-0.031;
#SAMPLESTART:43.360;
#SAMPLELENGTH:17.458;
#SELECTABLE:YES;
#LISTSORT:;
#BPMS:0.000=110.000;
#STOPS:;
#BGCHANGES:;
#ATTACKS:;

//---------------dance-single - ----------------
#NOTES:
     dance-single:
     :
     Beginner:
     1:
     0.100,0.157,0.021,0.000,0.000:
0000
0000
0000
0000
,
0000
0000
0000
0000
,
0000
0000
0000
0000
,
0000
0000
0000
0000
,
0001
0000
0000
0000
,
0100
0000
0000
0000
,
0001
0000
0000
0000
,
1000
0000
0000
0000
,
0100
0000
0100
0000
,
0010
0000
0010
0000
,
0001
0000
0001
0000
,
1000
0000
0001
0000
,
0100
0000
0100
0000
,
0010
0000
0010
0000
,
1000
0000
1000
0000
,
0001
0000
1000
0000
,
0001
0000
0000
0000
,
0010
0000
0001
0000
,
1000
0000
0000
0000
,
0100
0000
0100
0000
,
0100
0000
0000
0000
,
0100
0000
1000
0000
,
0001
0000
0000
0000
,
0010
0000
0000
0000
,
0001
0001
0001
0000
,
1000
1000
1000
0000
,
0001
0001
0001
0000
,
0100
0000
0010
0000
,
0100
0100
0100
0000
,
0010
0010
0010
0000
,
0100
0100
0100
0000
,
0001
0000
1000
0000
,
0100
0000
0000
0000
,
1000
0000
0000
0000
,
0100
0000
0000
0000
,
0010
0000
0000
0000
,
0001
0000
0000
0000
,
1000
0000
0000
0000
,
0010
0000
0000
0000
,
0100
0000
0000
0000
,
1001
0000
0000
0000
,
0010
0000
0000
0000
,
1001
0000
0000
0000
,
0100
0000
0000
0000
;

//---------------dance-single - ----------------
#NOTES:
     dance-single:
     :
     Easy:
     2:
     0.144,0.181,0.021,0.094,0.000:
0000
0000
0000
0000
,
0000
0000
0000
0000
,
0000
0000
0000
0000
,
0000
0000
0000
0000
,
0001
0000
0000
0000
,
1000
0000
0000
0000
,
0001
0000
0000
0000
,
0100
0000
0000
0000
,
0010
0000
0100
0000
,
0001
0000
1000
0000
,
0100
0000
1000
0000
,
0001
0000
0100
0010
,
1000
0000
0001
0000
,
0010
0000
0100
0000
,
0010
0000
0001
0000
,
1000
0000
0010
1000
,
0002
0000
1003
0000
,
1000
0100
0010
0001
,
2000
0000
3001
0000
,
0100
0000
0100
0010
,
2000
0000
3001
0000
,
0001
0010
0100
1000
,
0002
0000
1003
0000
,
1001
0000
0000
0000
,
1000
0001
0100
0000
,
0100
0001
1000
0000
,
1000
0001
0010
0000
,
0010
0100
1000
0000
,
0001
1000
0100
0000
,
0100
1000
0001
0000
,
0001
1000
0010
0000
,
0010
0100
0001
0000
,
1000
0000
0100
0000
,
1000
0000
0001
0000
,
0100
0000
0010
0000
,
1000
0000
0001
0000
,
0100
0000
0010
0000
,
0100
0000
0001
0000
,
1000
0000
0010
0000
,
0100
0000
0001
0000
,
2000
0000
3000
0000
,
0002
0000
0003
0000
,
0020
0000
0030
0000
,
2002
0000
3003
0000
;

//---------------dance-single - ----------------
#NOTES:
     dance-single:
     :
     Medium:
     4:
     0.196,0.250,0.052,0.187,0.000:
0000
0000
0000
0000
,
0000
0000
0000
0000
,
0000
0000
0000
0000
,
0000
0000
0000
0000
,
0001
0000
1000
0000
,
0001
0000
0100
0000
,
0001
0000
1000
0000
,
0001
0000
0010
0000
,
0002
0000
1003
0100
,
2000
0000
3001
0100
,
0002
0000
0013
0100
,
1000
0000
1001
0000
,
2000
0000
3001
0010
,
0002
0000
1003
0010
,
2000
0000
3100
0010
,
0001
0000
1001
0000
,
2000
0000
3100
0000
,
1000
0000
0010
0000
0100
0001
0100
0000
,
0002
0000
0013
0000
,
1100
0000
0011
0001
,
0200
0000
0310
0000
,
0100
0000
0001
0000
1000
0010
1000
0000
,
0020
0000
0130
0000
,
1001
0000
0000
0000
,
0001
0000
0100
0000
0010
0000
1000
0100
,
1000
0000
0010
0000
0100
0000
0001
1000
,
0001
0000
0010
0000
0100
0000
0010
0001
,
0020
0000
0230
0000
,
0310
0000
0001
0000
1000
0000
0010
1000
,
0010
0000
1000
0000
0001
0000
0100
0010
,
0100
0000
0010
0000
1000
0000
0001
0100
,
0002
0000
2003
0000
,
3001
0000
1000
0000
,
0001
0000
0100
0000
,
0001
0000
1000
0000
,
0001
0000
0010
0000
,
1000
0000
0001
0000
,
1000
0000
0010
0000
,
1000
0000
0001
0000
,
1000
0000
0100
0000
,
0002
0000
0003
0000
,
2000
0000
3000
0000
,
0020
0000
0030
0000
,
0200
0000
0000
0000
0310
1000
0001
0000
;

//---------------dance-single - ----------------
#NOTES:
     dance-single:
     :
     Hard:
     7:
     0.388,0.411,0.083,0.042,0.286: // measure 1
0000
0000
0000
0000
,  // measure 2
0000
0000
0000
0000
,  // measure 3
0000
0000
0000
0000
,  // measure 4
0000
0000
0000
0000
,  // measure 5
1000
0000
0000
0000
0010
0000
0000
1000
0010
0000
1000
0000
0001
0000
0010
0000
,  // measure 6
0001
0000
0000
0000
0100
0000
0000
0010
1000
0000
0001
0000
0100
0000
0000
0000
,  // measure 7
0001
0000
0000
0000
1000
0000
0000
0001
1000
0000
0010
0000
0100
0000
0001
0000
,  // measure 8
1000
0000
0000
0000
0010
0000
0000
1000
0100
0000
1000
0000
0001
0000
0000
0000
,  // measure 9
0100
0000
0010
0000
1000
0010
0100
0000
,  // measure 10
0010
0000
1000
0000
0001
0010
1001
0000
,  // measure 11
0010
0000
0100
0000
0001
1000
0100
0000
,  // measure 12
1000
0000
0001
0100
0000
0001
0100
0000
0000
0000
0001
0000
1000
0000
0000
0000
,  // measure 13
0010
0000
0100
0000
0010
1000
0001
0000
,  // measure 14
0010
0000
0100
0000
1000
0100
1001
0000
,  // measure 15
0010
0000
0100
0000
1000
0001
0100
0000
,  // measure 16
0010
0000
1000
0001
0000
1000
0001
0000
0000
0000
1000
0000
0010
0000
0100
0000
,  // measure 17
0002
0000
0000
0000
1000
0000
0000
0000
0013
0000
0000
0000
0001
1000
0000
0100
,  // measure 18
0000
0010
0000
0100
0000
0010
0000
0001
0000
1000
0000
0001
0000
0000
0001
0000
,  // measure 19
2000
0000
0000
0000
0001
0000
0000
0000
3100
0000
0000
0000
1000
0010
0000
0100
,  // measure 20
0000
0000
0000
0000
0001
0100
0000
0010
0000
0000
0000
0000
0010
0000
1000
0000
,  // measure 21
0002
0000
0000
0000
0010
0000
0000
0000
1003
0000
0000
0000
0001
1000
0000
0010
,  // measure 22
0000
0100
0000
0010
0000
0100
0000
0001
0000
1000
0000
0001
0000
0000
0001
0000
,  // measure 23
2000
0000
0000
0000
0100
0000
0000
0000
3001
0000
0000
0000
1000
0100
0000
1000
,  // measure 24
0001
0000
0000
0100
0000
0000
0010
0000
0000
0000
1000
0000
0001
0000
0000
0000
,  // measure 25
1000
0000
0000
0010
0000
0000
1010
0000
0000
0000
0010
0000
0100
0000
0000
0000
,  // measure 26
0001
0000
0000
1000
0000
0000
1001
0000
0000
0001
0000
0100
0000
0000
0000
0000
,  // measure 27
0010
0000
0000
1000
0000
0000
1010
0000
0000
0000
0010
0000
0100
0000
0000
0000
,  // measure 28
0001
0000
1000
0100
0000
1000
0100
0000
0000
0000
1000
0000
0001
0000
0000
0000
,  // measure 29
0001
0000
0000
0100
0000
0000
1001
0000
0000
0000
0010
0000
1000
0000
0100
0000
,  // measure 30
1000
0000
0000
0001
0000
0000
1100
0000
1000
0001
0000
0001
0100
0000
0010
0000
,  // measure 31
0100
0000
0000
0001
0000
0000
0110
0000
0000
0000
1000
0000
0001
0000
0100
0000
,  // measure 32
0001
0000
0010
0100
0000
0010
0100
0000
0000
0000
0010
0000
0001
0000
0000
0000
,  // measure 33
1000
0100
0010
0001
0010
0100
0000
0100
,  // measure 34
1000
0010
0100
0001
0100
0010
1000
0000
,  // measure 35
0001
0100
0010
1000
0010
0100
0000
0100
,  // measure 36
0001
0000
0010
0000
0100
0000
1000
0000
0100
0000
0010
0000
0001
1000
0001
1000
,  // measure 37
0001
0100
1000
0100
0001
0010
0000
0010
,  // measure 38
0001
1000
0100
0001
0100
1000
0010
0000
,  // measure 39
1000
0010
0001
0010
1000
0100
0000
0100
,  // measure 40
1000
0001
0010
1000
0010
0001
0100
0000
,  // measure 41
0010
0000
0000
0010
0000
0000
0010
0000
0000
1000
0000
0000
0000
0000
0001
0000
,  // measure 42
0100
0000
0000
0100
0000
0000
0100
0000
0000
0000
0100
0010
0000
0000
1000
0000
,  // measure 43
0001
0000
0000
0001
0000
0000
0001
0000
0000
0100
0000
0000
0000
0000
0010
0000
,  // measure 44
1000
0000
0000
1000
0000
0000
1000
0000
0000
0000
1000
0001
0000
0000
0100
0000
;

//---------------dance-double - ----------------
#NOTES:
     dance-double:
     :
     Easy:
     2:
     0.152,0.205,0.010,0.166,0.000:
00000000
00000000
00000000
00000000
,
00000000
00000000
00000000
00000000
,
00000000
00000000
00000000
00000000
,
00000000
00000000
00000000
00000000
,
00100000
00000000
00000000
00000000
,
01000000
00000000
00000000
00000000
,
00010000
00000000
00000000
00000000
,
00100000
00000000
00000000
00000000
,
01000000
00000000
00100000
00000000
,
01000000
00000000
10000000
00000000
,
00010000
00000000
01000000
00000000
,
00001000
00000000
00010000
00001000
,
00010000
00000000
00000100
00000000
,
00001000
00000000
00000010
00000000
,
00001000
00000000
00000001
00000000
,
00000100
00000000
00000010
00001000
,
00000020
00000000
00000130
00000000
,
00000100
00000001
00001000
00000010
,
00020000
00000000
00031000
00000000
,
00010000
00000000
00000100
00000000
,
00002000
00000000
00003100
00000000
,
00000100
00010000
00001000
00100000
,
00020000
00000000
01030000
00000000
,
10010000
00000000
00000000
00000000
,
20000000
00000000
30100000
10000000
,
00200000
00000000
01300000
00010000
,
02000000
00000000
03001000
00010000
,
00002000
00000000
00013000
00000000
,
00020000
00000000
00030100
00001000
,
00000200
00000000
00001300
00000010
,
00002000
00000000
00003001
00000100
,
00000002
00000000
00001003
00000000
,
00000100
00000000
00001000
00000000
,
00000100
00000000
00000010
00000000
,
00000001
00000000
00001000
00000000
,
00000010
00000000
00000100
00000000
,
00000010
00000000
00010000
00000000
,
00001000
00000000
00010000
00000000
,
00000100
00000000
00010000
00000000
,
00001000
00000000
01000000
00000000
,
00200000
00000000
00300000
00000000
,
02000000
00000000
03000000
00000000
,
00020000
00000000
00030000
00000000
,
20000000
00000000
30010000
00010000
;

//---------------dance-double - ----------------
#NOTES:
     dance-double:
     :
     Medium:
     4:
     0.205,0.250,0.125,0.187,0.000:
00000000
00000000
00000000
00000000
,
00000000
00000000
00000000
00000000
,
00000000
00000000
00000000
00000000
,
00000000
00000000
00000000
00000000
,
00001000
00000000
00010000
00000000
,
00001000
00000000
00100000
00000000
,
00001000
00000000
00010000
00000000
,
00001000
00000000
01000000
00000000
,
00200000
00000000
01300000
00010000
,
00200000
00000000
01300000
10000000
,
00200000
00000000
01300000
00010000
,
01010000
00000000
00011000
00000000
,
00001200
00000000
00001300
00000010
,
00000200
00000000
00000310
00001000
,
00000200
00000000
00001300
00000001
,
00001001
00000000
00000101
00000000
,
00002001
00000000
00003010
00000000
,
00000010
00000000
00000100
00000000
00000001
00001000
00000001
00000000
,
00002100
00000000
00003100
00000000
,
00011000
00000000
00011000
00000000
,
01002000
00000000
01003000
00000000
,
01000000
00000000
00100000
00000000
10000000
00010000
10000000
00000000
,
02010000
00000000
03010000
00000000
,
00011000
00000000
00000000
00000000
,
00010000
00000000
00000100
00000000
00001000
00000000
00000010
00000100
,
00000010
00000000
00001000
00000000
00000001
00000000
00001000
00000100
,
00001000
00000000
00000010
00000000
00010000
00000000
00001000
00010000
,
00002000
00000000
00023000
00000000
,
00031000
00000000
00100000
00000000
00010000
00000000
01000000
00010000
,
01000000
00000000
00100000
00000000
10000000
00000000
00010000
10000000
,
00010000
00000000
00100000
00000000
01000000
00000000
10000000
00010000
,
20000000
00000000
30020000
00000000
,
01030000
00000000
00001000
00000000
,
01000000
00000000
00010000
00000000
,
01000000
00000000
00001000
00000000
,
01000000
00000000
00100000
00000000
,
00010000
00000000
00001000
00000000
,
00010000
00000000
01000000
00000000
,
00010000
00000000
00001000
00000000
,
00010000
00000000
00000010
00000000
,
00002000
00000000
00003000
00000000
,
00000002
00000000
00000003
00000000
,
00000200
00000000
00000300
00000000
,
00000020
00000000
00000000
00000000
00001030
00000001
00000100
00000000
;

//---------------dance-double - ----------------
#NOTES:
     dance-double:
     :
     Hard:
     7:
     0.376,0.411,0.042,0.042,0.286:
00000000
00000000
00000000
00000000
,
00000000
00000000
00000000
00000000
,
00000000
00000000
00000000
00000000
,
00000000
00000000
00000000
00000000
,
00010000
00000000
00000000
00000000
01000000
00000000
00000000
00100000
01000000
00000000
00010000
00000000
10000000
00000000
00000000
00000000
,
01000000
00000000
00000000
00000000
00100000
00000000
00000000
00100000
00001000
00000000
00010000
00000000
00001000
00000000
01000000
00000000
,
00010000
00000000
00000000
00000000
00100000
00000000
00000000
00001000
00010000
00000000
00001000
00000000
00010000
00000000
00000000
00000000
,
00000100
00000000
00000000
00000000
00001000
00000000
00000000
00001000
00000001
00000000
00000100
00000000
00000010
00000000
00000000
00000000
,
00000100
00000000
00000001
00000000
00001000
00000010
00000100
00000000
,
00000010
00000000
00010000
00000000
00001000
00100000
00011000
00000000
,
00001000
00000000
01000000
00000000
00100000
10000000
00010000
00000000
,
00100000
00000000
01000000
10000000
00000000
01000000
10000000
00000000
00000000
00000000
01000000
00000000
00100000
00000000
00000000
00000000
,
00010000
00000000
01000000
00000000
00001000
00010000
00000100
00000000
,
00000010
00000000
00000100
00000000
00001000
00000010
00001100
00000000
,
00000010
00000000
00000100
00000000
00000001
00001000
00000010
00000000
,
00010000
00000000
00000100
00001000
00000000
00000100
00001000
00000000
00000000
00000000
00000010
00000000
00000100
00000000
00000001
00000000
,
00002000
00000000
00000000
00000000
00000010
00000000
00000000
00000000
00003001
00000000
00000000
00000000
00000001
00000100
00000000
00000010
,
00000000
00001000
00000000
00000010
00000000
00010000
00000000
00001000
00000000
00010000
00000000
00000010
00000000
00000000
00000100
00000000
,
00000020
00000000
00000000
00000000
00010000
00000000
00000000
00000000
00001030
00000000
00000000
00000000
00000010
00001000
00000000
00000001
,
00000000
00000000
00000000
00000000
00001000
00000010
00000000
00010000
00000000
00001000
00000000
00000000
00010000
00000000
00001000
00000000
,
02000000
00000000
00000000
00000000
00100000
00000000
00000000
00000000
03010000
00000000
00000000
00000000
00010000
10000000
00000000
00100000
,
00000000
01000000
00000000
00001000
00000000
01000000
00000000
00010000
00000000
00100000
00000000
00001000
00000000
00000000
00100000
00000000
,
00020000
00000000
00000000
00000000
01000000
00000000
00000000
00000000
00130000
00000000
00000000
00000000
00100000
00010000
00000000
00010000
,
01000000
00000000
00100000
00000000
10000000
00010000
01000000
00000000
,
00010000
00000000
00000000
01000000
00000000
00000000
10000000
00000000
00000000
00000000
01000000
00000000
00100000
00000000
00000000
00000000
,
10000000
00000000
00000000
01000000
00000000
00000000
00010000
00000000
00000000
00001000
00000000
00010000
00000000
00000000
00000000
00000000
,
00001000
00000000
00000000
01000000
00000000
00000000
00010000
00000000
00000000
00000000
00100000
00000000
00001000
00000000
00000000
00000000
,
00010000
00000000
00010000
00001000
00000000
00001000
00010000
00000000
00000000
00000000
00000000
00000000
00001100
00000000
00000000
00000000
,
00001000
00000000
00000000
00000100
00000000
00000000
00000001
00000000
00000000
00000000
00000100
00000000
00000010
00000000
00000000
00000000
,
00000001
00000000
00000000
00000100
00000000
00000000
00001000
00000000
00000100
00001000
00000000
00001000
00010000
00000000
01000000
00000000
,
00100000
00000000
00000000
00001000
00000000
00000000
00010000
00000000
00000000
00000000
00001000
00000000
01000000
00000000
00000000
00000000
,
00010000
00000000
10000000
01000000
00000000
10000000
01000000
00000000
00000000
00000000
00000000
00000000
00110000
00000000
00000000
00000000
,
00100000
01000000
10000000
01000000
00100000
00010000
00000000
00010000
,
01000000
00001000
00010000
00000100
00010000
00001000
01000000
00000000
,
00010000
00100000
01000000
00100000
00001000
00010000
00000000
00010000
,
00000100
00000000
00001000
00000000
00000010
00000000
00000100
00000000
00000001
00000000
00001000
00000000
00000010
00001000
00000001
00000100
,
00000010
00001000
00000001
00001000
00000010
00010000
00000000
00010000
,
00000100
00001000
00000010
00010000
00001000
00100000
00001000
00000000
,
00010000
00001000
01000000
00100000
01000000
00001000
00000000
00001000
,
00100000
00010000
01000000
00100000
10000000
00010000
00100000
00000000
,
01000000
00000000
00000000
00100000
00000000
00000000
01000000
00000000
00000000
01000000
00000000
00000000
00000000
00000000
00100000
00000000
,
00010000
00000000
00000000
01000000
00000000
00000000
00010000
00000000
00000000
00000000
00010000
00100000
00000000
00000000
00001000
00000000
,
00010000
00000000
00000000
00001000
00000000
00000000
00010000
00000000
00000000
00010000
00000000
00000000
00000000
00000000
00000100
00000000
,
00001000
00000000
00000000
00000010
00000000
00000000
00001000
00000000
00000000
00000000
00001000
00000001
00000000
00000000
00000100
00000000
;
