#TITLE:Red Stars;
#SUBTITLE:;
#ARTIST:The Birthday Massacre;
#TITLETRANSLIT:;
#SUBTITLETRANSLIT:;
#ARTISTTRANSLIT:;
#GENRE:;
#CREDIT:;
#MENUCOLOR:;
#METERTYPE:DDR;
#BANNER:Red Stars-bn.png;
#BACKGROUND:Red Stars-bg.png;
#LYRICSPATH:Red Stars.lrc;
#CDTITLE:ddrencorecdtitle.png;
#MUSIC:Red Stars.mp3;
#OFFSET:-0.041;
#SAMPLESTART:60.040;
#SAMPLELENGTH:19.980;
#SELECTABLE:YES;
#LISTSORT:;
#DISPLAYBPM:192.000;
#BPMS:0.000=192.000,286.000=186.000,288.000=192.000;
#STOPS:;
#BGCHANGES:;
#ATTACKS:;

//---------------dance-single - ----------------
#NOTES:
     dance-single:
     :
     Challenge:
     9:
     0.571,0.705,0.800,0.225,0.000: // measure 1
0000
0000
0000
0000
,  // measure 2
0000
0000
0000
0000
,  // measure 3
0000
0000
0000
0000
,  // measure 4
0000
0000
0000
0000
,  // measure 5
0000
0000
0000
0000
,  // measure 6
0000
0000
0000
0000
,  // measure 7
0000
0000
0000
0000
,  // measure 8
0000
0000
0000
0000
,  // measure 9
1001
0000
1010
0000
0110
0100
0001
0000
,  // measure 10
0101
0001
0010
0000
0110
0100
1000
0000
,  // measure 11
1001
0001
0100
0000
1010
0010
0100
0000
,  // measure 12
0101
0001
1000
0000
2002
0000
3003
0000
,  // measure 13
0011
0000
1100
0000
1001
0001
0100
0000
,  // measure 14
0110
0010
1000
0000
1010
0010
0100
0000
,  // measure 15
0101
0001
1000
0000
1001
0001
0010
0000
,  // measure 16
0110
0100
1000
0000
2002
0000
3003
0000
,  // measure 17
1001
0000
0001
0100
0010
0000
1000
0000
,  // measure 18
0100
0010
0011
0000
,  // measure 19
0001
0000
1000
0010
0100
0000
0002
0000
,  // measure 20
0000
0010
0013
0000
,  // measure 21
0100
1000
0010
0000
,  // measure 22
0010
0001
0100
0000
,  // measure 23
0100
0000
1000
0001
0100
0000
0020
0000
,  // measure 24
0000
0100
0130
0000
,  // measure 25
0101
0000
0001
0010
0100
0000
1000
0000
,  // measure 26
0010
0100
0101
0000
,  // measure 27
0001
0000
0010
0100
1000
0000
0002
0000
,  // measure 28
0000
1000
1003
0000
,  // measure 29
0001
0100
1000
0000
,  // measure 30
1000
0010
0001
0000
,  // measure 31
1000
0000
0001
0100
0010
0000
2000
0000
,  // measure 32
0000
0001
3001
0000
,  // measure 33
1000
0000
1000
0010
0100
0000
0100
0001
,  // measure 34
0010
0000
0010
0100
1000
0000
0000
0000
,  // measure 35
0101
0000
0001
1000
0010
0000
0010
0100
,  // measure 36
0001
0000
0001
0010
0100
0000
0000
0000
,  // measure 37
1100
0000
1000
0010
0100
0000
0100
0001
,  // measure 38
1000
0000
1000
0001
0010
0000
0000
0000
,  // measure 39
0110
0000
0100
1000
0010
0000
0010
0100
,  // measure 40
0001
0000
0001
1000
0001
0010
0000
0100
,  // measure 41
1100
0000
1000
0010
0100
0000
0010
0001
,  // measure 42
0010
0000
0100
0010
1000
0000
0001
0000
,  // measure 43
0011
0000
0010
0100
1000
0000
1000
0010
,  // measure 44
0001
0000
0001
0010
0100
0000
0000
0000
,  // measure 45
0101
0000
0001
1000
0100
0000
0100
0001
,  // measure 46
0100
0000
0100
0010
0001
0000
0000
0000
,  // measure 47
1000
0010
0000
0001
0010
0000
0100
0001
,  // measure 48
0010
1100
0011
0000
,  // measure 49
1001
0001
0100
0010
1000
0000
1010
0000
,  // measure 50
0101
0011
1100
1001
,  // measure 51
1010
0010
0100
0001
0010
0000
0210
0000
,  // measure 52
1000
0000
0001
0000
0310
0000
0100
1000
,  // measure 53
1001
0001
0100
0010
1000
0000
1010
0000
,  // measure 54
0101
1001
1010
0110
,  // measure 55
0101
0001
0010
0100
1000
0000
1002
0000
,  // measure 56
0100
0010
1000
0013
,  // measure 57
0110
0100
1000
0001
0100
0000
0110
0000
,  // measure 58
0101
1001
0011
0110
,  // measure 59
1100
1000
0001
1000
0100
0000
0012
0000
,  // measure 60
1000
0000
0100
0000
1003
0000
0001
0100
,  // measure 61
0110
0010
1000
0001
0010
0000
1100
0000
,  // measure 62
0011
1100
1001
0101
,  // measure 63
0110
0100
0010
1000
0001
0000
2001
0000
,  // measure 64
0010
0001
3100
0000
,  // measure 65
1100
0000
0011
0000
1001
0001
0100
0000
,  // measure 66
0110
0010
1000
0000
1001
0001
0010
0000
,  // measure 67
0110
0010
0001
0000
1001
0001
0100
0000
,  // measure 68
0110
0010
0100
0000
0220
0000
0330
0000
,  // measure 69
0101
0000
1001
0000
0011
0010
0100
0000
,  // measure 70
1100
0100
0010
0000
1001
0001
0100
0000
,  // measure 71
0101
0100
0010
0000
1010
0010
0100
0000
,  // measure 72
0101
0001
1000
0000
2002
0000
3003
0000
,  // measure 73
1001
0001
0100
0000
0110
0010
1000
0000
,  // measure 74
1010
1000
0001
0000
1001
0001
0010
0000
,  // measure 75
0110
0100
1000
0000
1001
0001
0100
0000
,  // measure 76
0110
0010
1000
0000
2002
0000
3003
0000
,  // measure 77
0011
0010
0100
0000
1100
0100
0010
0000
,  // measure 78
0011
0001
0100
0000
0110
0010
1000
0000
,  // measure 79
1001
0001
0010
0000
0110
0100
0010
0000
,  // measure 80
0011
0001
1000
0000
2002
0000
3003
0000
,  // measure 81
2000
0000
0000
0000
,  // measure 82
0000
0000
0000
0010
,  // measure 83
3020
0000
0000
0000
,  // measure 84
0000
0000
0000
0100
,  // measure 85
0230
0000
0000
0000
,  // measure 86
0000
0000
0000
0001
,  // measure 87
0002
0000
0000
0000
,  // measure 88
0000
0000
0300
0000
,  // measure 89
2000
0000
0000
0000
,  // measure 90
0000
0000
0003
0000
,  // measure 91
0200
0000
0000
0000
,  // measure 92
0000
0000
3000
0000
,  // measure 93
0020
0000
0000
0000
,  // measure 94
0000
0000
0000
0000
,  // measure 95
0330
0000
0000
0000
;

//---------------dance-single - ----------------
#NOTES:
     dance-single:
     :
     Hard:
     8:
     0.450,0.665,0.250,0.242,0.000:
0000
0000
0000
0000
,
0000
0000
0000
0000
,
0000
0000
0000
0000
,
0000
0000
0000
0000
,
0000
0000
0000
0000
,
0000
0000
0000
0000
,
0000
0000
0000
0000
,
0000
0000
0000
0000
,
1001
0000
0101
0000
0100
0010
1000
0000
,
0001
0010
0100
0000
1000
0100
0010
0000
,
0001
0100
0010
0000
1000
0010
0100
0000
,
0001
0010
0100
0000
2200
0000
3300
0000
,
1001
0000
0101
0000
0100
0010
1000
0000
,
0001
0010
0100
0000
1000
0001
0100
0000
,
0010
1000
0010
0000
0100
0001
0010
0000
,
0100
1000
0001
0000
2002
0000
3003
0000
,
0001
0100
0010
2000
,
0000
0100
3100
0000
,
0010
0001
0100
0020
,
0000
0100
0130
0000
,
0002
0010
0013
0000
,
2000
0100
3100
0000
,
0001
0010
0100
2000
,
0000
0001
3001
0000
,
1000
0001
0100
0002
,
0000
0010
0013
0000
,
0100
1000
0001
0200
,
0000
0001
0301
0000
,
2000
0100
3100
0000
,
0002
0010
0013
0000
,
1000
0100
0010
0002
,
0000
1000
1003
0000
,
1000
0000
0001
0000
0100
0000
0000
0100
,
0010
0000
0000
0010
1000
0000
0000
0000
,
0001
0000
0010
0000
0100
0000
0000
0100
,
1000
0000
0000
1000
0001
0000
0000
0000
,
1000
0000
0001
0000
0100
0000
0000
0100
,
0010
0000
0000
0010
0100
0000
0000
0000
,
0001
0000
0010
0000
0001
0000
0000
0001
,
1000
0000
0000
1000
0010
0000
0000
0000
,
0100
0000
0001
0000
1000
0000
0000
1000
,
0001
0000
0000
0001
0010
0000
0000
0010
,
0100
0000
0000
0100
1000
0000
0000
1000
,
0010
0000
0000
0010
0100
0000
0000
0000
,
0001
0000
1000
0000
0100
0000
0000
0100
,
0010
0000
0000
0010
0001
0000
0000
0000
,
1000
0010
0000
0100
0001
0000
1000
0001
,
1000
1001
1001
0000
,
0001
1000
0100
1000
0010
0000
0100
0000
,
0001
0010
0100
1000
,
0001
0100
0010
1000
0001
0000
0010
0000
,
1000
0010
0001
0000
,
1000
0001
0010
0100
0010
0000
0001
0000
,
0100
0010
0100
0001
,
1000
0100
1000
0001
0100
0000
0010
0000
,
0001
0010
0100
1000
,
0100
0010
0100
0001
0010
0000
0100
0000
,
1000
0001
1000
0100
,
0010
0001
0100
0001
1000
0000
0010
0000
,
0100
1000
0100
0000
,
0001
0100
0010
1000
0001
0000
1000
0000
,
0100
0010
0001
1000
,
0001
1000
0100
1000
0001
0000
0100
0000
,
0010
1000
0010
0000
,
0110
0000
0101
0000
0001
1000
0100
0000
,
0100
0010
0001
0000
0001
1000
0001
0000
,
0001
0100
0010
0000
0010
1000
0100
0000
,
0100
0010
0001
0000
2002
0000
3003
0000
,
1001
0000
1010
0000
0010
0100
0001
0000
,
0001
0100
0010
0000
0010
1000
0100
0000
,
0100
0010
0001
0000
0001
0010
0100
0000
,
0100
1000
0010
0000
0220
0000
0330
0000
,
0100
0001
1001
0000
0001
0010
0110
0000
,
0100
1000
1001
0000
1000
0010
0110
0000
,
0100
0001
1001
0000
0001
0010
0110
0000
,
0100
1000
1001
0000
2020
0000
3030
0000
,
0010
0100
0101
0000
0001
1000
1001
0000
,
0001
0010
0011
0000
0010
0100
1100
0000
,
1000
0001
1001
0000
0001
0010
0011
0000
,
0010
0100
1100
0000
2002
0000
3003
0000
,
0002
0000
0000
0000
,
0000
0000
0000
0000
,
0203
0000
0000
0000
,
0000
0000
0000
0000
,
0320
0000
0000
0000
,
0000
0000
0000
0000
,
2000
0000
0000
0000
,
0000
0000
0030
0000
,
0002
0000
0000
0000
,
0000
0000
3000
0000
,
0020
0000
0000
0000
,
0000
0000
0003
0000
,
0200
0000
0000
0000
,
0000
0000
0000
0000
,
0330
0000
0000
0000
;

//---------------dance-single - ----------------
#NOTES:
     dance-single:
     :
     Medium:
     5:
     0.353,0.470,0.242,0.375,0.000:
0000
0000
0000
0000
,
0000
0000
0000
0000
,
0000
0000
0000
0000
,
0000
0000
0000
0000
,
0000
0000
0000
0000
,
0000
0000
0000
0000
,
0000
0000
0000
0000
,
0000
0000
0000
0000
,
0001
0010
0100
1000
,
0001
0100
0001
1000
,
0010
0100
0001
0010
,
0100
1000
0002
0000
,
1003
0010
0100
0010
,
1000
0001
0010
0100
,
1000
0001
0100
0001
,
1000
0010
0200
0000
,
0310
0000
1000
0000
,
0001
0010
0100
0000
,
1000
0001
1000
0001
,
0100
0010
0100
0000
,
0002
0000
2003
0000
,
3200
0000
0320
0000
,
0031
0000
1000
0010
,
0100
0001
1000
0000
,
1001
0000
0001
0000
,
0010
0100
1000
0000
,
0010
0100
0010
1000
,
0001
0010
0001
0000
,
0020
0000
0230
0000
,
2300
0000
3002
0000
,
0103
0010
1000
0010
,
0100
0001
1000
0000
,
1001
0000
0002
0000
,
0203
0000
0320
0030
,
0110
0000
0020
0000
,
2030
0000
3002
0003
,
1001
0000
0002
0000
,
0023
0000
0230
0300
,
0110
0000
0200
0000
,
2300
0000
3020
0030
,
0110
0000
0200
0000
,
0302
0000
2003
0000
,
3200
0000
2300
0000
,
3002
0000
0203
0300
,
0101
0000
0002
0000
,
2003
0000
3020
0000
,
0130
0000
0000
0000
0001
0000
0000
1000
,
0001
1000
1001
0000
,
0001
0000
1000
0100
1000
0000
0001
0000
,
0100
0000
0110
0000
,
0010
0000
1000
0001
1000
0000
0001
0000
,
0010
0001
0010
0000
,
0100
0000
1000
0001
1000
0000
0010
0000
,
0100
0000
0101
0000
,
0001
0000
1000
0100
1000
0000
0010
0000
,
0100
0001
0100
0010
,
1000
0000
0001
0010
0001
0000
0010
0000
,
0100
0000
1100
0000
,
1000
0000
0001
0100
0001
0000
0100
0000
,
0010
0100
0010
0000
,
0100
0000
0001
1000
0001
0000
0010
0000
,
0100
0000
1100
0000
,
1000
0000
0001
1000
0001
0000
0100
0000
,
0010
1000
0010
0000
,
0100
0001
1000
0100
,
0010
0001
1000
0001
,
1000
0010
1000
0100
,
0010
0001
0200
0000
,
0310
1000
0010
0100
,
0010
1000
0001
0010
,
0100
0010
0001
1000
,
0001
0100
0020
0030
,
1010
0000
0101
0000
,
1001
0000
0011
0000
,
0110
0000
1100
0000
,
1001
0000
0202
0303
,
0101
0000
1001
0000
,
0011
0000
0110
0000
,
1100
0000
1001
0000
,
0101
0000
0220
0330
,
2001
0000
0000
0000
,
0000
0000
0000
0000
,
3200
0000
0000
0000
,
0000
0000
0000
0000
,
0320
0000
0000
0000
,
0000
0000
0000
0000
,
0032
0000
0000
0000
,
0000
0000
0000
0000
,
0203
0000
0000
0000
,
0000
0000
0000
0000
,
0320
0000
0000
0000
,
0000
0000
0000
0000
,
2000
0000
0000
0000
,
0000
0000
0000
0000
,
3030
0000
0000
0000
;

//---------------dance-single - ----------------
#NOTES:
     dance-single:
     :
     Easy:
     3:
     0.180,0.274,0.042,0.017,0.000:
0000
0000
0000
0000
,
0000
0000
0000
0000
,
0000
0000
0000
0000
,
0000
0000
0000
0000
,
0000
0000
0000
0000
,
0000
0000
0000
0000
,
0000
0000
0000
0000
,
0000
0000
0000
0000
,
0001
0000
0100
0000
,
0001
0000
1000
0000
,
0100
0000
0010
0000
,
0001
0000
0000
0000
,
1000
0000
0010
0000
,
1000
0000
0100
0000
,
0010
0000
0001
0000
,
0100
0000
0000
0000
,
0110
0000
0000
0000
,
0100
0000
0000
0000
,
0001
0000
1000
0000
,
0100
0000
0000
0000
,
1000
0000
0001
0000
,
1000
0000
0010
0000
,
0100
0000
0010
0000
,
0100
0000
0000
0000
,
0001
0000
0010
0000
,
0100
0000
0000
0000
,
1000
0000
0001
0000
,
1000
0000
0000
0000
,
0010
0000
1000
0000
,
0010
0000
0100
0000
,
0001
0000
0010
0000
,
0100
0000
0000
0000
,
1000
0000
0001
0000
,
0100
0000
0001
0000
,
0000
0000
1000
0000
,
0010
0000
1000
0000
,
0000
0000
0001
0000
,
0010
0000
0001
0000
,
0000
0000
1000
0000
,
0100
0000
1000
0000
,
0000
0000
0001
0000
,
0100
0000
0010
0000
,
1000
0000
0010
0000
,
0100
0000
0001
0000
,
0000
0000
1000
0000
,
0001
0000
1000
0000
,
0010
0000
0100
0000
,
0010
1000
0010
0000
,
1000
0000
0100
0000
,
0010
0000
0001
0000
,
1000
0000
0100
0000
,
1000
0001
1000
0000
,
0100
0000
0010
0000
,
0001
0000
1000
0000
,
0001
0000
0100
0000
,
0010
1000
0010
1000
,
0010
0000
1000
0000
,
0001
0000
0010
0000
,
0001
0000
0100
0000
,
0010
0100
0010
0000
,
1000
0000
0001
0000
,
0010
0000
0001
0000
,
0100
0000
0010
1000
,
0001
1000
0010
0000
,
0100
0000
0010
0000
,
1000
0000
0100
0000
,
0010
0000
0001
0000
,
1000
0000
1001
0000
,
1000
0000
0010
0000
,
0100
0000
0001
0000
,
0010
0000
0001
0000
,
1000
0000
1100
0000
,
0100
0000
0010
0000
,
0001
0000
1000
0000
,
0010
0000
1000
0000
,
0001
0000
0101
0000
,
0100
0000
0010
0000
,
1000
0000
0001
0000
,
0010
0000
0100
0000
,
1000
0000
1001
0000
,
1000
0000
0000
0000
,
0000
0000
0000
0000
,
0010
0000
0000
0000
,
0000
0000
0000
0000
,
1000
0000
0000
0000
,
0000
0000
0000
0000
,
0001
0000
0000
0000
,
0000
0000
0000
0000
,
0010
0000
0000
0000
,
0000
0000
0000
0000
,
0002
0000
0000
0000
,
0000
0000
0000
0000
,
2000
0000
0000
0000
,
0000
0000
0000
0000
,
3003
0000
0000
0000
;

//---------------dance-single - ----------------
#NOTES:
     dance-single:
     :
     Beginner:
     1:
     0.126,0.196,0.008,0.000,0.000:
0000
0000
0000
0000
,
0000
0000
0000
0000
,
0000
0000
0000
0000
,
0000
0000
0000
0000
,
0000
0000
0000
0000
,
0000
0000
0000
0000
,
0000
0000
0000
0000
,
0000
0000
0000
0000
,
1001
0000
0000
0000
,
0001
0000
0000
0000
,
0100
0000
0000
0000
,
0010
0000
0100
0000
,
0001
0000
0000
0000
,
1000
0000
0000
0000
,
0100
0000
0000
0000
,
0010
0000
0001
0000
,
1000
0000
0000
0000
,
0010
0000
0000
0000
,
1000
0000
0000
0000
,
0001
0000
0000
0000
,
0010
0000
0100
0000
,
0010
0000
0000
0000
,
0100
0000
1000
0000
,
0100
0000
0000
0000
,
1000
0000
0000
0000
,
0001
0000
0000
0000
,
0100
0000
0000
0000
,
0001
0000
0000
0000
,
1000
0000
0010
0000
,
1000
0000
0000
0000
,
0010
0000
0100
0000
,
0010
0000
0000
0000
,
0100
0000
0000
0000
,
0001
0000
0000
0000
,
1000
0000
0000
0000
,
0100
0000
0000
0000
,
1000
0000
0000
0000
,
0001
0000
0000
0000
,
0100
0000
0001
0000
,
0010
0000
0000
0000
,
0100
0000
0000
0000
,
1000
0000
0000
0000
,
0001
0000
0000
0000
,
0100
0000
0000
0000
,
0001
0000
0000
0000
,
1000
0000
0000
0000
,
0010
0000
0100
0000
,
0010
0000
0100
0000
,
0001
0000
0000
0000
,
0010
0000
0000
0000
,
0100
0000
1000
0000
,
0001
0000
0000
0000
,
0100
0000
0000
0000
,
0010
0000
0000
0000
,
1000
0000
0001
0000
,
0010
0000
0100
0000
,
1000
0000
0000
0000
,
0010
0000
0000
0000
,
1000
0000
0010
0000
,
0100
0000
0000
0000
,
0001
0000
0000
0000
,
1000
0000
0000
0000
,
0001
0000
0010
0000
,
0100
0000
0010
0000
,
0001
0000
0000
0000
,
1000
0000
0000
0000
,
0001
0000
0000
0000
,
0100
0000
0010
0000
,
1000
0000
0000
0000
,
0001
0000
0000
0000
,
0010
0000
0000
0000
,
0100
0000
1000
0000
,
0001
0000
0001
0000
,
0100
0000
0100
0000
,
0010
0000
0010
0000
,
1000
0000
1000
0000
,
0001
0000
0001
0000
,
1000
0000
1000
0000
,
0100
0000
0100
0000
,
0010
0000
0010
0000
,
0001
0000
0000
0000
,
0000
0000
0000
0000
,
1000
0000
0000
0000
,
0000
0000
0000
0000
,
0010
0000
0000
0000
,
0000
0000
0000
0000
,
0100
0000
0000
0000
,
0000
0000
0000
0000
,
0010
0000
0000
0000
,
0000
0000
0000
0000
,
1000
0000
0000
0000
,
0000
0000
0000
0000
,
0001
0000
0000
0000
,
0000
0000
0000
0000
,
0010
0000
0000
0000
;

//---------------dance-double - ----------------
#NOTES:
     dance-double:
     :
     Challenge:
     8:
     0.528,0.705,0.625,0.258,0.000:
00000000
00000000
00000000
00000000
,
00000000
00000000
00000000
00000000
,
00000000
00000000
00000000
00000000
,
00000000
00000000
00000000
00000000
,
00000000
00000000
00000000
00000000
,
00000000
00000000
00000000
00000000
,
00000000
00000000
00000000
00000000
,
00000000
00000000
00000000
00000000
,
10000000
00100000
01000000
00000000
00010000
01000000
00100000
00000000
,
10000000
01000000
00100000
00000000
00010000
00100000
01000000
00000000
,
10000000
00010000
01000000
00000000
00010000
00100000
01000000
00000000
,
00100000
00001000
00010000
00000000
00022000
00000000
00033000
00000000
,
00010000
00000100
00001000
00000000
00000010
00000100
00000001
00000000
,
00000010
00000100
00001000
00000000
00000100
00000010
00000001
00000000
,
00001000
00000010
00000100
00000000
00000001
00000100
00000010
00000000
,
00001000
00000100
00010000
00000000
00022000
00000000
00033000
00000000
,
00001000
01000000
01010000
00010000
,
00000000
00000000
10000000
00000000
11000000
00000000
00000000
10000000
,
00010000
00100000
00110000
00010000
,
00000000
01000000
01001000
00000000
,
00001000
00010000
00010100
00000100
,
00000000
00000000
00001000
00000000
00001010
00000000
00000000
00000010
,
00000100
00000001
00000011
00000010
,
00000000
00000100
00001000
00000000
00001001
00000000
00000001
00000100
,
00000010
00001000
00001100
00000100
,
00000000
00000000
00010000
00000000
00011000
00000000
00000000
00001000
,
01000000
00100000
10100000
00100000
,
00000000
01000000
01010000
00000000
,
00010000
00100000
11000000
00100000
,
00000000
00000000
00010000
00000000
01010000
00000000
00000000
01000000
,
00010000
00100000
00101000
00001000
,
00000000
00010000
00010100
00000000
,
00001000
00000100
00001100
00000100
,
00000010
00000001
00000101
00000100
,
00000010
00001000
00001100
00000100
,
00010000
00001000
00011000
00001000
,
01000000
00100000
01100000
00100000
,
10000000
01000000
11000000
10000000
,
00010000
00100000
00110000
00100000
,
01000000
00000000
10000000
00000000
00010000
01000000
00000000
01000000
,
00001000
00010000
00011000
00010000
,
00000100
00001000
00001100
00000100
,
00000010
00000001
00001001
00000001
,
00000100
00000010
00001010
00001000
,
00000100
00010000
00011000
00001000
,
01000000
00100000
10100000
00100000
,
10000000
01000000
00000000
00100000
00001000
00000000
00010000
00001000
,
00010000
00010100
00011000
00000000
,
00021000
00000000
00001000
00001000
00031000
00000000
00010000
00000100
,
00001000
00001001
00000101
00000110
,
00001020
00000000
00001000
00001000
00001030
00000000
00001002
00000000
,
00000010
00000100
00000013
00000000
,
00000120
00000000
00000100
00000100
00000130
00000000
00001000
00000001
,
00000100
00000110
00001010
00001100
,
00010200
00000000
00010000
00010000
00010300
00000000
00012000
00000000
,
00100000
00010000
01000000
00013000
,
01002000
00000000
01000000
01000000
01003000
00000000
00100000
01000000
,
00010000
10010000
00110000
01100000
,
21000000
00000000
01000000
01000000
31000000
00000000
20010000
00000000
,
00100000
01000000
30100000
00000000
,
20100000
00000000
00100000
00100000
30100000
00000000
01000000
00010000
,
00100000
00110000
00101000
00011000
,
00020100
00000000
00000100
00000100
00030100
00000000
00002100
00000000
,
00000100
00000001
00003010
00000000
,
00001000
00000010
00000100
00000000
00000001
00001000
00000100
00000000
,
00000010
00000001
00000010
00000100
00001000
00000001
00000100
00000000
,
00000010
00001000
00000100
00000000
00010000
00001000
00010000
00000000
,
00001000
01000000
00100000
00000000
02200000
00000000
03300000
00000000
,
01000000
00010000
00100000
00000000
00010000
10000000
01000000
00000000
,
00100000
00010000
01000000
00100000
10000000
00100000
01000000
00000000
,
00010000
00100000
01000000
00000000
10000000
01000000
00100000
00000000
,
00010000
01000000
00001000
00000000
00022000
00000000
00033000
00000000
,
00011000
00010000
00000100
00000000
00001100
00000100
00000010
00000000
,
00000011
00000001
00000100
00000000
00000110
00000010
00001000
00000000
,
00001100
00000100
00000010
00000000
00000011
00000010
00000100
00000000
,
00001100
00001000
00000001
00000000
00002002
00000000
00003003
00000000
,
00000101
00000100
00000010
00000000
00001010
00001000
00000100
00000000
,
00010100
00000100
00010000
00000000
00011000
00001000
01000000
00000000
,
01010000
00010000
10000000
00000000
10100000
00100000
01000000
00000000
,
01010000
00010000
10000000
00000000
20020000
00000000
30030000
00000000
,
20000000
00000000
00000000
00000000
,
00000000
00000000
00000000
01000000
,
32000000
00000000
00000000
00000000
,
00000000
00000000
00000000
00100000
,
03200000
00000000
00000000
00000000
,
00000000
00000000
00000000
00010000
,
00020000
00000000
00000000
00000000
,
00000000
00000000
00300000
00000000
,
02000000
00000000
00000000
00000000
,
00000000
00000000
00030000
00000000
,
00002000
00000000
00000000
00000000
,
00000000
00000000
03000000
00000000
,
00020000
00000000
00000000
00000000
,
00000000
00000000
00000000
00000000
,
00033000
00000000
00000000
00000000
;

//---------------dance-double - ----------------
#NOTES:
     dance-double:
     :
     Hard:
     8:
     0.471,0.587,0.233,0.283,0.000:
00000000
00000000
00000000
00000000
,
00000000
00000000
00000000
00000000
,
00000000
00000000
00000000
00000000
,
00000000
00000000
00000000
00000000
,
00000000
00000000
00000000
00000000
,
00000000
00000000
00000000
00000000
,
00000000
00000000
00000000
00000000
,
00000000
00000000
00000000
00000000
,
10010000
00000000
00010000
00000000
01000000
00100000
10000000
00000000
,
01000000
00100000
00010000
00000000
01000000
00010000
00100000
00000000
,
00001000
00010000
00001000
00000000
00010000
00000010
00000100
00000000
,
00000010
00001000
00000001
00000000
00002002
00000000
00003003
00000000
,
00000001
00000010
00000100
00000000
00000010
00000100
00001000
00000000
,
00000001
00000100
00000010
00000000
00000100
00000010
00001000
00000000
,
00000100
00010000
00001000
00000000
00010000
00001000
01000000
00000000
,
00100000
01000000
00010000
00000000
20020000
00000000
30030000
00000000
,
10000000
00000000
01000000
00100000
00010000
00000000
02000000
00000000
,
00000000
00100000
03100000
00000000
,
01000000
00010000
00100000
02000000
,
00000000
10000000
13000000
00000000
,
10000000
00100000
01000000
00010000
,
01000000
00000000
00100000
00000000
10000000
00000000
01000000
00100000
,
00001000
00001000
00010000
00002000
,
00000000
00100000
00103000
00000000
,
00001000
00000000
00010000
00000010
00000100
00000000
00000002
00000000
,
00000000
00001000
00001003
00000000
,
00000001
00000010
00000100
00002000
,
00000000
00000010
00003010
00000000
,
00000100
00000001
00000100
00000010
,
00001000
00000000
00000100
00000000
00000010
00000000
00000100
00010000
,
00001000
00010000
00000010
00000200
,
00000000
00000001
00000301
00000000
,
00000001
00000000
00001000
00000000
00000100
00000000
00001000
00000001
,
00001000
00000000
00000001
00000100
00000002
00000000
00000000
00000000
,
00000103
00000000
00000010
00000000
00001000
00000000
00000100
00001000
,
00000100
00000000
00010000
00001000
00020000
00000000
00000000
00000000
,
00031000
00000000
01000000
00000000
00100000
00000000
10000000
00100000
,
10000000
00000000
00010000
01000000
00020000
00000000
00000000
00000000
,
10030000
00000000
01000000
00000000
00100000
00000000
00001000
00100000
,
00001000
00000000
00010000
00001000
00020000
00000000
00000000
00000000
,
00030100
00000000
00001000
00000000
00000010
00000000
00000100
00000001
,
00000100
00000000
00000010
00001000
00000020
00000000
00000000
00000000
,
00001030
00000000
00000001
00000010
00000001
00000000
00000010
00000100
,
00000010
00000000
00000100
00001000
00000200
00000000
00000000
00000000
,
00001300
00000000
00000010
00000000
00000100
00000000
00000010
00001000
,
00000100
00000000
00010000
00001000
00020000
00000000
00000000
00000000
,
00031000
01000000
00000000
00010000
00100000
00000000
01000000
10000000
,
00100000
01010000
00022000
00033000
,
00001000
00000000
00010000
00000100
00001000
00000000
00000010
00000000
,
00000100
00000001
00000010
00000100
,
00010000
00000000
00001000
01000000
00100000
00000000
10100000
00000000
,
01010000
10010000
11000000
00000000
,
00100000
00000000
00010000
00100000
01000000
00000000
10000000
00000000
,
00100000
01000000
00001000
00010000
,
00001000
00000000
01000000
00100000
10000000
00000000
11000000
00000000
,
00110000
10010000
01010000
10100000
,
00100000
00000000
01000000
00010000
00100000
00000000
00001000
00000000
,
00010000
00000010
00000100
00000001
,
00000010
00000000
00000100
00001000
00000010
00000000
00001010
00000000
,
00000101
00001010
00000101
00000000
,
00000001
00000000
00001000
00000100
00000010
00000000
00000100
00000000
,
00001000
00000010
00000100
00000001
,
00000010
00000000
00000100
00010000
00001000
00000000
00011000
00000000
,
00011000
00110000
01100000
00000000
,
11000000
00000000
10000000
00000000
00010000
01000000
00100000
00000000
,
10000000
00100000
01000000
00000000
00010000
00100000
01000000
00000000
,
00100000
00001000
00010000
00000000
00000100
00001000
00000010
00000000
,
00000100
00000001
00000010
00000000
00000220
00000000
00000330
00000000
,
00001100
00000000
00001000
00000000
00000010
00001000
00000100
00000000
,
00010000
00001000
01000000
00000000
00100000
10000000
00010000
00000000
,
00100000
00001000
00010000
00000000
00000010
00000100
00000001
00000000
,
00000010
00000100
00010000
00000000
00022000
00000000
00033000
00000000
,
00001000
01000000
00100000
00000000
00100000
01000000
00001000
00000000
,
00010000
00000100
00001000
00000000
00001000
00000100
00010000
00000000
,
00001000
00100000
01000000
00000000
01000000
00100000
00001000
00000000
,
00010000
00000010
00000100
00000000
00000220
00000000
00000330
00000000
,
00000100
00000001
00001000
00000000
00001000
00000001
00000100
00000000
,
00000010
00001000
00000100
00000000
00000100
00001000
00000010
00000000
,
00010000
00000100
00001000
00000000
00001000
00000100
00010000
00000000
,
00001000
01000000
00100000
00000000
02200000
00000000
03300000
00000000
,
00200000
00000000
00000000
00000000
,
00000000
00000000
00000000
00000000
,
20300000
00000000
00000000
00000000
,
00000000
00000000
00000000
00000000
,
30200000
00000000
00000000
00000000
,
00000000
00000000
00000000
00000000
,
02000000
00000000
00000000
00000000
,
00000000
00000000
00300000
00000000
,
00002000
00000000
00000000
00000000
,
00000000
00000000
03000000
00000000
,
00020000
00000000
00000000
00000000
,
00000000
00000000
00003000
00000000
,
00000200
00000000
00000000
00000000
,
00000000
00000000
00000000
00000000
,
00030300
00000000
00000000
00000000
;

//---------------dance-double - ----------------
#NOTES:
     dance-double:
     :
     Medium:
     6:
     0.358,0.431,0.067,0.300,0.000:
00000000
00000000
00000000
00000000
,
00000000
00000000
00000000
00000000
,
00000000
00000000
00000000
00000000
,
00000000
00000000
00000000
00000000
,
00000000
00000000
00000000
00000000
,
00000000
00000000
00000000
00000000
,
00000000
00000000
00000000
00000000
,
00000000
00000000
00000000
00000000
,
10000000
00100000
01000000
00100000
,
10000000
01000000
00100000
00010000
,
01000000
00010000
00100000
00001000
,
00010000
00000010
00001010
00000000
,
00001000
00000001
00000010
00000100
,
00001000
00000010
00000100
00000010
,
00010000
00001000
01000000
00100000
,
10000000
00010000
10010000
00000000
,
00010000
00000000
00100000
00000000
,
01000000
10000000
00010000
00000000
,
10000000
00100000
01000000
00010000
,
00010000
00010000
00100000
00000000
,
01000000
10000000
02000000
00000000
,
13000000
00010000
20000000
00000000
,
30100000
01000000
00010000
00100000
,
00100000
00100000
00001000
00000000
,
00010000
00000000
00000010
00000000
,
00000100
00000001
00000010
00000000
,
00000100
00001000
00000001
00000100
,
00000100
00000100
00000001
00000000
,
00001000
00000100
00002000
00000000
,
00003010
00010000
00000020
00000000
,
00010030
00000100
00001000
00000010
,
00000010
00000010
00010000
00000000
,
00001000
00010000
00002000
00000000
,
02003000
00000000
03200000
00000000
,
10300000
00010000
00200000
00000000
,
00320000
00000000
02030000
00000000
,
03010000
00100000
00002000
00000000
,
00023000
00000000
00030020
00000000
,
00000130
00000001
00000020
00000000
,
00000230
00000000
00002300
00000000
,
00003100
00010000
00002000
00000000
,
02003000
00000000
03200000
00000000
,
01300000
00000000
00020000
00000000
,
00230000
00000000
00302000
00000000
,
00013000
00000010
00002000
00000000
,
00003200
00000000
00020300
00000000
,
00031000
00000000
00000000
00000000
01000000
00000000
00100000
01000000
,
00100000
01000000
01010000
00000000
,
00010000
00000000
10000000
00010000
10000000
00000000
00010000
00000000
,
01000000
00100000
10000000
01000000
,
00100000
00000000
00001000
00010000
00001000
00000000
00010000
00000000
,
00010000
00010000
00000010
00000000
,
00000100
00000000
00000001
00000100
00000001
00000000
00001000
00000000
,
00000100
00000010
00000100
00001000
,
00000010
00000000
00000100
00000001
00000100
00000000
00000010
00000000
,
00000010
00000010
00001000
00000100
,
00010000
00000000
00001000
00010000
00001000
00000000
00100000
00000000
,
00010000
01000000
00100000
10000000
,
01000000
00000000
00100000
00010000
00100000
00000000
01000000
00000000
,
01000000
01000000
10000000
00000000
,
00010000
00000000
01000000
00100000
01000000
00000000
00010000
00000000
,
00100000
00001000
00010000
00000010
,
00000100
00000000
00000001
00001000
00000001
00000000
00000100
00000000
,
00000100
00000100
00000010
00000000
,
00001000
00000100
00000010
00000001
,
00000100
00000010
00000100
00000001
,
00000010
00000100
00010000
00001000
,
01000000
00100000
01100000
00000000
,
01000000
00010000
10000000
01000000
,
00100000
00001000
00010000
00000010
,
00000100
00000001
00000010
00000100
,
00010000
00001000
00011000
00000000
,
01001000
01000000
00100000
10000000
,
01000000
00100000
00010000
00100000
,
01000000
10000000
00100000
01000000
,
00001000
00010000
00022000
00033000
,
00010000
00000100
00001000
00000010
,
00000100
00000001
00000010
00000100
,
00001000
00000100
00001000
00000010
,
00010000
00001000
00022000
00033000
,
00002000
00000000
00000000
00000000
,
00000000
00000000
00000000
00000000
,
02003000
00000000
00000000
00000000
,
00000000
00000000
00000000
00000000
,
03200000
00000000
00000000
00000000
,
00000000
00000000
00000000
00000000
,
20300000
00000000
00000000
00000000
,
00000000
00000000
00000000
00000000
,
30200000
00000000
00000000
00000000
,
00000000
00000000
00000000
00000000
,
02300000
00000000
00000000
00000000
,
00000000
00000000
00000000
00000000
,
00002000
00000000
00000000
00000000
,
00000000
00000000
00000000
00000000
,
03003000
00000000
00000000
00000000
;

//---------------dance-double - ----------------
#NOTES:
     dance-double:
     :
     Easy:
     3:
     0.194,0.313,0.008,0.067,0.000:
00000000
00000000
00000000
00000000
,
00000000
00000000
00000000
00000000
,
00000000
00000000
00000000
00000000
,
00000000
00000000
00000000
00000000
,
00000000
00000000
00000000
00000000
,
00000000
00000000
00000000
00000000
,
00000000
00000000
00000000
00000000
,
00000000
00000000
00000000
00000000
,
10000000
00000000
00100000
00000000
,
01000000
00000000
00100000
00000000
,
10000000
00000000
01000000
00000000
,
00100000
00000000
00020000
00000000
,
00130000
00000000
00001000
00000000
,
00010000
00000000
00000010
00000000
,
00000100
00000000
00000010
00000000
,
00001000
00000000
00000200
00000000
,
00010300
00000000
00000000
00000000
,
00001000
00000000
00000000
00000000
,
01000000
00000000
00100000
00000000
,
10000000
00000000
00000000
00000000
,
00010000
00000000
00100000
00000000
,
00010000
00000000
01000000
00000000
,
00001000
00000000
00001000
00000000
,
00001000
00000000
00000000
00000000
,
00010000
00000000
00000000
00000000
,
00000010
00000000
00000000
00000000
,
00000100
00000000
00000010
00000000
,
00001000
00000000
00000000
00000000
,
00000100
00000000
00001000
00000000
,
00000100
00000000
00010000
00000000
,
00001000
00000000
00001000
00000000
,
00001000
00000000
00000000
00000000
,
01000000
00000000
00100000
00000000
,
01000000
00000000
00100000
00000000
,
01000000
00000000
00010000
00000000
,
00100000
00000000
00010000
00000000
,
10000000
00000000
00010000
00000000
,
01000000
00000000
00010000
00000000
,
00100000
00000000
00001000
00000000
,
00010000
00000000
00001000
00000000
,
00010000
00000000
00000010
00000000
,
00000100
00000000
00000010
00000000
,
00001000
00000000
00000100
00000000
,
00010000
00000000
00000100
00000000
,
00010000
00000000
00000010
00000000
,
00000100
00000000
00000010
00000000
,
00001000
00000000
00000100
00000000
,
00010000
00001000
00010000
00000000
,
00011000
00000000
00001000
00000000
,
01000000
00100000
10000000
00000000
,
01000000
00000000
10000000
00000000
,
00100000
00100000
00100000
00000000
,
01000000
00000000
00010000
00000000
,
00100000
00001000
00100000
00000000
,
00010000
00000000
01000000
00100000
,
00100000
00100000
01000000
00010000
,
00100000
00000000
00001000
00000000
,
00010000
00001000
00010000
00000000
,
00000010
00000000
00000100
00000000
,
00000001
00000001
00000001
00000000
,
00000010
00000000
00000100
00000000
,
00001000
00000001
00000100
00000000
,
00000010
00000000
00000100
00000000
,
00000001
00001000
00000001
00000000
,
00000001
00000000
00000100
00000000
,
00000001
00000000
00000010
00000000
,
00000100
00000000
00010000
00000000
,
00001000
00000000
02000000
00000000
,
03100000
00000000
10000000
00000000
,
00100000
00000000
01000000
00000000
,
00010000
00000000
00100000
00000000
,
00001000
00000000
00020000
00000000
,
00031000
00000000
00010000
00000000
,
00000010
00000000
00000100
00000000
,
00000001
00000000
00000010
00000000
,
00000100
00000000
00002000
00000000
,
00003010
00000000
00000100
00000000
,
00000010
00000000
00010000
00000000
,
00001000
00000000
01000000
00000000
,
00100000
00000000
20000000
00000000
,
30010000
00000000
00000000
00000000
,
00000000
00000000
00000000
00000000
,
00100000
00000000
00000000
00000000
,
00000000
00000000
00000000
00000000
,
00010000
00000000
00000000
00000000
,
00000000
00000000
00000000
00000000
,
01000000
00000000
00000000
00000000
,
00000000
00000000
00000000
00000000
,
00100000
00000000
00000000
00000000
,
00000000
00000000
00000000
00000000
,
20000000
00000000
00000000
00000000
,
00000000
00000000
00000000
00000000
,
00020000
00000000
00000000
00000000
,
00000000
00000000
00000000
00000000
,
30030000
00000000
00000000
00000000
;
