#TITLE:Raindrops;
#SUBTITLE:;
#ARTIST:DJ PlocX;
#TITLETRANSLIT:;
#SUBTITLETRANSLIT:;
#ARTISTTRANSLIT:;
#GENRE:;
#CREDIT:;
#MENUCOLOR:;
#METERTYPE:DDR;
#BANNER:Raindrops-bn.png;
#BACKGROUND:Raindrops-bg.png;
#LYRICSPATH:;
#CDTITLE:ddrencorecdtitle.png;
#MUSIC:Raindrops.mp3;
#OFFSET:-0.045;
#SAMPLESTART:46.286;
#SAMPLELENGTH:13.242;
#SELECTABLE:YES;
#LISTSORT:;
#BPMS:0.000=144.995;
#STOPS:;
#BGCHANGES:;
#ATTACKS:;

//---------------dance-double - ----------------
#NOTES:
     dance-double:
     :
     Easy:
     5:
     0.275,0.331,0.026,0.137,0.000:
00000000
00000000
00000000
00000000
,
00000000
00000000
00000000
00000000
,
00000000
00000000
00000000
00000000
,
00000000
00000000
00000000
00000000
,
10000000
01000000
00100000
00001000
,
00010000
00000100
00000010
00000001
,
00000100
00000010
00010000
00001000
,
00022000
00000000
00000000
00033000
,
00010000
00001000
00100000
00010000
,
01000000
00000000
00100000
00000000
,
01000000
00010000
00100000
01000000
,
10000000
00000000
00010000
00000000
,
10000000
01000000
00100000
00001000
,
00010000
00000000
00000100
00000000
,
00010000
00000100
00001000
00000010
,
00000100
00000000
00000010
00000000
,
00001000
00000100
00000010
00000001
,
00001000
00000010
00001000
00000000
,
00000010
00001000
00000100
00010000
,
00001000
01000000
00001000
00000000
,
00100000
00010000
01000000
00100000
,
10000000
00010000
10000000
00000000
,
01000000
00100000
00001000
00010000
,
00000100
00001000
00000100
00000000
,
00000010
00000010
00000010
00000000
,
00000100
00000100
00000100
00000000
,
00001000
00001000
00001000
00000000
,
00000001
00000001
00000001
00000000
,
00000100
00000010
00000100
00000001
,
00001000
00000010
00000100
00000010
,
00001000
00000100
00010000
00001000
,
01000000
00010000
00200000
00000000
,
01300000
00100000
00010000
10000000
,
00100000
01000000
00001000
00010000
,
00000100
00010000
00001000
01000000
,
00100000
10000000
00020000
00000000
,
20030000
00000000
00000000
00000000
,
30020000
00000000
00000000
00000000
,
00230000
00000000
00000000
00000000
,
00302000
00000000
00000000
00000000
,
00013000
00000100
00001000
00000010
,
00000100
00000001
00001000
00000100
,
00010000
00010000
00001000
00001000
,
00100000
00010000
01000000
00000000
,
00100000
01000000
00010000
00000000
,
01000000
00001000
00010000
00000000
,
00010000
00000100
00001000
00000000
,
00000010
00000000
00000100
00000000
,
00000010
00001000
00000001
00000000
,
00000010
00000001
00001000
00000000
,
00000100
00010000
00001000
00000000
,
00010000
00000000
00001000
00000000
,
00010000
00000100
00020000
00000000
,
00030010
00001000
00000020
00000000
,
00000130
00000001
00000100
00000010
,
00001000
00000000
00000100
00000000
00010000
00001000
00010000
00000000
,
00001000
00100000
00002000
00000000
,
00013000
00000100
00020000
00000000
,
00031000
01000000
00100000
10000000
,
00010000
00000000
01000000
00000000
00100000
01000000
00100000
00000000
,
02200000
00000000
00000000
00000000
00000000
00000000
00000000
03300000
,
00100000
10000000
00100000
01000000
,
00010000
00100000
01000000
00100000
,
00001000
00010000
00000100
00001000
,
00000010
00000100
00000001
00001000
,
00000100
00001000
00000000
00000100
,
00000000
00010000
00000000
00001000
,
00000000
01000000
00000000
00001000
,
00000000
00010000
00000000
00000010
,
00002002
00000000
00000000
00000000
,
00003003
00000000
00000000
00000000
;

//---------------dance-double - ----------------
#NOTES:
     dance-double:
     :
     Medium:
     7:
     0.408,0.451,0.189,0.155,0.000:
00000000
00000000
00000000
00000000
,
00000000
00000000
00000000
00000000
,
00000000
00000000
00000000
00000000
,
00000000
00000000
00000000
00000000
,
00010000
01000000
00010000
00100000
,
00010000
10000000
00010000
01000000
,
00001000
00010000
00001000
00100000
,
00022000
00000000
00000000
00033000
,
00010000
00000000
00000100
00000000
00001000
00000000
00000010
00001000
,
00000100
00000010
00000100
00000110
,
00000010
00000000
00000001
00000000
00001000
00000000
00000010
00000100
,
00000001
00001000
00000010
00000110
,
00000010
00000000
00001000
00000000
00000100
00000000
00010000
00001000
,
00100000
00001000
01000000
00011000
,
00010000
00000000
00000100
00000000
00001000
00000000
00000010
00001000
,
00000100
00010000
00001000
00011000
,
00010000
00000000
01000000
00000000
00100000
00000000
00010000
10000000
,
01000000
00100000
00001000
00011000
,
00010000
00000000
00000100
00000000
00000010
00000000
00000001
00000100
,
00000010
00010000
00001000
00110000
,
00001000
00000000
00010000
00000000
00000100
00000000
00000010
00000001
,
00000100
00000001
00000010
00001100
,
00000010
00000000
00000100
00000000
00001000
00000000
00000010
00010000
,
00001000
00100000
00001000
00011000
,
00010000
00000010
00010000
00011000
,
00001000
01000000
00001000
00011000
,
00010000
00000100
00010000
00000000
00010000
00000010
00010000
00000000
,
00001000
00010000
00001000
00100000
00001000
01000000
00001000
00000000
,
00020000
00000000
00030100
00000000
00001000
00000010
00000100
00000000
,
00000002
00000000
00000013
00000000
00000100
00000010
00000001
00000000
,
00001000
00000010
00000100
00000000
00000010
00001000
00000100
00000000
,
00010000
00001000
00110000
01100000
,
02000000
00000000
13000000
00000000
00100000
01000000
00010000
00000000
,
00200000
00000000
00310000
00000000
01000000
00001000
00010000
00000000
,
00001000
00100000
00010000
00000000
00100000
00001000
00010000
00000000
,
00000100
00000010
00001001
00000110
,
00000002
00000000
00000000
00000000
,
00002003
00000000
00000000
00000000
,
00003020
00000000
00000000
00000000
,
00020030
00000000
00000000
00000000
,
00031000
00010000
00001000
00100000
,
00010000
01000000
00010000
10000000
,
00100000
01000000
00010000
00000000
01000000
00010000
00100000
00000000
,
00001000
00010000
00000100
00001000
00000100
00010000
00001000
00000000
,
00010000
00000000
00000010
00000000
00001000
00000000
00000100
00000010
,
00000001
00000000
00001000
00000000
00000010
00000000
00000100
00000001
,
00001000
00000000
00000100
00000000
00010000
00000000
00001000
00010000
,
00001000
00100000
00000000
00000000
00110000
00000000
11000000
00000000
,
10000000
00000000
00100000
00000000
01000000
00000000
00010000
01000000
,
00001000
00000000
00010000
00000000
00001000
00000000
00100000
00010000
,
01000000
00000000
00100000
00000000
10000000
00000000
00010000
01000000
,
00010000
10000000
00000000
10000000
01000000
00100000
00010000
00000000
,
20000000
00000000
31000000
00000000
00100000
00010000
01000000
00000000
,
00200000
00000000
01300000
00000000
00100000
10000000
00010000
00000000
,
00100000
00001000
00100000
00000000
00001000
00010000
00001000
00000000
,
00100000
00010000
11000000
00110000
,
00020000
00000000
01030000
00000000
00010000
00100000
00001000
00000000
,
00020000
00000000
00031000
00000000
00010000
00000100
00001000
00000000
,
00000010
00001000
00000010
00000000
00000100
00000001
00000100
00000000
,
00000010
00001000
00000010
00000100
00000001
00001000
00000100
00000000
,
00000220
00000000
00000000
00000000
00000000
00000000
00000000
00000330
,
00000010
00000001
00000010
00000100
,
00001000
00000010
00001000
00000001
,
00000100
00000010
00000100
00000001
,
00001000
00000010
00011000
00010100
,
00010000
00001000
00000000
00100000
00000000
00001000
00000000
00010000
,
00000000
01000000
00000000
00100000
00000000
00010000
10000000
01000000
,
00100000
00010000
00000000
01000000
00000000
00001000
00000000
00010000
,
00000000
00000100
00000000
00001000
00000000
00000010
00000100
00000002
,
00002000
00000000
00000000
00000000
,
00003003
00000000
00000000
00000000
;

//---------------dance-double - ----------------
#NOTES:
     dance-double:
     :
     Hard:
     9:
     0.562,0.632,0.344,0.086,0.314: // measure 1
00000000
00000000
00000000
00000000
,  // measure 2
00000000
00000000
00000000
00000000
,  // measure 3
00000000
00000000
00000000
00000000
,  // measure 4
00000000
00000000
00000000
00000000
,  // measure 5
10000000
01010000
00100000
11000000
,  // measure 6
00010000
01001000
00010000
00011000
,  // measure 7
00010000
00001100
00000010
00001001
,  // measure 8
00000220
00000000
00000000
00000330
,  // measure 9
00000010
00000000
00000000
00000000
00001000
00000000
00000000
00000100
00000010
00000001
00000000
00000001
00000100
00000000
00000010
00000000
,  // measure 10
00001000
00000000
00000000
00000000
00000101
00000000
00000000
00000000
00000110
00000000
00000000
00000000
00010010
00000000
00000000
00010000
,  // measure 11
00001000
00000000
00000000
00000000
00010000
00000000
00000000
00000000
00001000
00100000
00000000
00100000
00010000
00000000
01000000
00000000
,  // measure 12
00100000
10100000
10010000
01010000
,  // measure 13
01000000
00000000
00000000
00000000
00100000
00000000
00000000
01000000
00010000
00100000
00000000
00000000
01000000
00000000
00100000
00000000
,  // measure 14
00010000
00000000
00000000
00000000
01010000
00000000
00000000
00000000
01001000
00000000
00000000
00000000
00011000
00000000
00000000
00001000
,  // measure 15
00010000
00000000
00000000
00000000
00000010
00000000
00000000
00000100
00000001
00000010
00000000
00000000
00000100
00000000
00000010
00000000
,  // measure 16
00000001
00001000
00010000
10000000
,  // measure 17
00100000
00000000
00000000
00000000
01010000
00000000
00000000
00010000
01000000
00100000
00000000
00100000
10000000
00000000
00010000
00000000
,  // measure 18
01000000
00000000
00000000
00000000
01001000
00000000
00000000
00000000
00011000
00000000
00000000
00000000
00010100
00000000
00000000
00000100
,  // measure 19
00001000
00000000
00000000
00000000
00001001
00000000
00000000
00000000
00000001
00000010
00000000
00000100
00001000
00000000
00000010
00000000
,  // measure 20
00000100
00000110
00010010
00011000
,  // measure 21
00001000
00000000
00000000
00000000
00110000
00000000
00000000
00100000
00010000
10000000
00000000
00000000
00100000
00000000
10000000
00000000
,  // measure 22
00010000
00000000
00000000
00000000
01010000
00000000
00000000
00000000
01001000
00000000
00000000
00000000
00011000
00000000
00000000
00010000
,  // measure 23
00001000
00000000
00000000
00000000
00110000
00000000
00000000
00001000
00100000
00010000
00000000
00010000
01000000
00000000
00100000
00000000
,  // measure 24
10000000
00010000
00001000
00000001
,  // measure 25
00001000
00000000
00000000
00000000
00000010
00000000
00000000
00000000
00010000
00000000
00000000
00000000
01000000
00000000
00000000
00100000
,  // measure 26
00010000
00000000
00000000
00000000
10000000
00000000
00000000
00010000
01000000
00000000
00000000
01000000
00001000
00000000
00000000
00001000
,  // measure 27
00010000
00000000
00000100
00000000
00000010
00000000
00000100
00000000
00001000
00000000
00000010
00000000
00000100
00000000
00000001
00001000
,  // measure 28
00000001
00000000
00000100
00000010
00001000
00000001
00000000
00000000
00001000
00000010
00000000
00000010
00010000
00000000
00011000
00000000
,  // measure 29
00001000
00100000
00010000
01000000
00100000
00100000
00100000
10000000
,  // measure 30
01000000
00000000
00100000
00000000
00001000
00000000
00010000
00000000
00000010
00000000
00000010
00000000
00000010
00000000
00000000
00000100
,  // measure 31
00000001
00000010
00000100
00001000
00000010
00000010
00000010
00001000
,  // measure 32
00000100
00010000
00100000
00010000
00001000
00000010
00001000
00010000
,  // measure 33
00001000
00000010
00000001
00000100
00000010
00000010
00000010
00001000
,  // measure 34
00000010
00000000
00010000
00000000
00001000
00000000
01000000
00000000
00100000
00000000
00100000
00000000
00100000
00000000
00000000
01000000
,  // measure 35
00010000
00100000
01000000
10000000
00100000
00100000
00100000
10000000
,  // measure 36
01000000
00100000
00001000
00000010
00001000
00010000
00100000
00010000
,  // measure 37
00002000
00000000
00000000
00000000
,  // measure 38
00023000
00000000
00000000
00000000
,  // measure 39
00030020
00000000
00000000
00000000
,  // measure 40
00000230
00000000
00000000
00000000
,  // measure 41
00000301
00000000
00000000
00000000
00001000
00000000
00000000
00000000
00000100
00000000
00000000
00000000
00000010
00000000
00000000
00000100
,  // measure 42
00001000
00000000
00000000
00000000
00000010
00000000
00000000
00010000
00001000
00000000
00000000
00001000
00100000
00000000
00000000
00100000
,  // measure 43
00010000
00000000
01000000
00000000
00100000
00000000
01000000
00000000
00010000
00000000
00100000
00000000
00001000
00000000
00010000
00001000
,  // measure 44
00010000
00000000
00001000
00010000
00000000
00001000
00000000
00100000
00010000
01000000
00000000
01000000
00010000
00000000
10000000
00000000
,  // measure 45
00100000
00000000
00000000
00000000
01000000
00000000
00000000
00100000
10000000
00010000
00000000
00010000
01000000
00000000
00100000
00000000
,  // measure 46
10000000
00000000
00000000
00000000
01000000
00000000
00000000
00100000
00010000
01000000
00000000
01000000
00001000
00000000
00010000
00000000
,  // measure 47
00000100
00000000
00000000
00000000
00001000
00000000
00000000
00000100
00001000
00000010
00000000
00000010
00000100
00000000
00000001
00000000
,  // measure 48
00001000
00000000
00000100
00000000
00000000
00000000
00000000
00000010
00000100
00001000
00000000
00001000
00000001
00000000
00000100
00000000
,  // measure 49
00000010
00000000
00000000
00000000
00000100
00000000
00000000
00000010
00001000
00000100
00000000
00000100
00010000
00000000
00001000
00000000
,  // measure 50
00010000
00000000
00000000
00000000
00000100
00000000
00000000
00001000
00000001
00000100
00000000
00000100
00000010
00000000
00001000
00000000
,  // measure 51
00000100
00000000
00000000
00000000
00010000
00000000
00000000
00001000
00100000
00010000
00000000
00010000
01000000
00000000
00100000
00000000
,  // measure 52
10000000
01000000
00000000
00100000
00001000
00100000
00010000
00000000
,  // measure 53
10000000
01000000
00100000
00010000
01000000
01000000
01000000
00001000
,  // measure 54
00010000
00000000
00000010
00000000
00000100
00000000
00000001
00000000
00000100
00000000
00000100
00000000
00000100
00000000
00000000
00000010
,  // measure 55
00001000
00000100
00000010
00000001
00000100
00000100
00000100
00000010
,  // measure 56
00000100
00000000
00000010
00001000
00000001
00000000
00000010
00000001
00001000
00000000
00000010
00000000
00010000
00000000
00001000
00000000
,  // measure 57
00100000
00010000
01000000
00100000
01000000
01000000
01000000
00010000
,  // measure 58
00100000
00000000
00001000
00000000
00010000
00000000
00000010
00000000
00000100
00000000
00000100
00000000
00000100
00000000
00000000
00000001
,  // measure 59
00000010
00000100
00001000
00000010
00000100
00000100
00000100
00000010
,  // measure 60
00001000
00000000
00000100
00010000
00001000
00000000
00010000
00001000
00100000
00000000
00010000
00000000
01000000
00000000
00100000
00000000
,  // measure 61
20020000
00000000
00000000
00000000
00000000
00000000
00000000
30030000
,  // measure 62
10000000
11000000
00100000
00011000
,  // measure 63
00000100
00001100
00000010
00001001
,  // measure 64
00000001
00000101
00000010
00011000
,  // measure 65
01000000
01010000
01100000
10010000
,  // measure 66
10000000
01000000
00000000
00010000
00000000
00001000
00000000
00000010
,  // measure 67
00000000
00000000
00000100
00000000
00000000
00000000
00001000
00000000
00000000
00000000
00000001
00000000
00000100
00000010
00000100
00000010
,  // measure 68
00001000
00000100
00000000
00010000
00000000
00001000
00000000
01000000
,  // measure 69
00000000
00100000
00000000
00010000
00000000
00100000
10000000
00020000
,  // measure 70
02000000
00000000
00000000
00000000
,  // measure 71
03030000
00000000
00000000
00000000
;

//---------------dance-single - ----------------
#NOTES:
     dance-single:
     :
     Hard:
     9:
     0.685,0.717,0.387,0.206,0.490:
0000
0000
0000
0000
,
0000
0000
0000
0000
,
0000
0000
0000
0000
,
0000
0000
0000
0000
,
1000
0001
0100
0000
0001
1000
0010
0000
,
1000
0100
0001
0000
0001
0100
1000
0000
,
0001
1000
0010
0000
1000
0001
0010
0000
,
2002
0000
0000
3003
,
1000
0000
0000
0000
0001
0000
0000
0010
0001
1000
0000
1000
0010
0000
0100
0000
,
0101
0011
1100
1020
,
0130
0000
0000
0000
0010
0000
0000
0000
1000
0010
0000
0100
0001
0000
0010
0000
,
0011
0101
1100
2010
,
3001
0000
0000
0000
0100
0000
0000
0001
1000
0100
0000
0000
0010
0000
0100
0000
,
1100
1010
0011
0102
,
1003
0000
0000
0000
0010
0000
0000
1000
0001
0100
0000
0000
0010
0000
1000
0000
,
0102
0000
0020
0003
2000
0030
0200
3000
,
0010
0000
0300
0000
1000
0000
0000
0100
0010
0001
0000
0001
1000
0000
0010
0000
,
0101
1100
0011
0120
,
0130
0000
0000
0000
0010
0000
0000
0000
0001
0100
0000
0010
1000
0000
0100
0000
,
1100
0011
1010
0102
,
0013
0000
0000
0000
0100
0000
0000
0010
0001
1000
0000
0000
0010
0000
1000
0000
,
1100
0110
1010
0021
,
0031
0000
0000
0000
1000
0000
0000
0010
0100
0001
0000
0000
1000
0000
0010
0000
,
2010
0000
0200
3000
0002
0300
0020
0003
,
0100
0000
0030
0000
0010
0000
0000
0000
0001
0000
0000
0000
1001
0000
0000
0010
,
0100
0001
0010
1100
,
0010
0100
1000
0100
0010
0001
1000
0010
,
0100
0000
0001
0100
0001
1000
0100
0000
1000
0010
0000
0100
0001
0000
1000
0000
,
0100
0000
1000
0000
0100
0010
0001
0010
0100
0000
1000
0000
0010
0000
0100
0000
,
0001
0010
0100
0010
0001
1000
0100
0000
0010
0000
0001
0000
1001
0000
0000
1000
,
0010
0000
0100
0000
0001
1000
0100
1000
0001
0000
0010
0000
0100
0000
1000
0000
,
0001
0000
0010
0100
1000
0100
0010
0001
1000
0000
0010
1000
0001
0000
0100
0000
,
0010
0000
1000
0000
0100
1000
0100
0010
0001
0000
1000
0000
0010
0000
0100
0000
,
0001
0100
0010
0100
0001
1000
0100
0000
0010
0000
0001
0000
0101
0000
0000
0001
,
1000
0000
0100
0000
1000
0010
0100
0010
1000
0000
0001
0000
0010
0000
0100
0000
,
1000
0000
0010
0100
0001
0100
0010
1000
0001
0000
0010
0001
1000
0000
0010
0000
,
0200
0000
0000
0000
0001
0000
0000
0301
0100
0001
0000
0001
1000
0000
0100
0000
,
0020
0000
0000
0000
0100
0000
0000
0130
0010
0100
0000
0100
0010
0000
0001
0000
,
2000
0000
0000
0000
0010
0000
0000
3010
1000
0010
0000
0010
1000
0000
0001
0000
,
0200
0000
0000
0000
0010
0000
0000
0310
0100
0010
0000
0010
0100
0000
0001
0000
,
1000
0000
0000
0000
1100
0000
0000
1000
0100
0010
0000
0001
1000
0000
0010
0000
,
0100
0000
0000
0000
0101
0000
0000
0001
1000
0100
0000
0010
0100
0000
1000
0000
,
0001
0000
0100
0000
0010
0000
1000
0000
0001
0000
0010
0000
0100
0000
1000
0001
,
1000
0000
0010
0100
0000
0100
0001
0000
1000
0010
0000
0010
0100
0000
0001
0000
,
1000
0000
0000
0000
0110
0000
0000
0001
1000
0010
0000
0000
0100
0000
0001
0000
,
0010
0000
0000
0000
1100
0000
0000
0010
0001
1000
0000
0000
0010
0000
1000
0000
,
0010
0000
0000
0000
1001
0000
0000
0010
0001
0100
0000
0000
0010
0000
1000
0000
,
0010
0000
0100
0000
0000
0000
0000
0001
1000
0100
0000
0010
0100
0000
1000
0000
,
0001
0000
0000
0000
0110
0000
0000
1000
0001
0010
0000
0100
1000
0000
0001
0000
,
0100
0000
0000
0000
1010
0000
0000
1000
0001
0100
0000
0010
0100
0000
0001
0000
,
0010
0000
0000
0000
1100
0000
0000
0010
0100
1000
0000
0010
0100
0000
0001
0000
,
1000
0100
0000
0001
0100
1000
1001
0000
,
0001
0000
0100
0000
0010
1000
0010
0100
0001
0000
0010
0000
0100
0000
1000
0000
,
0001
0100
0001
1000
0010
0100
0001
0000
1000
0000
0100
0000
0110
0000
0000
0010
,
0001
0000
1000
0000
0010
0100
0001
1000
0100
0000
0010
0000
0100
0000
1000
0000
,
0001
0000
0100
0010
0100
0001
1000
0100
0010
0000
0100
1000
0001
0000
0100
0000
,
0010
0000
1000
0000
0100
1000
0100
0010
0001
0000
1000
0000
0010
0000
0100
0000
,
0001
0010
0001
1000
0010
0100
0001
0000
0010
0000
0100
0000
1100
0000
0000
1000
,
0010
0000
0100
0000
0001
0100
0010
1000
0001
0000
0010
0000
0100
0000
1000
0000
,
0001
0000
1000
0010
0100
0001
1000
0100
0010
0000
0100
1000
0001
0000
0100
0000
,
2002
0000
0000
3003
,
1000
0100
0001
0100
1000
0100
0001
0100
,
1000
0010
0001
0010
1000
0010
0001
0010
,
1000
0100
0001
1000
0001
0100
1000
0001
,
1000
0010
0100
0001
1001
0000
0110
0000
,
0001
0100
0000
1000
0000
0010
0000
0001
,
0000
0000
0010
0000
0000
0000
1000
0000
0000
0000
0100
0000
0010
0001
0010
0001
,
1000
0010
0000
0001
0000
0100
0000
0001
,
0000
0010
0000
1000
0000
0100
0010
0002
,
2000
0000
3003
0000
;

//---------------dance-single - ----------------
#NOTES:
     dance-single:
     :
     Medium:
     6:
     0.381,0.388,0.052,0.060,0.000:
0000
0000
0000
0000
,
0000
0000
0000
0000
,
0000
0000
0000
0000
,
0000
0000
0000
0000
,
1000
0100
0010
0001
,
1000
0010
0100
0001
,
1000
0001
0010
0100
,
2000
0000
0001
0001
,
3001
0000
0100
0000
0010
1000
0010
0000
,
0100
0001
1000
0100
,
0010
0000
0001
0000
1000
0010
0100
0000
,
0001
0010
0001
0100
,
0001
0000
1000
0000
0100
0010
0001
0000
,
1000
0010
0100
0001
,
1000
0000
0100
0000
0010
0100
1000
0000
,
0001
0010
0100
1000
,
0001
0000
1000
0000
0001
0010
0100
1000
,
0010
0100
0001
0100
,
0010
0000
1000
0000
0001
0010
0100
1000
,
0010
0010
0010
1000
,
0010
0000
0100
0000
0001
0010
0100
1000
,
0100
0010
0001
1000
,
0010
0000
0100
0000
0010
1000
0010
0100
,
0010
0010
0010
0001
,
0010
0010
0010
1000
,
0100
0100
0100
0001
,
0100
0100
0100
1000
,
0001
0001
0001
0100
,
0010
1000
0001
0010
,
0100
1000
0100
0010
0100
0000
1000
0000
,
0001
0000
0100
0000
0010
1000
0010
0000
,
0100
0001
1000
0001
0100
0000
0010
0000
,
1000
0100
1000
0001
,
0100
0010
1000
0010
0100
0000
0001
0000
,
1000
0000
0100
0000
0010
0001
0010
0000
,
0100
1000
0001
1000
0100
0000
1000
0000
,
2002
0000
0000
3003
,
0001
0000
0100
0010
,
0100
0000
0010
1000
,
0010
0000
1000
0001
,
1000
0000
0010
0000
0100
0000
0001
1000
,
0100
0000
1000
0000
0001
0000
0100
0010
,
1000
1000
0001
0001
,
0100
0010
1000
0001
,
1000
0000
0010
0000
0100
0000
0001
0010
,
0100
0000
1000
0000
0001
0000
1000
0001
,
1000
0000
0010
0000
0100
0000
0001
0100
,
0010
1000
0100
1001
,
0001
0000
0010
0000
0100
0000
0010
0100
,
1000
0000
0010
0000
0100
0000
0001
0100
,
0001
0000
0100
0000
0001
0000
0010
0100
,
0010
0001
0000
0100
0000
0010
1000
0000
,
0001
0100
0010
0100
,
0001
1000
0010
1000
0001
0010
0100
0000
,
1000
0100
0010
0001
,
1000
0001
0100
0001
1000
0010
0100
0000
,
0001
0010
0001
1000
,
0010
0100
0001
0100
0010
1000
0001
0000
,
1000
0100
1000
0001
,
1000
0010
1000
0010
1000
0001
1000
0000
,
2002
0000
0000
3003
,
1000
0100
1000
0001
,
0100
0010
1000
0001
,
0010
0001
1000
0010
,
0100
0001
0011
1100
,
0001
0100
0000
0010
0000
1000
0000
0010
,
0000
0100
0000
0001
0000
1000
0100
0010
,
0001
1000
0000
0010
0000
0100
0000
0001
,
0000
1000
0000
0100
0000
0010
0000
0100
,
2002
0000
3003
0000
;

//---------------dance-single - ----------------
#NOTES:
     dance-single:
     :
     Easy:
     4:
     0.222,0.269,0.146,0.077,0.000:
0000
0000
0000
0000
,
0000
0000
0000
0000
,
0000
0000
0000
0000
,
0000
0000
0000
0000
,
1000
0000
0100
0000
,
1000
0000
0001
0000
,
0100
0000
0010
0000
,
2002
0000
0000
3003
,
1000
0001
1000
0100
,
0010
0000
0010
0000
,
0001
1000
0010
0100
,
0001
0000
0001
0000
,
1000
0100
0010
0100
,
1000
0000
1000
0000
,
0001
1000
0010
1000
,
0001
0000
0100
0000
,
0110
0000
0010
1000
,
0100
0000
0100
0000
,
1000
0000
0001
1000
,
0010
0000
0010
0000
,
0100
0000
0001
1000
,
0100
0000
0010
0000
,
0001
0000
0010
0100
,
1000
0000
0001
0000
,
0101
0000
0100
0000
,
1010
0000
1000
0000
,
1001
0000
0001
0000
,
0022
0000
0000
0033
,
0001
1000
0001
0100
,
0010
0000
0010
0000
,
0100
0001
0100
0010
,
1000
0000
1000
0000
,
0001
0010
0001
0100
,
0010
0000
1000
0000
,
0001
0010
0100
0010
,
0001
0000
1000
0000
,
1001
0000
0000
0000
,
1010
0000
0000
0000
,
0101
0000
0000
0000
,
0110
0000
0000
0000
,
0100
0000
0100
0000
,
1000
0000
0001
0000
,
0100
0000
0100
0000
,
0010
0000
1000
0001
,
1000
0000
0010
0000
,
0100
0000
0001
0000
,
0010
0000
0100
0000
,
0110
0000
1001
0000
,
1000
0000
0001
0000
,
0100
0000
0010
0000
,
1000
0000
0010
0000
,
0200
0000
0000
0000
,
0301
1000
0100
0010
,
0001
0000
0100
0000
,
0010
1000
0010
0100
,
0001
0000
1000
0000
,
0100
0010
0100
1000
,
0001
0000
0010
0000
,
0100
1000
0001
0100
,
0010
0000
1000
0000
,
2002
0000
0000
3003
,
1000
0000
0100
0000
,
1000
0000
0001
0000
,
0100
0000
0010
0000
,
1000
0000
1001
1001
,
1001
0000
0001
0000
,
0100
0000
0010
1000
,
0001
0000
0010
0000
,
0100
0000
1000
0001
,
2002
0000
3003
0000
;

//---------------dance-single - ----------------
#NOTES:
     dance-single:
     :
     Beginner:
     2:
     0.163,0.209,0.086,0.052,0.000:
0000
0000
0000
0000
,
0000
0000
0000
0000
,
0000
0000
0000
0000
,
0000
0000
0000
0000
,
1000
0000
0000
0000
,
0001
0000
0000
0000
,
0100
0000
0000
0000
,
1001
0000
0000
0000
,
0010
0000
1000
0000
,
0010
0000
1000
0000
,
0001
0000
0100
0000
,
0001
0000
0100
0000
,
0001
0000
0010
0000
,
0001
0000
0010
0000
,
0100
0000
1000
0000
,
0100
0100
0100
0100
,
0100
0000
1000
0000
,
0100
0000
1000
0000
,
0001
0000
0010
0000
,
0001
0000
0010
0000
,
0001
0000
1000
0000
,
0001
0000
1000
0000
,
0010
0000
0100
0000
,
0010
0010
0010
0010
,
0020
0000
0000
0030
,
0200
0000
0000
0300
,
0002
0000
0000
0003
,
2000
0000
0000
3000
,
0001
0001
0001
0000
,
1000
1000
1000
0000
,
0010
0000
0100
0000
,
0001
0000
1001
0000
,
1000
1000
1000
0000
,
0001
0001
0001
0000
,
0010
0000
0100
0000
,
1000
0000
0001
0000
,
1001
0000
0000
0000
,
0000
0000
0000
0000
,
0110
0000
0000
0000
,
0000
0000
0000
0000
,
1000
0000
0100
0000
,
0010
0000
0001
0000
,
1000
0000
0010
0000
,
1001
0000
0000
0000
,
0001
0000
0000
0000
,
1000
0000
0000
0000
,
0001
0000
0000
0000
,
0100
0000
0010
0010
,
0010
0000
0000
0000
,
0100
0000
0000
0000
,
0010
0000
0000
0000
,
1001
0000
0000
0000
,
1000
1000
1000
0000
,
0001
0001
0001
0000
,
0010
0000
0001
0000
,
1000
0000
1001
0000
,
0001
0001
0001
0000
,
1000
1000
1000
0000
,
0010
0000
0100
0000
,
0001
0000
1001
0000
,
0110
0000
0000
0000
,
1000
0000
0001
0000
,
0100
0000
0010
0000
,
1000
0000
0001
0000
,
0010
0000
0100
0000
,
1000
0000
0000
0000
,
0001
0000
0000
0000
,
1000
0000
0000
0000
,
0010
0000
0000
0000
,
2002
0000
3003
0000
;
