#TITLE:Put A Little Love In Your Heart;
#SUBTITLE:;
#ARTIST:Raymond Miles;
#TITLETRANSLIT:;
#SUBTITLETRANSLIT:;
#ARTISTTRANSLIT:;
#GENRE:;
#CREDIT:;
#MENUCOLOR:;
#METERTYPE:DDR;
#BANNER:Put A Little Love in Your Heart-bn.png;
#BACKGROUND:Put A Little Love in Your Heart-bg.png;
#LYRICSPATH:;
#CDTITLE:ddrencorecdtitle.png;
#MUSIC:Put a Little Love in Your Heart.mp3;
#OFFSET:-0.004;
#SAMPLESTART:41.150;
#SAMPLELENGTH:12.848;
#SELECTABLE:YES;
#LISTSORT:;
#BPMS:0.000=140.002;
#STOPS:;
#BGCHANGES:;
#ATTACKS:;

//---------------dance-single - ----------------
#NOTES:
     dance-single:
     :
     Hard:
     8:
     0.545,0.579,0.153,0.366,0.217:
0000
0000
0000
0000
,
0000
0000
0000
0000
,
0000
0000
0000
0000
,
0000
0000
0000
0000
,
0010
0101
0010
1100
,
0100
0101
0010
1001
,
0010
1010
0100
0011
,
0001
0000
0100
0000
0010
0000
1000
0000
0001
0010
0000
0000
0010
0000
0100
0000
,
2000
0000
0000
0000
3001
0100
0000
0010
0100
0000
0000
0000
0200
0000
0000
0000
,
0320
0000
0000
0000
1030
0100
0000
1000
0010
0000
0000
0000
0200
0000
0000
0000
,
0302
0000
0000
0000
1003
0010
0000
0100
0001
0000
0000
0000
2000
0000
0000
0000
,
3200
0000
0000
0320
0000
0000
0032
0000
,
0203
0000
0000
0000
0310
1000
0000
0001
0010
0000
0000
0000
0002
0000
0000
0000
,
0203
0000
0000
0000
0310
1000
0000
0100
0010
0000
0000
0000
0002
0000
0000
0000
,
2003
0000
0000
0000
3001
0100
0000
0010
1000
0000
0000
0000
0200
0000
0000
0000
,
0320
0100
0100
0100
0130
0000
0110
0000
,
0001
0000
0000
1000
0000
0000
0010
0000
1000
0000
0000
0001
0000
0000
0010
0000
,
1000
0000
0000
0010
0000
0000
0001
0000
0100
0000
0000
0010
0000
0000
1000
0000
,
0100
0000
0000
0001
0000
0000
0100
0000
1000
0000
0000
0010
0000
0000
0100
0000
,
0001
0000
0000
1000
0000
0000
0010
0000
0100
0000
0000
0001
0000
0000
1000
0000
,
0100
0000
1000
0010
0000
0000
0100
0000
0001
0000
0000
1000
0000
0000
0100
0000
,
0010
0000
0001
1000
0000
0000
0001
0000
0010
0000
0000
0100
0000
0000
1000
0000
,
0011
1000
0101
0010
,
1100
1001
0101
1001
,
0001
0100
0010
1000
0100
0010
0001
0000
,
1000
0010
0100
0001
0010
0100
0010
0000
,
0010
0001
1000
0010
0000
0100
0001
0010
,
0100
0000
1000
0000
1000
0010
0100
0000
,
0001
0000
1000
0100
0010
0001
0100
0000
,
0010
0100
0001
0010
0001
1000
0100
0000
,
0010
0001
1000
0010
0000
0010
0100
0001
,
0010
0000
0100
0000
0100
1000
0010
0000
,
1000
0000
0010
0000
1000
0001
0100
0010
,
1000
0100
0010
0010
0000
0001
1000
0100
,
1000
0000
0010
0000
0100
0001
0010
0100
,
1000
0010
0100
0100
0000
0001
0010
0100
,
1000
0000
0010
1000
0000
0001
0100
0010
,
1000
0000
0100
0010
0000
0100
0010
0001
,
1000
0000
0010
0100
0000
0001
0010
0100
,
1000
0010
0100
0001
0010
0000
1001
0000
,
0001
0100
0001
1000
0010
0100
0001
0010
,
0100
0000
1000
0010
0100
0001
0010
0000
,
0100
0010
0100
1000
0010
0100
0001
0010
,
0100
0000
0010
0001
1000
0010
0100
0000
,
0010
1000
0001
0010
0100
1000
0010
0100
,
0001
1000
0010
0101
,
1000
0000
0001
0000
0010
0000
0001
0000
0010
0001
0010
0000
0100
0000
1000
0000
,
0020
0000
0000
0000
1030
0001
0000
0100
0010
0000
0000
0000
2000
0000
0000
0000
,
3200
0000
0000
0000
0310
0001
0000
1000
0100
0000
0000
0000
2000
0000
0000
0000
,
3020
0000
0000
0000
0130
0001
0000
0010
0100
0000
0000
0000
0020
0000
0000
0000
,
0032
0000
0000
0203
0000
0000
0320
0000
,
2030
0000
0000
0000
3001
0100
0000
0010
0100
0000
0000
0000
0002
0000
0000
0000
,
2003
0000
0000
0000
3010
0100
0000
0010
1000
0000
0000
0000
0002
0000
0000
0000
,
0023
0000
0000
0000
0130
1000
0000
0001
0100
0000
0000
0000
0020
0000
0000
0000
,
2030
0010
0010
0010
3020
0100
0100
0130
,
0200
0000
0000
0000
0301
0010
0000
0100
1000
0000
0001
0000
0100
0000
0010
0000
,
2000
0000
0000
0000
3100
0010
0000
0001
0100
0000
0010
0000
1000
0000
0100
0000
,
2000
0000
0000
0000
3010
0100
0000
0001
0010
0000
0100
0000
0010
0000
0001
0000
,
0200
0000
0000
0320
0000
0000
2030
0000
,
3002
0000
0000
0000
0013
0100
0000
1000
0010
0000
1000
0000
0100
0000
0010
0000
,
0002
0000
0000
0000
0013
0100
0000
1000
0010
0000
0100
0000
0010
0000
1000
0000
,
0200
0000
0000
0000
0310
0001
0000
1000
0010
0000
1000
0000
0010
0000
0000
0000
,
1100
0000
0000
0000
1001
0000
0000
0000
0101
0000
0000
0010
0100
0000
0001
0000
,
0010
0000
0001
0000
1000
0000
0010
1000
,
0100
0000
0010
0000
0001
1000
0100
1000
,
0001
0000
0100
0000
0010
0000
1000
0100
,
1000
0000
0010
0000
0100
0001
0010
0100
,
2000
0000
0000
0000
,
3000
0000
0000
0000
;

//---------------dance-single - ----------------
#NOTES:
     dance-single:
     :
     Medium:
     5:
     0.345,0.405,0.136,0.153,0.009:
0000
0000
0000
0000
,
0000
0000
0000
0000
,
0000
0000
0000
0000
,
0000
0000
0000
0000
,
1000
0001
0000
0100
,
0000
0010
0000
1000
,
0001
0010
0001
0100
,
0010
0000
0000
0000
1001
0000
0000
0000
0001
1000
0000
0000
0100
0000
0000
0000
,
2000
0001
3001
0010
,
0002
0100
0103
0010
,
2000
0100
3100
0010
,
0001
0000
0000
1000
0000
0000
0010
0000
,
0200
0001
0301
1000
,
0020
0100
0130
0010
,
2000
0001
3001
0010
,
0100
1000
0100
1000
0001
0000
0010
0000
,
1001
0000
0100
0000
,
0001
0000
1000
0000
,
0010
0000
0100
0000
,
0001
0000
1000
0000
,
1001
0000
0010
0000
,
0001
0000
1000
0000
,
0101
0000
1010
0000
,
0110
0000
0000
0000
1001
0000
0000
0000
0001
1000
0000
0000
0010
0000
0000
0000
,
1000
0000
0001
0000
1000
0100
1000
0000
,
0001
0000
1000
0000
0001
0010
0001
0000
,
1000
0000
0001
0100
0000
0010
1000
0010
,
1000
0100
1000
0010
,
1000
0000
0001
0000
0010
0001
0010
0000
,
0001
0000
1000
0000
0100
1000
0100
0000
,
1000
0000
0001
0010
0000
0100
1000
0100
,
1000
0001
0100
0010
,
1001
0000
0000
0100
0000
0000
0001
0000
,
1000
0010
0000
1000
0000
0000
0001
0000
,
1100
0000
0000
0001
0000
0000
1000
0000
,
0100
0010
0000
0001
0000
0000
1000
0000
,
0010
0000
0000
1000
0000
0000
0001
0000
,
0010
0000
0000
0100
0000
0000
0100
0010
,
0001
0000
0000
1000
0000
0000
0010
0000
,
0100
0001
1000
1001
,
0001
0100
0010
0000
1000
0000
1000
0100
,
0000
0010
0001
1000
,
0001
0100
0001
0000
1000
0000
0010
0100
,
0000
0010
1000
0001
,
0010
0001
0010
0000
0100
0000
1000
0001
,
0000
1000
0010
1000
,
0001
0000
1001
0000
1000
0010
0100
0000
,
0020
1000
1030
0001
,
0200
0001
0301
1000
,
0020
0100
0130
0001
,
0010
0000
0000
0100
0000
0000
1000
0000
,
0002
0010
0013
0100
,
2000
0010
3010
0100
,
0002
1000
1003
0010
,
0100
0001
1000
0001
1000
0010
0100
0001
,
2000
0010
3010
0100
,
0002
1000
1003
0100
,
0020
0001
0031
1000
,
0100
0000
0000
1000
0000
0000
0010
0000
,
0200
0001
0301
1000
,
0020
0100
0130
0001
,
1001
0000
1010
0000
,
1001
0110
0001
1000
,
0110
0010
1000
0001
,
0010
0000
0001
0000
1000
0000
0010
0100
,
0001
1000
0100
0010
,
0001
0000
1000
0000
0001
1000
0010
0100
,
0002
0000
0000
0000
,
0003
0000
0000
0000
;

//---------------dance-single - ----------------
#NOTES:
     dance-single:
     :
     Easy:
     4:
     0.260,0.289,0.119,0.162,0.000:
0000
0000
0000
0000
,
0000
0000
0000
0000
,
0000
0000
0000
0000
,
0000
0000
0000
0000
,
1000
0000
0100
0000
,
1000
0000
0001
0000
,
0100
0010
0100
0010
,
1000
0001
1000
0101
,
0002
0000
1003
0001
,
0200
0000
0310
0000
,
2000
0000
3001
1000
,
0100
0000
0000
0100
0000
0000
0100
0000
,
2000
0000
3010
0100
,
0002
0000
0013
0000
,
0200
0000
1300
0001
,
0100
0010
1000
0001
,
1001
0000
0100
0000
,
0010
0000
1000
0000
,
0001
0000
0010
0000
,
0001
0000
1000
0000
,
1001
0000
0010
0000
,
0100
0000
0001
0000
,
1001
0000
1010
0000
,
0010
1000
0001
0100
,
0010
1000
0001
0010
,
0100
1000
0010
0100
,
0010
0000
1000
0000
,
0001
0000
0010
0000
,
1000
0001
0010
0001
,
1000
0010
0100
0001
,
1000
0000
0100
0000
,
1000
0000
0001
0001
,
1000
0000
0101
0000
,
0010
1000
0001
0000
,
1000
0000
0011
0000
,
0100
1000
0001
0000
,
0110
0000
0001
0000
,
1100
0000
0010
0000
,
1001
0000
0100
0000
,
0010
0000
1000
1000
,
0001
0010
0001
0100
,
0010
1000
0001
1001
,
1000
0010
0100
0001
,
0010
0100
1000
1001
,
0001
0010
0100
1000
,
0001
0000
1000
0000
,
0001
1000
0010
0100
,
0002
0000
0013
0100
,
2000
0000
3001
0000
,
0200
0000
0301
1000
,
0100
0000
0000
0100
0000
0000
0100
0000
,
2000
0000
3010
0100
,
0020
0000
0130
0000
,
0002
0000
1003
0001
,
0010
0100
0010
1001
,
2000
0000
3100
1000
,
0002
0000
0103
0000
,
0020
0000
1030
0001
,
0100
0000
0000
0100
0000
0000
0100
0000
,
0020
0000
1030
0001
,
0020
0000
0031
0000
,
1000
0001
1000
0010
,
0100
0001
1000
0001
,
0100
0000
0001
0000
,
0010
0000
0001
0000
,
0100
0000
0010
0000
,
1000
0001
0010
0100
,
2002
0000
0000
0000
,
3003
0000
0000
0000
;

//---------------dance-single - ----------------
#NOTES:
     dance-single:
     :
     Beginner:
     1:
     0.122,0.171,0.009,0.000,0.000:
0000
0000
0000
0000
,
0000
0000
0000
0000
,
0000
0000
0000
0000
,
0000
0000
0000
0000
,
0000
0000
0000
0000
,
0000
0000
0000
0000
,
0010
0000
0010
0000
,
0100
0000
0001
0000
,
1000
0000
0000
0000
,
0100
0000
0000
0000
,
1000
0000
0000
0000
,
0001
0000
0010
0000
,
0100
0000
0000
0000
,
0010
0000
0000
0000
,
0001
0000
0000
0000
,
1000
0000
0001
0000
,
0100
0000
0010
0000
,
0100
0000
0010
0000
,
0001
0000
1000
0000
,
0001
0000
1000
0000
,
0010
0000
1000
0000
,
0001
0000
0100
0000
,
0010
0000
0010
0000
,
0010
0010
0010
0000
,
0010
0000
1000
0000
,
0001
0000
0010
0000
,
0001
0000
0000
0000
,
1000
0000
0000
0000
,
0100
0000
1000
0000
,
0001
0000
0100
0000
,
0010
0000
0000
0000
,
1000
0000
0001
0001
,
0001
0000
1000
0000
,
0100
0000
0010
0010
,
0010
0000
0001
0000
,
1000
0000
0010
0000
,
0100
0000
0000
0000
,
0010
0000
0000
0000
,
1000
0000
0000
0000
,
0001
0000
0000
0000
,
1000
0000
0100
0000
,
1000
0000
0000
0000
,
0001
0000
0010
0000
,
0001
0000
0000
0000
,
1000
0000
0001
0000
,
1000
0000
0010
0000
,
0100
0000
0001
0000
,
1000
0000
0000
0000
,
0100
0000
0000
0000
,
1000
0000
0000
0000
,
0001
0000
0010
0000
,
0100
0000
0000
0000
,
0010
0000
0000
0000
,
0001
0000
0000
0000
,
1000
0000
0010
0000
,
0100
0000
0000
0000
,
0010
0000
0000
0000
,
1000
0000
0000
0000
,
0001
0000
1000
0000
,
0100
0000
0000
0000
,
0010
0000
0000
0000
,
0100
0000
0000
0000
,
1000
0000
0001
0000
,
0100
0000
0010
0000
,
0100
0000
0001
0000
,
1000
0000
0100
0000
,
0010
0000
0001
0000
,
1001
0000
0000
0000
;

//---------------dance-double - ----------------
#NOTES:
     dance-double:
     :
     Easy:
     3:
     0.220,0.232,0.026,0.170,0.000:
00000000
00000000
00000000
00000000
,
00000000
00000000
00000000
00000000
,
00000000
00000000
00000000
00000000
,
00000000
00000000
00000000
00000000
,
00001000
00000000
00000000
00000000
,
00100000
00000000
00000000
00000000
,
00001000
00000000
00010000
00000000
,
00000100
00001000
00000010
00000100
,
00000002
00000000
00001003
00000000
,
00000200
00000000
00010300
00000000
,
00002000
00000000
00103000
00000000
,
00001000
00000000
00010000
00000100
,
00002000
00000000
00003010
00000000
,
00000200
00000000
00000301
00000000
,
00002000
00000000
00003010
00000000
,
00010000
00001000
00010000
00001000
,
00100000
00000000
00010000
00000000
,
01000000
00000000
00100000
00000000
,
10000000
00000000
00010000
00000000
,
00100000
00000000
00010000
00000000
,
01000000
00000000
00100000
00000000
,
10000000
00000000
00010000
00000000
,
00100000
00000000
00001000
00000000
,
00010000
00000100
00010000
00000100
,
00001000
00000000
00000001
00000000
,
00000100
00000010
00000100
00000000
,
00000001
00001000
00000010
00000100
,
00000001
00000000
00001000
00000000
,
00000100
00000000
00010000
00000000
,
00001000
00100000
00001000
00000000
,
00010000
00001000
01000000
00100000
,
10000000
00000000
01000000
00000000
,
10000000
00000000
10010000
00000000
,
00100000
01000000
00010000
00000000
,
00100000
00000000
00011000
00000000
,
00010000
00000100
00001000
00000000
,
00000010
00000000
00000100
00000000
,
00000010
00000000
00001000
00000000
,
00000100
00000000
00010000
00000000
,
00001000
00100000
00001000
00000000
,
00100000
00010000
01000000
00100000
,
10000000
00000000
00010000
00000000
,
00100000
00001000
00100000
00010000
,
01000000
00000000
00100000
00000000
,
10000000
00010000
01000000
00001000
,
00010000
00000000
00001000
00000000
,
00100000
00001000
00100000
00001000
,
00020000
00000000
00030100
00000000
,
00000200
00000000
00001300
00000000
,
00000020
00000000
00000130
00000000
,
00000001
00000000
00001000
00000100
,
00020000
00000000
00031000
00000000
,
00002000
00000000
00103000
00000000
,
00020000
00000000
01030000
00000000
,
00100000
10000000
00010000
10000000
,
02000000
00000000
13000000
00000000
,
00020000
00000000
00130000
00000000
,
02000000
00000000
03100000
00000000
,
00010000
00000000
01000000
00001000
,
00020000
00000000
00030100
00000000
,
00002000
00000000
00003010
00000000
,
00000200
00000000
00000301
00000000
,
00001000
00000001
00000100
00000010
,
00001000
00000000
00000001
00000000
,
00001000
00000000
00000100
00010000
,
00001000
00000000
00100000
00000000
,
00010000
01000000
00100000
10000000
,
20020000
00000000
00000000
00000000
,
30030000
00000000
00000000
00000000
;

//---------------dance-double - ----------------
#NOTES:
     dance-double:
     :
     Hard:
     8:
     0.494,0.521,0.068,0.340,0.217: // measure 1
00000000
00000000
00000000
00000000
,  // measure 2
00000000
00000000
00000000
00000000
,  // measure 3
00000000
00000000
00000000
00000000
,  // measure 4
00000000
00000000
00000000
00000000
,  // measure 5
00001000
00000000
00010000
00000000
,  // measure 6
00000100
00000000
00001000
00000000
,  // measure 7
00000010
00001000
00000100
00010000
,  // measure 8
00010000
00000000
00000100
00000000
00001000
00000000
00000010
00000000
00000100
00000001
00000000
00000000
00000100
00000000
00000010
00000000
,  // measure 9
00000200
00000000
00000000
00000000
00000310
00001000
00000000
00000010
00001000
00000000
00000000
00000000
00000200
00000000
00000000
00000000
,  // measure 10
00020300
00000000
00000000
00000000
00031000
00100000
00000000
00001000
00100000
00000000
00000000
00000000
00020000
00000000
00000000
00000000
,  // measure 11
02030000
00000000
00000000
00000000
03010000
10000000
00000000
00010000
10000000
00000000
00000000
00000000
00020000
00000000
00000000
00000000
,  // measure 12
00230000
00000000
01300000
10000000
00000000
00010000
01000000
00000000
,  // measure 13
00200000
00000000
00000000
00000000
10300000
01000000
00000000
10000000
01000000
00000000
00000000
00000000
20000000
00000000
00000000
00000000
,  // measure 14
30020000
00000000
00000000
00000000
00130000
00001000
00000000
00100000
00001000
00000000
00000000
00000000
00020000
00000000
00000000
00000000
,  // measure 15
00032000
00000000
00000000
00000000
01003000
00010000
00000000
01000000
00010000
00000000
00000000
00000000
00200000
00000000
00000000
00000000
,  // measure 16
00301000
00010000
00000100
00000010
00000001
00000000
00001000
00000000
,  // measure 17
00000101
00000000
00000000
00000001
00000000
00000000
00001000
00000000
00000010
00000000
00000000
00000100
00000000
00000000
00000010
00000000
,  // measure 18
00010000
00000000
00000000
00001000
00000000
00000000
00100000
00000000
00010000
00000000
00000000
01000000
00000000
00000000
00100000
00000000
,  // measure 19
10000000
00000000
00000000
00010000
00000000
00000000
00100000
00000000
00001000
00000000
00000000
01000000
00000000
00000000
00010000
00000000
,  // measure 20
00100000
00000000
00000000
01000000
00000000
00000000
10000000
00000000
00010000
00000000
00000000
00100000
00000000
00000000
00001000
00000000
,  // measure 21
00010000
00000000
00000100
00001000
00000000
00000000
00000010
00000000
00000100
00000000
00000000
00000010
00000000
00000000
00001000
00000000
,  // measure 22
00000100
00000000
00010000
00001000
00000000
00000000
00100000
00000000
00010000
00000000
00000000
01000000
00000000
00000000
00100000
00000000
,  // measure 23
10010000
00000000
11000000
00000000
,  // measure 24
01100000
00000000
00000000
00000000
00011000
00000000
00000000
00000000
00001000
00000100
00000000
00000000
00000110
00000000
00000000
00000000
,  // measure 25
00000010
00001000
00000001
00000010
00000001
00000100
00000010
00000000
,  // measure 26
00001000
00000100
00010000
00001000
00010000
00000010
00000100
00000000
,  // measure 27
00000010
00001000
00000001
00000010
00000000
00000100
00001000
00000001
,  // measure 28
00000100
00000010
00001000
00000100
,  // measure 29
00010000
00000000
00001000
00100000
00001000
01000000
00100000
00000000
,  // measure 30
10000000
00010000
00100000
01000000
10000000
00010000
01000000
00000000
,  // measure 31
00100000
10000000
00010000
00100000
00000000
01000000
10000000
00010000
,  // measure 32
01000000
00100000
10000000
00010000
,  // measure 33
01000000
00000000
00000000
00011000
00000000
00000000
00001000
00100000
,  // measure 34
00001000
00010000
00000100
00001000
00000000
00000000
00000100
00000000
,  // measure 35
00010000
00000000
00000000
00001010
00000000
00000000
00000010
00000100
,  // measure 36
00000001
00001000
00000100
00000010
00000000
00000000
00000001
00001000
,  // measure 37
00000001
00000000
00000001
00000100
00000000
00000000
00000010
00001000
,  // measure 38
00000100
00000000
00000100
00010000
00000000
00000000
00000100
00001000
,  // measure 39
00000010
00000000
00000010
00000100
00000000
00000000
00000010
00001000
,  // measure 40
00000100
00000000
00010000
00001000
00100000
00000000
00010000
00000000
,  // measure 41
01000000
00010000
01000000
00010000
10000000
01000000
00100000
00010000
,  // measure 42
10000000
00010000
00100000
00001000
,  // measure 43
00010000
00000100
00010000
00000100
00001000
00000010
00000100
00000001
,  // measure 44
00001000
00000010
00001000
00000100
,  // measure 45
00010000
00001000
00010000
00001000
00100000
00010000
01000000
00001000
,  // measure 46
00010000
00001000
00100000
00010000
,  // measure 47
01000000
00000000
00100000
00000000
01000000
00000000
00010000
00000000
10000000
00010000
10000000
00000000
01000000
00000000
00100000
00000000
,  // measure 48
00020000
00000000
00000000
00000000
01030000
00100000
00000000
01000000
00100000
00000000
00000000
00000000
20000000
00000000
00000000
00000000
,  // measure 49
30020000
00000000
00000000
00000000
10030000
00100000
00000000
10000000
00100000
00000000
00000000
00000000
02000000
00000000
00000000
00000000
,  // measure 50
03020000
00000000
00000000
00000000
00130000
00001000
00000000
00100000
00001000
00000000
00000000
00000000
00020000
00000000
00000000
00000000
,  // measure 51
00030200
00000000
00000310
00000001
00000000
00001000
00000100
00000000
,  // measure 52
00000020
00000000
00000000
00000000
00000130
00001000
00000000
00000100
00001000
00000000
00000000
00000000
00000020
00000000
00000000
00000000
,  // measure 53
00020030
00000000
00000000
00000000
00031000
00100000
00000000
00001000
00100000
00000000
00000000
00000000
00002000
00000000
00000000
00000000
,  // measure 54
00023000
00000000
00000000
00000000
00030100
00000010
00000000
00000100
00000010
00000000
00000000
00000000
00000002
00000000
00000000
00000000
,  // measure 55
00001003
00000010
00000100
00000001
00001000
00000100
00010000
00001000
,  // measure 56
00200000
00000000
00000000
00000000
00310000
01000000
00000000
00010000
01000000
00000000
00000000
00000000
00200000
00000000
00000000
00000000
,  // measure 57
20300000
00000000
00000000
00000000
30010000
00100000
00000000
00010000
00100000
00000000
00000000
00000000
00020000
00000000
00000000
00000000
,  // measure 58
02030000
00000000
00000000
00000000
03001000
00010000
00000000
00001000
00010000
00000000
00000000
00000000
00002000
00000000
00000000
00000000
,  // measure 59
00023000
00000000
00030100
00001000
00000000
00000010
00000100
00000000
,  // measure 60
00000020
00000000
00000000
00000000
00001030
00000001
00000000
00001000
00000001
00000000
00000000
00000000
00002000
00000000
00000000
00000000
,  // measure 61
00003020
00000000
00000000
00000000
00010030
00000100
00000000
00010000
00000100
00000000
00000000
00000000
00002000
00000000
00000000
00000000
,  // measure 62
00003200
00000000
00000000
00000000
00010300
00001000
00000000
00010000
00001000
00000000
00000000
00000000
00200000
00000000
00000000
00000000
,  // measure 63
00310000
01000000
00100000
10000000
00010000
00000000
10000000
01000000
,  // measure 64
00100000
00010000
10000000
00100000
,  // measure 65
01000000
00000000
00010000
00000000
00100000
00000000
00001000
00010000
,  // measure 66
00000100
00001000
00000010
00010000
,  // measure 67
00001000
00000000
00100000
00000000
00010000
01000000
00100000
10000000
,  // measure 68
00020000
00000000
00000000
00000000
,  // measure 69
00030000
00000000
00000000
00000000
;

//---------------dance-double - ----------------
#NOTES:
     dance-double:
     :
     Medium:
     5:
     0.344,0.405,0.145,0.162,0.000:
00000000
00000000
00000000
00000000
,
00000000
00000000
00000000
00000000
,
00000000
00000000
00000000
00000000
,
00000000
00000000
00000000
00000000
,
01000000
00000000
00100000
00000000
,
01000000
00000000
00010000
00000000
,
10000000
01000000
00100000
00010000
,
10000000
00100000
01000000
00001000
,
00020000
00001000
00031000
00100000
,
00020000
01000000
01030000
00100000
,
20000000
00010000
30010000
00100000
,
00001000
00000000
00000000
00010100
00000000
00000000
00001000
00000000
,
00000020
00000100
00000130
00000001
,
00002000
00000100
00003100
00000010
,
00000002
00001000
00001003
00000010
,
00001000
00000100
00010000
00001000
00010000
00000000
00000100
00000000
,
00011000
00000000
00101000
00000000
,
01100000
00000000
11000000
00000000
,
10010000
00000000
01001000
00000000
,
00011000
00000000
00010100
00000000
,
00000100
00000010
00000001
00000010
,
00000100
00001000
00000010
00010000
,
00011000
00000000
00101000
00000000
,
00110000
01100000
11000000
10010000
,
10000000
00000000
00010000
00000000
01000000
00100000
01000000
00000000
,
00010000
00000000
10000000
00000000
01000000
00100000
00010000
00000000
,
10000000
00000000
00010000
00000000
,
01000000
00001000
00010000
00000100
,
00000010
00000000
00000001
00000000
00001000
00000100
00001000
00000000
,
00000010
00000000
00000100
00000000
00000001
00001000
00000001
00000000
,
00000100
00000000
00000010
00000000
,
00010000
00001000
00100000
00010000
,
01000000
00000000
00000000
00001000
00000000
00000000
00010000
00000100
,
00010000
00000100
00000000
00001000
00000000
00000000
00001000
00000000
,
00000010
00000000
00000000
00000100
00000000
00000000
00000010
00001000
,
00000010
00001000
00000000
00000100
00000000
00000000
00000100
00000000
,
00010000
00000000
00000000
00001000
00000000
00000000
00100000
00000000
,
00001000
00000000
00000000
00010000
00000000
00000000
00000100
00000000
,
00000010
00000000
00000000
00000001
00000000
00000000
00001000
00000000
,
00000010
00001000
00000100
00010000
00001000
00000000
00010000
00000000
,
00001000
00010000
00001000
00000000
00100000
00000000
00010000
01000000
,
00000000
00100000
10000000
00010000
,
00100000
01000000
00100000
00000000
01000000
00000000
10000000
00010000
,
00000000
01000000
00010000
00100000
,
01000000
10000000
01000000
00000000
00100000
00000000
00010000
01000000
,
00000000
00001000
00010000
00000100
,
00000010
00000001
00001000
00000010
,
00000200
00000001
00000301
00001000
,
00000020
00010000
00010030
00001000
,
00020000
00000100
00030100
00010000
,
00001000
00000000
00000000
00110000
00000000
00000000
01000000
00000000
,
20000000
00100000
30100000
01000000
,
00020000
00100000
00130000
01000000
,
00200000
00001000
00301000
00010000
,
00000100
00010000
00000100
00010000
00001000
00100000
00001000
00100000
,
02000000
10000000
13000000
00100000
,
02000000
00010000
03010000
00100000
,
00002000
00010000
00013000
00000100
,
00000010
00000000
00000000
00001001
00000000
00000000
00000001
00000000
,
00000200
00000010
00000310
00001000
,
00000002
00000010
00000013
00000100
,
00020000
00001000
00031000
00100000
,
00010000
00000000
01000000
00000000
00100000
00000000
10000000
00010000
,
01000000
00100000
10000000
00010000
,
00100000
00000000
00001000
00000000
00010000
00000000
00000100
00000010
,
00000001
00001000
00000010
00000100
,
00000001
00000000
00001000
00000000
00000100
00000000
00010000
00001000
,
00020000
00000000
00000000
00000000
,
00030000
00000000
00000000
00000000
;
