#TITLE:Pretty Young Girl;
#SUBTITLE:;
#ARTIST:Bad Boys Blue;
#TITLETRANSLIT:;
#SUBTITLETRANSLIT:;
#ARTISTTRANSLIT:;
#GENRE:;
#CREDIT:;
#MENUCOLOR:;
#METERTYPE:DDR;
#BANNER:Pretty Young Girl.png;
#BACKGROUND:Pretty Young Girl-bg.png;
#LYRICSPATH:;
#CDTITLE:ddrencorecdtitle.png;
#MUSIC:Pretty Young Girl.mp3;
#OFFSET:-0.038;
#SAMPLESTART:50.958;
#SAMPLELENGTH:12.000;
#SELECTABLE:YES;
#LISTSORT:;
#BPMS:0.000=117.825;
#STOPS:;
#BGCHANGES:;
#ATTACKS:;

//---------------dance-single - ----------------
#NOTES:
     dance-single:
     :
     Hard:
     6:
     0.293,0.309,0.112,0.000,0.019: // measure 1
0000
0000
0000
0000
,  // measure 2
0000
0000
0000
0000
,  // measure 3
0000
0000
0000
0000
,  // measure 4
0000
0000
0000
0000
,  // measure 5
1001
0000
0000
0000
0000
0100
0001
0100
,  // measure 6
0000
0010
0000
0010
,  // measure 7
1001
0000
0000
0000
0000
0100
1000
0100
,  // measure 8
0000
0010
0001
0010
0000
0001
1000
0000
,  // measure 9
1001
0000
0000
0000
0000
0010
1000
0010
,  // measure 10
0000
0100
0000
0100
,  // measure 11
1001
0000
0000
0000
0000
0010
1000
0010
,  // measure 12
0000
0100
0001
0100
0000
0001
1000
0000
,  // measure 13
1001
0000
0000
0000
0001
0000
0100
0000
0010
0000
0100
0010
0000
0000
0000
0000
,  // measure 14
1000
0001
0000
0010
0000
0001
1000
0000
,  // measure 15
0010
0000
0100
0001
0100
0000
0010
0000
,  // measure 16
1000
0000
0001
0100
0010
0000
0100
0000
,  // measure 17
1001
0000
0000
0000
1000
0000
0010
0000
0100
0000
0010
0100
0000
0000
0000
0000
,  // measure 18
0010
1000
0000
0001
0000
0100
0001
0000
,  // measure 19
1000
0000
0100
0000
0010
0001
1000
0000
,  // measure 20
0010
0000
0100
0000
0010
0100
0001
0000
,  // measure 21
1000
0100
0000
1000
0000
0010
0000
0001
,  // measure 22
0000
0010
0000
1000
0000
0001
0000
0010
,  // measure 23
0100
0000
0000
0000
0010
0000
0000
0000
0001
0000
1000
0100
0000
0000
0000
0000
,  // measure 24
1000
0000
0000
0000
0010
0000
0000
0000
0100
0000
0001
1000
0000
0000
0000
0000
,  // measure 25
0100
0010
0000
0001
0000
0100
0000
1000
,  // measure 26
0000
0100
0000
0001
0000
1000
0000
0100
,  // measure 27
0010
0000
0001
0000
1000
0010
0100
0000
,  // measure 28
0001
0000
1000
0000
0001
0000
0010
0001
,  // measure 29
0100
0000
0010
1000
0000
1000
0010
0000
,  // measure 30
0100
0000
0001
0000
1000
0000
0001
0010
,  // measure 31
0100
0000
0010
0001
0000
0001
0010
0000
,  // measure 32
0001
0000
1000
0000
0010
0100
0010
0100
,  // measure 33
0001
0000
0000
1000
0000
0000
0001
0000
,  // measure 34
0010
0000
0000
0100
0000
0000
0010
0000
,  // measure 35
0100
0000
0001
0000
1000
0001
0000
0000
,  // measure 36
0100
0010
0000
1001
0000
0000
1000
0001
,  // measure 37
0010
0000
0001
1000
0000
1000
0010
0000
,  // measure 38
0100
0000
0001
0000
1000
0000
0100
1000
,  // measure 39
0010
0000
0100
0001
0000
0001
0010
0000
,  // measure 40
0001
0000
1000
0000
0010
0000
0100
0001
,  // measure 41
1000
0000
0000
0001
0000
0000
0100
0000
,  // measure 42
0010
0000
0000
1000
0000
0000
0001
0010
,  // measure 43
0100
1000
0001
1000
,  // measure 44
1001
0000
0000
0000
0000
0010
1000
0010
,  // measure 45
0000
0100
0000
0100
,  // measure 46
1001
0000
0000
0000
0000
0010
0001
0010
,  // measure 47
0000
0100
1000
0100
0000
1000
0001
0000
,  // measure 48
1001
0000
0000
0000
0000
1000
0001
1000
,  // measure 49
0000
0010
0000
0010
,  // measure 50
1001
0000
0000
0000
0000
0100
0010
0100
,  // measure 51
0000
0001
1000
0001
0000
1000
0100
0000
,  // measure 52
1001
0000
0000
0000
;

//---------------dance-single - ----------------
#NOTES:
     dance-single:
     :
     Beginner:
     1:
     0.097,0.119,0.009,0.000,0.000:
0000
0000
0000
0000
,
0000
0000
0000
0000
,
0000
0000
0000
0000
,
0000
0000
0000
0000
,
1000
0000
0000
0000
,
0001
0000
0100
0000
,
0010
0000
0000
0000
,
1000
0000
0000
0000
,
0001
0000
0000
0000
,
0010
0000
0100
0000
,
1000
0000
0000
0000
,
0001
0000
0000
0000
,
0100
0000
0000
0000
,
0010
0000
1000
0000
,
0100
0000
0000
0000
,
0010
0000
0000
0000
,
0001
0000
0000
0000
,
1000
0000
0010
0000
,
0100
0000
0000
0000
,
0001
0000
0000
0000
,
0010
0000
0001
0000
,
0100
0000
0010
0000
,
1000
0000
0000
0000
,
0001
0000
0000
0000
,
0010
0000
0001
0000
,
1000
0000
0010
0000
,
0100
0000
0000
0000
,
0001
0000
0000
1000
,
1000
0000
0010
0000
,
0100
0000
0000
0001
,
0001
0000
0010
0000
,
0100
0000
0000
0000
,
0010
0000
0001
0000
,
1000
0000
0010
0000
,
0100
0000
0001
0000
,
1000
0000
0000
0001
,
0001
0000
1000
0000
,
0010
0000
0000
0100
,
0100
0000
0010
0000
,
1000
0000
0000
0000
,
0001
0000
0010
0000
,
0001
0000
1000
0000
,
0010
0000
0100
0000
,
0001
0000
0000
0000
,
1000
0000
0010
0000
,
0100
0000
0000
0000
,
0010
0000
0000
0000
,
1000
0000
0000
0000
,
0001
0000
0010
0000
,
0100
0000
0000
0000
,
0010
0000
0000
0000
,
1001
0000
0000
0000
;

//---------------dance-single - ----------------
#NOTES:
     dance-single:
     :
     Easy:
     2:
     0.117,0.143,0.009,0.000,0.000: // measure 1
0000
0000
0000
0000
,  // measure 2
0000
0000
0000
0000
,  // measure 3
0000
0000
0000
0000
,  // measure 4
0000
0000
0000
0000
,  // measure 5
0001
0000
0000
1000
,  // measure 6
0100
0000
1000
0000
,  // measure 7
0001
0000
0000
1000
,  // measure 8
0010
0000
0100
0000
,  // measure 9
0010
0000
0000
1000
,  // measure 10
0001
0000
0010
0000
,  // measure 11
0100
0000
0000
0010
,  // measure 12
0001
0000
1000
0000
,  // measure 13
0001
0000
1000
0000
,  // measure 14
0100
0000
1000
0001
,  // measure 15
0010
0000
0000
0000
,  // measure 16
0001
0000
0000
0000
,  // measure 17
1000
0000
0010
0000
,  // measure 18
0100
0000
0001
1000
,  // measure 19
0010
0000
0000
0000
,  // measure 20
1000
0000
0000
0000
,  // measure 21
0001
0000
0010
0000
,  // measure 22
0001
0000
1000
0001
,  // measure 23
0010
0000
0001
0000
,  // measure 24
0100
0000
0010
0000
,  // measure 25
1000
0000
0001
0000
,  // measure 26
0100
0000
0010
1000
,  // measure 27
0001
0000
1000
0000
,  // measure 28
0100
0000
0000
0000
,  // measure 29
1000
0000
0001
0100
,  // measure 30
0010
0000
0000
0000
,  // measure 31
0100
0000
0001
1000
,  // measure 32
0100
0000
0000
0000
,  // measure 33
1000
0000
0000
0000
,  // measure 34
0001
0000
0000
0000
,  // measure 35
0100
0000
0000
0000
,  // measure 36
0000
0000
0000
0000
,  // measure 37
1000
0000
0001
0010
,  // measure 38
0001
0000
0000
0000
,  // measure 39
0100
0000
0010
1000
,  // measure 40
0010
0000
0000
0000
,  // measure 41
0100
0000
0000
0000
,  // measure 42
0001
0000
0000
0000
,  // measure 43
1000
0000
0001
0000
,  // measure 44
0100
0000
0000
0010
,  // measure 45
1000
0000
0001
0000
,  // measure 46
0010
0000
0000
0001
,  // measure 47
1000
0000
0010
0000
,  // measure 48
0100
0000
0000
0010
,  // measure 49
0100
0000
0001
0000
,  // measure 50
1000
0000
0000
0100
,  // measure 51
1000
0000
0001
0000
,  // measure 52
1001
0000
0000
0000
;

//---------------dance-single - ----------------
#NOTES:
     dance-single:
     :
     Medium:
     4:
     0.197,0.261,0.028,0.000,0.000: // measure 1
0000
0000
0000
0000
,  // measure 2
0000
0000
0000
0000
,  // measure 3
0000
0000
0000
0000
,  // measure 4
0000
0000
0000
0000
,  // measure 5
0001
0000
0000
1000
,  // measure 6
0100
1000
0010
0100
,  // measure 7
0001
0000
0000
0010
,  // measure 8
0001
0000
1000
0000
,  // measure 9
1001
0000
0000
0010
,  // measure 10
0100
0001
0100
0010
,  // measure 11
1000
0000
0000
0001
,  // measure 12
0010
0000
0001
0000
,  // measure 13
1000
0000
0100
0000
1000
0001
1000
0000
,  // measure 14
0001
0000
0000
0100
0000
0000
0001
0000
,  // measure 15
1000
0000
0100
0000
,  // measure 16
1000
0001
0100
0010
,  // measure 17
1000
0000
0001
0000
1000
0001
1000
0000
,  // measure 18
0010
0000
0000
0100
0000
0000
0001
0000
,  // measure 19
1000
0000
0100
0000
,  // measure 20
1000
0001
0100
0001
,  // measure 21
0010
0000
0100
1000
,  // measure 22
0100
0000
1000
0001
,  // measure 23
0100
0000
0001
0000
1000
0001
1000
0000
,  // measure 24
0001
0000
0100
0000
0001
1000
0001
0000
,  // measure 25
1000
0000
0010
0100
,  // measure 26
0001
0000
1000
0100
,  // measure 27
0010
0000
0001
0000
,  // measure 28
1000
0000
0000
0000
0000
0000
0001
1000
,  // measure 29
0001
0000
0000
1000
0000
0000
0001
0000
,  // measure 30
0100
0000
0000
0000
0001
0000
1000
0001
,  // measure 31
1000
0000
0000
0001
0000
0000
0100
0000
,  // measure 32
0010
0000
1000
1000
,  // measure 33
0001
0000
0000
0010
0000
0000
0001
0000
,  // measure 34
1000
0000
0000
0010
0000
0000
0100
0000
,  // measure 35
0001
0000
1000
0000
,  // measure 36
0001
0000
0000
1000
0000
0000
0001
0100
,  // measure 37
0001
0000
0000
1000
0000
0000
0100
0000
,  // measure 38
1000
0000
0000
0000
0001
0000
1000
0100
,  // measure 39
1000
0000
0000
0010
0000
0000
0100
0000
,  // measure 40
0001
0000
0010
0100
,  // measure 41
1000
0000
0000
0001
0000
0000
1000
0000
,  // measure 42
0010
0000
0000
1000
0000
0000
0001
1000
,  // measure 43
0001
0100
0010
1000
,  // measure 44
0001
0000
0000
0010
,  // measure 45
0001
1000
0100
1000
,  // measure 46
0010
0000
0000
0100
,  // measure 47
0010
0000
1000
0000
,  // measure 48
1001
0000
0000
0001
,  // measure 49
0010
0100
1000
0001
,  // measure 50
1000
0000
0000
0010
,  // measure 51
0100
0000
0010
0000
,  // measure 52
1001
0000
0000
0000
;

//---------------dance-double - ----------------
#NOTES:
     dance-double:
     :
     Hard:
     6:
     0.336,0.380,0.168,0.000,0.019:
00000000
00000000
00000000
00000000
,
00000000
00000000
00000000
00000000
,
00000000
00000000
00000000
00000000
,
00000000
00000000
00000000
00000000
,
00011000
00000000
00000000
00000000
00010000
00000100
00001000
00000010
,
00000100
00000010
00001000
00000100
,
00011000
00000000
00000000
00000000
00001000
00100000
01000000
00100000
,
00000000
00010000
01000000
00100000
00000000
01000000
00001000
00000000
,
00011000
00000000
00000000
00000000
00001000
00100000
00001000
00010000
,
00000100
00001000
00000010
00000100
,
00001010
00000000
00000000
00000000
00000010
00001000
00000100
00010000
,
00000000
00001000
00100000
00010000
00000000
01000000
00001000
00000000
,
00011000
00000000
00000000
00000000
00010000
00000000
00000100
00000000
00010000
00000000
00001000
01000000
00000000
00000000
00010000
00000000
,
00100000
00010000
01000000
00001000
00000000
00010000
00000100
00000000
,
00011000
00000000
00010000
00000000
00001000
01000000
00100000
00000000
,
01000000
00000000
00001000
00000000
00010000
00000100
00000010
00000000
,
00001100
00000000
00000000
00000000
00000100
00000000
00010000
00000000
00001000
00000000
00100000
00010000
00000000
00000000
01000000
00000000
,
00001000
01000000
00010000
00100000
00000000
01000000
00100000
00000000
,
00011000
00000000
01000000
00000000
00001000
00010000
00000010
00000000
,
00010000
00000000
00001000
00000000
00100000
00001000
00010000
00000000
,
00001000
00010000
00000000
00000100
00000000
00000010
00000000
00000100
,
00000000
00001000
00000000
00000010
00000000
00010000
00000000
00001000
,
01000000
00000000
00000000
00000000
00010000
00000000
00000000
00000000
00100000
00000000
00001000
00010000
00000000
00000000
00000010
00000000
,
00010000
00000000
00000000
00000000
00001000
00000000
00000000
00000000
01000000
00000000
00010000
00100000
00000000
00000000
01000000
00000000
,
00100000
00010000
00000000
01000000
00000000
00001000
00000000
00010000
,
00000000
00000010
00000000
00000100
00000000
00000010
00000000
00010000
,
00000100
00000000
00001000
00000000
00000010
00010000
00001000
01000000
,
00010000
00000000
00100000
00000000
00001000
00000000
00010000
00000010
,
00000100
00000000
00000010
00000100
00000000
00000100
00001000
00000000
,
00000100
00000000
00000010
00000000
00010000
00000000
00001000
00100000
,
01000000
00000000
00100000
00010000
00000000
00010000
01000000
00000000
,
00001000
00000000
00010000
00000000
00000010
00000000
00000100
00000010
,
00001000
00000000
00000000
00000110
00000000
00000000
00010000
00000000
,
00001000
00000000
00000000
01100000
00000000
00000000
00010000
00000000
,
00100000
00000000
00000000
01000000
00100000
00010000
00000000
01000000
,
00001000
00010000
00000000
00001010
00000000
00000000
00001000
00000010
,
00000100
00000000
00000010
00001000
00000000
00001000
00000100
00000000
,
00001000
00000010
00010000
00000100
00000000
00010000
00001000
00100000
,
00010000
00000000
01000000
00100000
00000000
00100000
01000000
00000000
,
00010000
00100000
00001000
00010000
00000100
00000000
00000100
00000000
,
00001000
00000000
00000000
00010010
00000000
00000000
00001000
00000000
,
00010000
00000000
00000000
01001000
00000000
00000000
00010000
00100000
,
00001000
00010000
00000010
00001000
,
00010100
00000000
00000000
00000000
00010000
00001000
00100000
00001000
,
00010000
00000100
00000010
00000100
,
00011000
00000000
00000000
00000000
01000000
00010000
00100000
00001000
,
00000000
00010000
00000010
00001000
00000000
00000100
00010000
00000000
,
00101000
00000000
00000000
00000000
00010000
01000000
00001000
00100000
,
00010000
00100000
00001000
00010000
,
00001010
00000000
00000000
00000000
00000010
00010000
00000100
00001000
,
00000000
00000010
00010000
00001000
00000000
00100000
00010000
00000000
,
01100000
00000000
00000000
00000000
;

//---------------dance-double - ----------------
#NOTES:
     dance-double:
     :
     Easy:
     1:
     0.085,0.119,0.009,0.000,0.000:
00000000
00000000
00000000
00000000
,
00000000
00000000
00000000
00000000
,
00000000
00000000
00000000
00000000
,
00000000
00000000
00000000
00000000
,
10000000
00000000
00000000
00000000
,
01000000
00000000
00001000
00000000
,
00010000
00000000
00000000
00000000
,
00000100
00000000
00000000
00000000
,
00001000
00000000
00000000
00000000
,
00000010
00000000
00010000
00000000
,
00001000
00000000
00000000
00000000
,
00100000
00000000
00000000
00000000
,
00010000
00000000
01000000
00000000
,
00010000
00000000
00100000
00000000
,
01000000
00000000
00000000
00000000
,
10000000
00000000
00000000
00000000
,
00010000
00000000
01000000
00000000
,
00001000
00000000
00010000
00000000
,
00000100
00000000
00000000
00000000
,
00001000
00000000
00000000
00000000
,
00000010
00000000
00000000
00000000
,
00000100
00000000
00000000
00000000
,
00000010
00000000
00001000
00000000
,
00000001
00000000
00000100
00000000
,
00000010
00000000
00000000
00000000
,
00001000
00000000
00000000
00000000
,
00000100
00000000
00010000
00000000
,
00001000
00000000
00100000
00000000
,
00001000
00000000
00000000
00000000
,
00010000
00000000
00000000
00000000
,
00000100
00000000
00000000
00000000
,
00001000
00000000
00000000
00000000
,
00000010
00000000
00000000
00000000
,
00010000
00000000
00000000
00000000
,
00001000
00000000
00100000
00000000
,
00001000
00000000
00010000
00000000
,
00001000
00000000
00000000
00000000
,
01000000
00000000
00000000
00000000
,
00100000
00000000
00000000
00000000
,
10000000
00000000
00000000
00000000
,
00010000
00000000
00000000
00000000
,
00100000
00000000
00000000
00000000
,
00001000
00000000
00010000
00000000
,
00000100
00000000
00000000
00000000
,
00001000
00000000
00000010
00000000
,
00000100
00000000
00000000
00000000
,
00000010
00000000
00000000
00000000
,
00001000
00000000
00000000
00000000
,
00000100
00000000
00010000
00000000
,
00001000
00000000
00000000
00000000
,
00100000
00000000
00000000
00000000
,
10010000
00000000
00000000
00000000
;

//---------------dance-double - ----------------
#NOTES:
     dance-double:
     :
     Medium:
     4:
     0.205,0.238,0.000,0.000,0.000:
00000000
00000000
00000000
00000000
,
00000000
00000000
00000000
00000000
,
00000000
00000000
00000000
00000000
,
00000000
00000000
00000000
00000000
,
00010000
00000000
00000000
00000000
00000000
00000100
00010000
00000100
,
00000000
00010000
00000000
00010000
,
00001000
00000000
00000000
00000000
00000000
00100000
00001000
00100000
,
00000000
00001000
00010000
00001000
00000000
00000000
00010000
00000000
,
00001000
00000000
00000000
00000000
00000000
01000000
00010000
01000000
,
00000000
00100000
00000000
00100000
,
10000000
00000000
00000000
00000000
00000000
00010000
10000000
00010000
,
00000000
10000000
01000000
10000000
00000000
00000000
00010000
00000000
,
01000000
00100000
01000000
01000000
,
00010000
00000000
10000000
00000000
,
00010000
00000000
00100000
00000000
,
00010000
00000000
01000000
00000000
,
00001000
00010000
00000100
00000100
,
00001000
00000000
00000010
00000000
,
00000100
00000000
00000001
00000000
,
00001000
00000000
00000100
00000000
,
00010000
00001000
00000000
00010000
00000000
00001000
00000000
00100000
,
00000000
00001000
00000000
00010000
00000000
00000100
00000000
00001000
,
00000100
00000000
00010000
00000000
,
00001000
00000000
00100000
00000000
,
00010000
01000000
00000000
00100000
00000000
01000000
00000000
00010000
,
00000000
00100000
00000000
00010000
00000000
00100000
00000000
00001000
,
00010000
00000000
00001000
00000000
,
01000000
00000000
00000000
00000000
00100000
00000000
10000000
00010000
,
10000000
00000000
00000000
00010000
00000000
00000000
01000000
00000000
,
00010000
00000000
00000000
00000000
00100000
00000000
01000000
10000000
,
01000000
00000000
00000000
00100000
00000000
00000000
00010000
00000000
,
01000000
00000000
00001000
00010000
,
00001000
00000000
00000000
00010000
00000000
00000000
00000100
00000000
,
00001000
00000000
00000000
00000010
00000000
00000000
00000100
00000000
,
00000001
00000000
00001000
00000000
,
00000010
00000000
00000000
00001000
00000000
00000000
00000010
00000100
,
00000010
00000000
00000000
00001000
00000000
00000000
00000001
00000000
,
00000100
00000000
00000000
00000000
00000010
00000000
00001000
00000100
,
00001000
00000000
00000000
00000100
00000000
00000000
00010000
00000000
,
00001000
00000000
00010000
00001000
,
00100000
00000000
00000000
00010000
00000000
00000000
01000000
00000000
,
00010000
00000000
00000000
10000000
00000000
00000000
01000000
00100000
,
01000000
10000000
00010000
01000000
,
00100000
00000000
00000000
00000000
00000000
01000000
00010000
01000000
,
00000000
00100000
00000000
00100000
,
10000000
00000000
00000000
00000000
00000000
00010000
00100000
00010000
,
00000000
00100000
01000000
00100000
00000000
00000000
00100000
00000000
,
00001000
00000000
00000000
00000000
00000000
00010000
00001000
00010000
,
00000000
00000100
00000000
00000100
,
00001000
00000000
00000000
00000000
00000000
00000001
00000100
00000001
,
00000000
00000100
00000010
00000100
00000000
00000000
00000010
00000000
,
00001000
00000000
00000000
00000000
;

//---------------dance-single - ----------------
#NOTES:
     dance-single:
     :
     Challenge:
     7:
     0.418,0.475,0.224,0.075,0.121: // measure 1
0000
0000
0000
0000
,  // measure 2
0000
0000
0000
0000
,  // measure 3
0000
0000
0000
0000
,  // measure 4
0000
0000
0000
0000
,  // measure 5
1001
0000
0010
0000
0001
0010
0100
1000
,  // measure 6
0000
0000
0001
0000
0100
0000
0001
0000
1000
0100
0000
1000
0001
0000
1000
0000
,  // measure 7
0101
0000
0010
0000
1000
0100
0010
0011
,  // measure 8
0000
1000
0010
0101
0000
0010
0100
0000
,  // measure 9
1001
0000
0010
0000
1000
0001
0010
0100
,  // measure 10
0000
0000
0010
0000
0001
0000
0010
0000
0100
1000
0000
0100
0010
0000
0001
0000
,  // measure 11
1100
0000
0010
0000
0001
0100
0010
1010
,  // measure 12
0000
0001
0010
1100
0000
0010
0100
0000
,  // measure 13
1001
0000
0000
0000
0010
0000
0001
0000
0100
0000
0010
1000
0000
0000
0000
0000
,  // measure 14
0010
0100
0000
0001
0000
1000
0100
0000
,  // measure 15
1000
0000
0000
0000
0001
0100
0001
0100
0001
0000
0010
0000
0100
0000
1000
0000
,  // measure 16
0010
0000
0100
0000
0001
1000
0001
1000
0001
0000
1000
0000
0100
0000
0000
0000
,  // measure 17
1001
0000
0000
0000
1000
0000
0010
0000
0100
0000
0001
1000
0000
0000
0000
0000
,  // measure 18
0100
1000
0000
0010
0000
0100
0001
0000
,  // measure 19
0010
0000
0000
0000
0100
1000
0100
1000
0100
0000
0010
0000
0001
0000
1000
0000
,  // measure 20
0010
0000
0100
0000
0001
0010
0001
0010
0001
0000
0100
0000
0010
0000
1000
0000
,  // measure 21
0001
0010
0000
1000
0000
0100
0000
0001
,  // measure 22
0000
0100
0000
1000
0000
0010
0000
0100
,  // measure 23
0001
0000
0000
0000
1000
0000
0000
0000
0010
0000
0100
0001
0000
0000
0000
0000
,  // measure 24
0010
0001
0010
0001
0000
0000
0000
0000
0001
0100
0001
0100
0000
0000
0010
0000
,  // measure 25
1000
0100
0000
0001
0000
0010
0000
1000
,  // measure 26
0000
0010
0000
0001
0000
0100
0000
0010
,  // measure 27
1000
0000
0100
0000
1000
0000
0010
0000
0100
0000
0001
1000
0000
0000
0100
0000
,  // measure 28
1000
0000
0001
0000
0100
0000
0001
0000
1000
0010
0000
1000
0001
0000
0100
0000
,  // measure 29
0010
0000
0100
0001
0000
0001
0100
0000
,  // measure 30
2002
0000
0000
3003
0000
0000
0010
1000
,  // measure 31
0001
0000
0010
0100
0000
0100
0010
0000
,  // measure 32
2002
0000
0000
3003
0001
1000
0100
1000
,  // measure 33
0001
0000
0001
0100
0000
1000
0100
0000
,  // measure 34
0001
0000
1000
0100
0000
0001
0100
0000
,  // measure 35
1000
0010
0000
0010
0001
0100
0000
0100
,  // measure 36
1000
0010
0000
1001
0000
0000
1000
0001
,  // measure 37
0010
0000
0100
1000
0000
1000
0100
0000
,  // measure 38
2002
0000
0000
3003
0000
0000
0010
0100
,  // measure 39
0001
0000
1000
0010
0000
0010
1000
0000
,  // measure 40
2002
0000
0000
3003
1000
0001
0010
0001
,  // measure 41
1000
0000
0001
0100
0000
1000
0100
0001
,  // measure 42
0010
0000
1000
0010
0000
0001
1000
0010
,  // measure 43
0100
0010
1000
0010
,  // measure 44
1001
0000
0100
0000
0001
0010
0100
1000
,  // measure 45
0000
0000
0001
0000
0100
0000
0001
0000
1000
0100
0000
1000
0010
0000
0100
0000
,  // measure 46
0101
0000
0010
0000
1000
0100
0010
0011
,  // measure 47
0000
0010
0100
1100
0000
1000
0001
0000
,  // measure 48
1100
0000
0001
0000
0100
0010
1000
0001
,  // measure 49
0000
0000
0010
0000
0001
0000
0010
0000
0100
0010
0000
0100
1000
0000
0010
0000
,  // measure 50
0101
0000
0010
0000
1000
0100
0010
1001
,  // measure 51
0000
0010
0100
0101
0000
0001
1000
0000
,  // measure 52
1001
0000
0000
0000
;

//---------------dance-double - ----------------
#NOTES:
     dance-double:
     :
     Challenge:
     7:
     0.405,0.475,0.112,0.075,0.121:
00000000
00000000
00000000
00000000
,
00000000
00000000
00000000
00000000
,
00000000
00000000
00000000
00000000
,
00000000
00000000
00000000
00000000
,
00001001
00000000
00000010
00000000
00000100
00000001
00000100
00000010
,
00000000
00000000
00001000
00000000
00000010
00000000
00010000
00000000
00001000
00010000
00000000
00001000
00010000
00000000
00001000
00000000
,
01000000
00000000
00010000
00000000
00100000
01000000
10000000
01000000
,
00000000
00100000
00001000
00010000
00000000
00000100
00000010
00000000
,
00001001
00000000
00000100
00000000
00000010
00001000
00000010
00000100
,
00000000
00000000
00000001
00000000
00000100
00000000
00000010
00000000
00010000
00001000
00000000
00010000
00001000
00000000
00010000
00000000
,
00000100
00000000
00001000
00000000
00000010
00000100
00000001
00000100
,
00000000
00000010
00010000
00001000
00000000
00100000
01000000
00000000
,
10010000
00000000
00000000
00000000
00100000
00000000
01000000
00000000
00010000
00000000
10000000
01000000
00000000
00000000
00000000
00000000
,
10000000
00010000
00000000
01000000
00000000
00001000
00010000
00000000
,
00000100
00000000
00000000
00000000
00001000
00000001
00001000
00000001
00001000
00000000
00000100
00000000
00010000
00000000
00001000
00000000
,
00100000
00000000
00010000
00000000
10000000
00010000
10000000
00010000
10000000
00000000
00010000
00000000
01000000
00000000
00000000
00000000
,
10010000
00000000
00000000
00000000
00100000
00000000
01000000
00000000
00010000
00000000
10000000
01000000
00000000
00000000
00000000
00000000
,
00100000
00001000
00000000
00010000
00000000
00000100
00001000
00000000
,
00000001
00000000
00000000
00000000
00000001
00001000
00000001
00001000
00000001
00000000
00000100
00000000
00000010
00000000
00010000
00000000
,
00001000
00000000
00100000
00000000
00010000
10000000
00010000
10000000
00010000
00000000
01000000
00000000
00100000
00000000
10000000
00000000
,
01000000
00010000
00000000
00001000
00000000
00000010
00000000
00000001
,
00000000
00000100
00000000
00001000
00000000
00010000
00000000
00100000
,
01000000
00000000
00000000
00000000
00010000
00000000
00000000
00000000
10000000
00000000
01000000
00100000
00000000
00000000
00000000
00000000
,
00001000
00010000
00001000
00010000
00000000
00000000
00000000
00000000
00010000
00001000
00010000
00001000
00000000
00000000
00010000
00000000
,
00000100
00000010
00000000
00000001
00000000
00000100
00000000
00001000
,
00000000
00010000
00000000
00100000
00000000
10000000
00000000
01000000
,
00100000
00000000
00001000
00000000
00010000
00000000
00000100
00000000
00010000
00000000
00001000
00010000
00000000
00000000
00001000
00000000
,
01000000
00000000
00010000
00000000
10000000
00000000
01000000
00000000
00100000
00010000
00000000
00100000
00010000
00000000
01000000
00000000
,
00001000
00000000
00010000
00000100
00000000
00000100
00001000
00000000
,
00002002
00000000
00000000
00003003
00000000
00000000
00000100
00000010
,
00001000
00000000
00000100
00010000
00000000
00010000
00001000
00000000
,
00022000
00000000
00000000
00033000
00001000
00100000
00001000
00010000
,
00000100
00000000
00001000
00000001
00000000
00000100
00000010
00000000
,
00010000
00000000
00001000
00100000
00000000
00010000
01000000
00000000
,
00100000
10000000
00000000
10000000
01000000
00010000
00000000
00001000
,
00000010
00000001
00000000
00001001
00000000
00000000
00000010
00001000
,
00000100
00000000
00000010
00000001
00000000
00000001
00000100
00000000
,
00002002
00000000
00000000
00003003
00000000
00000000
00000010
00000100
,
00000001
00000000
00001000
00000100
00000000
00000100
00010000
00000000
,
00022000
00000000
00000000
00033000
00001000
00010000
00001000
01000000
,
00100000
10000000
00010000
01000000
00000000
00100000
10000000
00010000
,
00100000
00001000
00010000
00001000
00000000
01000000
00001000
00010000
,
00000100
00000010
00000001
00001000
,
00001001
00000000
00000100
00000000
00000010
00001000
00000010
00000100
,
00000000
00000000
00000001
00000000
00000100
00000000
00000010
00000000
00010000
00001000
00000000
00010000
00001000
00000000
00010000
00000000
,
00000100
00000000
00001000
00000000
00000010
00001000
00000100
00001000
,
00000000
00000100
00010000
00001000
00000000
00100000
01000000
00000000
,
10010000
00000000
00100000
00000000
00010000
01000000
00010000
10000000
,
00000000
00000000
00100000
00000000
01000000
00000000
00001000
00000000
00010000
00001000
00000000
00010000
00001000
00000000
00010000
00000000
,
00000100
00000000
00001000
00000000
00000010
00000100
00000001
00001000
,
00000000
00000100
00010000
00001000
00000000
00100000
00001000
00000000
,
00011000
00000000
00000000
00000000
;
