#TITLE:Paparazzi;
#SUBTITLE:;
#ARTIST:Kan Mi Youn ft. Eric;
#TITLETRANSLIT:;
#SUBTITLETRANSLIT:;
#ARTISTTRANSLIT:;
#GENRE:;
#CREDIT:;
#MENUCOLOR:;
#METERTYPE:DDR;
#BANNER:Paparazzi-bn.png;
#BACKGROUND:Paparazzi-bg.png;
#LYRICSPATH:Paparazzi-lrc.lrc;
#CDTITLE:;
#MUSIC:Paparazzi.mp3;
#OFFSET:-0.013;
#SAMPLESTART:50.910;
#SAMPLELENGTH:11.000;
#SELECTABLE:YES;
#LISTSORT:;
#DISPLAYBPM:178.000;
#BPMS:0.000=88.900,8.000=178.000;
#STOPS:102.000=0.337
;
#BGCHANGES:0.000=Paparazzi.avi=1.000=0=0=0,
369.000=Paparazzi-bg2.PNG=1.000=1=0=1,
99999=-nosongbg-=1.000=0=0=0 // don't automatically add -songbackground-
;
#ATTACKS:;

//---------------dance-single - ----------------
#NOTES:
     dance-single:
     :
     Challenge:
     9:
     0.730,0.675,0.525,0.656,0.039:
0000
0000
0000
0000
,
0000
0000
0000
0000
,
1000
0100
0010
1000
0100
0010
1000
0100
,
0010
1000
0100
0010
1000
0100
0010
0000
,
0001
1000
1010
0000
0001
0000
1100
1000
,
0001
1010
0001
1100
,
0001
0100
0010
0001
0100
0010
0001
0100
,
0010
0001
0100
0010
0001
0100
0010
0000
,
1000
0011
1000
0101
,
1000
0000
0000
0000
0011
0000
0000
0000
1000
0000
0001
0100
0001
0000
1000
0100
,
1000
0010
0100
0001
1100
0000
0101
0000
,
1000
0001
1100
0000
0101
0000
1000
0010
,
0100
0100
0100
0100
0001
1000
0100
0010
,
0002
0010
0003
2000
0010
3000
1001
0000
,
1000
1000
1000
1000
0010
0100
1001
0000
,
1000
0001
0011
0000
0110
0000
0100
1000
,
0010
0010
0010
0010
1000
0001
0100
0000
,
0002
0100
0003
2000
0100
3000
1001
0000
,
1000
0000
0010
0000
0100
0000
0010
0000
2000
0010
0000
0000
0001
0000
0000
0000
,
3100
0000
0010
0000
0002
0010
0000
0000
1000
0000
0000
0000
0103
0000
0001
0000
,
1000
1000
1000
1000
0010
0100
0001
1000
,
0200
0001
0300
0200
1000
0300
0110
0000
,
1000
1000
1000
1000
0001
0010
0110
0000
,
0100
1000
0110
0000
0110
0000
0100
1000
,
0001
0001
0001
0001
1000
0100
0001
0100
,
2000
0000
0002
3000
0103
0000
0020
0000
,
0000
2030
0000
3001
0100
0000
0001
0010
,
1000
0010
0110
0000
1001
0000
0020
0000
,
0000
0032
0000
1003
0100
0000
1000
0010
,
0001
0010
0110
0000
1001
0000
1000
0000
,
0001
0100
1000
0100
0001
0000
1000
0000
,
0001
1000
0100
0000
2000
0000
0000
0000
3010
0000
0000
0000
1000
0000
0100
0000
,
0001
0101
0110
1100
,
1001
1010
0011
0001
,
0100
0000
1000
0000
0010
0000
0001
0001
,
1000
0000
1000
0000
0001
1000
0001
1000
0001
0000
2000
0000
0010
0000
0010
0000
,
0010
0010
3001
0000
1001
0000
1000
2000
,
0010
3001
1000
0000
1002
0000
0103
0000
,
2001
3000
1002
0013
,
2000
0010
3002
0100
1003
0000
0001
0010
,
0100
0010
0002
0100
1003
0000
2000
0100
,
3001
0101
0000
0100
,
2000
0010
3001
0000
0011
0000
1010
0000
,
1100
0000
0101
0000
1000
0002
0010
0010
,
0010
0010
1003
0000
1001
0000
0001
0002
,
0010
1003
0001
0000
2001
0000
3100
0000
,
1002
0000
0003
1000
1000
1000
0010
0000
,
0002
0010
2003
0100
3001
0000
1000
0010
,
0100
0010
2000
0100
3001
0000
0002
0100
,
1003
1100
0000
0100
,
0002
0010
1003
0000
1010
0000
0011
0000
,
0101
1100
0000
0020
,
2030
3002
0000
0020
,
0003
0000
0230
0000
1300
1000
0020
0000
,
0230
0000
0302
0000
1003
0001
1000
0100
,
0001
0100
2000
0000
0000
3001
0200
0000
,
0300
0100
0020
0000
0030
0010
2000
0000
,
0000
0002
3000
0200
,
0003
0000
0300
0000
0200
0000
0000
0310
0000
0000
1000
0000
0010
0000
1000
0000
,
0001
0100
0001
1000
0100
1000
0100
0000
,
0010
0001
0100
0010
1000
0001
0200
0000
,
0000
0301
0010
0100
0000
1000
0000
0010
,
1000
0001
0100
1000
0100
0001
1000
0010
,
0001
0010
1000
0100
0010
0001
1000
0200
,
0000
0000
0301
0100
1000
0002
0000
1003
,
0010
1000
0100
0001
0100
1000
0001
0020
,
0000
0130
1000
0010
1000
0200
0000
0310
,
0001
1000
0001
0100
0001
0000
1100
0000
,
0100
2000
0100
0000
3001
0000
1000
1000
,
0001
0000
0001
0000
1000
0001
1000
0001
1000
0000
0001
0000
0020
0000
0000
0000
,
0130
1000
0001
1000
0010
0200
0000
0301
,
0010
0001
0100
0002
2000
0000
3003
0000
,
0000
0000
0000
0000
,
0000
0000
0000
0000
0001
2000
0010
0010
,
0010
0010
3001
0100
1001
0000
1000
2000
,
0100
3001
1001
0000
0012
0000
0103
0000
,
2010
3000
0012
0013
,
2000
0010
3002
1000
0103
0000
0001
0020
,
1000
1030
0010
0001
0200
0000
1300
0100
,
0002
0000
1000
0003
0101
0000
0000
0000
1001
0000
0000
0000
1100
0000
0000
0000
,
1000
0010
0001
0000
0011
0000
1010
0000
,
1100
0000
0110
0000
1001
0002
0010
0010
,
0010
0010
1003
0100
1001
0000
0001
0002
,
0100
1003
1001
0000
2100
0000
3010
0000
,
0102
0000
0003
0100
0100
0100
0001
0000
,
2000
0010
3002
1000
0103
0000
0001
0100
,
1000
0001
2000
0010
3001
0000
0002
0010
,
2003
0000
0001
3000
1100
0000
0000
0000
1001
0000
0000
0000
0101
0000
0000
0000
,
0001
0020
1000
0030
2000
0000
0020
3000
,
0002
0030
0200
0000
0003
0000
2300
0000
,
0100
0000
0100
0000
,
0100
0000
0000
0000
0100
0100
3002
0000
,
0103
0000
0000
0000
;

//---------------dance-single - ----------------
#NOTES:
     dance-single:
     :
     Hard:
     8:
     0.511,0.533,0.309,0.262,0.000:
0000
0000
0000
0000
,
0000
0000
0000
0000
,
1000
1100
1000
1100
,
1000
0000
1100
0000
1000
0001
0100
0000
,
0001
0101
0001
0101
,
0001
0000
0101
0000
0001
1000
0010
0100
,
0001
0011
0001
0011
,
0001
0000
0011
0000
0001
1000
0010
0000
,
1000
1010
1000
1010
,
1000
1010
0100
0100
,
0002
0010
0000
0013
,
0001
0100
0010
0000
1000
0000
0100
0010
,
0001
1000
0001
1000
0001
1000
0001
1000
,
0020
1000
0030
0020
0001
0030
0000
0000
,
0020
0100
0000
0130
,
0001
1000
0100
0000
1000
0000
0001
1000
,
0100
0010
0100
0010
0100
0010
0100
0000
,
2000
0001
3000
2000
0001
3000
0000
0000
,
0010
0001
1000
0000
0002
0000
0103
0000
,
0200
0000
0301
0000
0001
0000
1000
0001
,
0010
0100
0010
0100
0010
0100
0010
0100
,
2000
0010
3000
2000
0010
3000
0000
0000
,
0100
0001
1000
0000
0002
0000
0013
0000
,
0020
0000
0130
0000
0200
0000
1300
0001
,
0100
0010
0100
0010
0100
0010
0100
0000
,
0001
1000
1001
0020
,
0000
2030
0000
3001
0100
0000
0001
0000
,
0001
0011
0000
0020
,
0000
0032
0000
1003
0100
0000
1000
0000
,
1000
1010
0000
0010
,
1000
0100
0000
1000
,
0100
1000
1000
0002
,
2003
3002
2003
3020
,
0230
0302
0000
1003
,
0000
0000
0000
0010
,
0010
0000
0001
1000
0001
0100
0001
0000
,
0001
0010
0001
0000
1100
0000
1000
0100
,
1000
0011
0010
0000
,
0001
1000
0001
0100
,
0010
1000
0010
1000
0100
0000
0010
0000
,
0001
0000
0100
0010
0100
0000
0001
1000
,
0001
1001
0000
1000
,
1000
0010
0001
0000
0100
0000
1000
0000
,
0001
1001
0001
0010
,
0100
0010
0100
0000
0110
0000
0001
1000
,
0001
1001
1000
0000
,
0001
0100
0010
1000
,
0010
1000
0010
0000
0100
0000
0001
1000
,
0001
0000
0010
0000
0100
0000
1000
0001
,
1000
0010
0110
0100
,
0001
0100
0001
0000
1000
0000
0100
0000
,
0010
0001
0000
2000
,
3100
0000
0000
0000
,
0000
0000
0000
0000
0100
1000
0002
0000
,
0103
0000
0000
0000
,
0000
0010
0000
2000
,
0000
3100
0000
1000
,
0001
0101
0000
0001
,
0001
0010
1000
0001
,
1000
0000
0010
0000
0110
0000
0100
0001
,
0100
0000
0001
0010
0001
0000
0010
1000
,
0010
0000
0001
0010
0001
0000
1000
0000
,
0100
0001
0100
1000
,
0010
0000
2002
0000
3003
0000
1000
0010
,
1000
0000
0010
0001
0010
0000
0001
0100
,
0001
0000
0010
0001
0010
0000
1000
0000
,
0100
0001
0100
0010
,
0001
0022
0033
1001
,
1001
0000
1001
0000
1001
0000
1000
0100
,
1000
0001
0200
0000
0310
0000
1000
0000
,
1000
0001
0010
0001
0100
0001
0000
1000
,
0100
0010
0001
1000
0100
0000
0000
0000
,
0000
0000
0000
0000
,
0000
0000
0000
0000
0001
1000
0001
0000
,
1000
0010
1000
0000
0101
0000
0001
0100
,
0001
1100
0100
0000
,
1000
0010
0100
0001
,
1000
0100
0010
0100
0010
0000
0001
0000
,
1000
0000
0100
0010
0100
0000
1000
0001
,
1000
1001
0000
1000
,
0001
0010
1000
0000
0100
0000
0010
0000
,
0001
1001
0001
0010
,
0100
1000
0100
0000
0011
0000
0001
0010
,
0001
1100
0100
0000
,
1000
0001
0100
0010
,
1000
0010
1000
0000
0110
0000
0001
1000
,
0001
0000
0110
0000
0100
0000
1000
0001
,
1000
0010
0110
0100
,
0001
0100
0001
0000
1000
0000
0100
0000
,
0010
0001
0000
0012
,
1003
0000
0000
0000
,
0000
0000
0000
0000
1000
0001
0200
0000
,
0301
0000
0000
0000
;

//---------------dance-single - ----------------
#NOTES:
     dance-single:
     :
     Medium:
     6:
     0.409,0.462,0.224,0.131,0.000:
0000
0000
0000
0000
,
0000
0000
0000
0000
,
1000
0010
1000
0010
,
0100
0000
0001
0000
0100
0001
0100
0000
,
0001
0010
0001
0010
,
0100
0000
1000
0000
0100
1000
0100
0000
,
1000
0001
1000
0001
,
0100
0000
0010
0000
0100
0010
0100
0000
,
0001
1000
0001
1000
,
0010
0100
1001
0000
,
1000
0001
0010
0010
,
0001
0100
0001
0000
0010
0000
0000
0000
,
0100
0100
1000
1000
,
0110
0000
0000
1001
0000
0000
0000
0000
,
1000
1000
0010
0001
,
0100
0010
0200
0300
,
0001
0001
1000
0001
,
0110
0000
0000
1001
0000
0000
0000
0000
,
1000
0100
1100
1100
,
0001
1001
1001
0001
,
1000
0010
1000
0000
0001
0000
0100
0000
,
0110
0000
0000
1001
0000
0000
0000
0000
,
0001
0001
0010
0100
,
1000
0100
1000
0000
0010
0000
1000
0000
,
0001
0100
1000
0100
,
0010
0100
1001
0002
,
0000
0000
0013
0000
0000
0100
1000
0000
,
0010
1000
0000
0002
,
0000
0000
0103
0000
0000
0010
1000
0000
,
0001
0010
0000
0100
,
1000
0010
1000
0001
,
0010
0001
0100
0010
,
1000
0001
0010
0011
,
0110
1001
0000
1000
,
1000
0000
0001
0000
0001
0000
1000
0001
,
1000
0020
0030
1000
,
1000
0100
0001
0001
,
0100
1000
1000
0010
,
0001
0001
0010
1000
,
1000
0000
0001
0010
1000
0000
0001
0000
,
0001
1000
1000
0010
,
0001
0010
1000
0001
,
0100
0010
1000
0101
,
1100
0101
0000
1000
,
0010
0001
0001
0010
,
1000
1000
0010
0001
,
0001
0010
1000
1000
,
0001
0000
1000
0010
0001
0000
0100
0000
,
0010
1000
0100
0001
,
0100
1000
0000
0001
,
0010
0001
0010
0000
0100
0000
1100
0000
,
1100
0101
0000
0002
,
1003
0000
0000
0000
,
0000
0000
0000
0000
0001
1000
0020
0000
,
1030
0000
0000
0000
,
0000
2000
3000
0001
,
0000
0000
0020
0000
0030
0100
1000
0000
,
0010
2002
3003
1000
,
0000
0000
0002
0000
0003
0010
0001
0000
,
0010
0100
1000
0010
,
0000
0000
2000
0000
3000
0001
0100
0000
,
0010
1000
0000
0001
,
0000
0020
0030
0100
,
0000
1000
0010
1000
0010
0000
1000
0000
,
0000
0000
0002
0000
0003
0010
0100
0000
,
1000
0002
0003
1000
,
0000
0000
0020
0000
0030
1000
0010
1000
,
0010
0000
1000
0010
1000
0000
0001
0000
,
0001
0000
0001
0000
0001
0000
0010
0100
,
0010
0000
0100
0100
0100
0000
1000
0000
,
0000
0000
0001
0000
0000
0100
0000
0000
,
0000
0000
0100
0010
0100
0000
0000
0000
,
0000
0000
0000
0000
,
0000
0000
0000
1001
,
1000
0100
0001
0001
,
0100
1000
1000
0100
,
0001
0001
0100
1000
,
1000
0000
0001
0100
1000
0000
0010
0000
,
1000
0100
0010
0001
,
0100
0010
0000
1000
,
0001
1000
0001
0000
0010
0000
0011
0000
,
1010
0011
0000
0001
,
0010
1000
1000
0010
,
0001
0001
0010
1000
,
1000
0010
0001
0001
,
0010
0000
1000
0010
1000
0000
0001
0000
,
0100
1000
0100
0010
,
0100
0001
1000
0010
,
1000
0100
0010
1100
,
1100
0101
0000
0020
,
0130
0000
0000
0000
,
0000
0000
0000
0000
1000
0001
1000
0000
,
0100
0000
0000
0000
;

//---------------dance-single - ----------------
#NOTES:
     dance-single:
     :
     Easy:
     3:
     0.205,0.249,0.023,0.000,0.000:
0000
0000
0000
0000
,
0000
0000
0000
0000
,
0000
0010
0000
1000
,
0000
0001
0000
0100
,
0000
1000
0000
0100
,
0000
0001
0000
0010
,
0000
0100
0000
1000
,
0000
0001
0000
0100
,
0000
0010
0000
1000
,
0000
0000
0001
0000
,
0010
0010
0000
0100
,
0000
1000
0000
0001
,
0000
0100
0000
0010
,
1000
0000
0000
1000
0000
0000
0000
0000
,
0001
0001
0000
0010
,
0000
0100
0000
1000
,
0000
0010
0000
0100
,
0001
0000
0000
0001
0000
0000
0000
0000
,
1000
1000
0000
0100
,
0000
0010
0000
0001
,
0000
0100
0000
0010
,
1000
0000
0000
1000
0000
0000
0000
0000
,
0001
0001
0000
1000
,
0000
0100
0000
0010
,
0000
0001
0000
1000
,
0000
0000
0010
0100
,
0000
0100
0000
0001
,
0000
0000
0000
1000
,
0000
0100
0000
1000
,
0000
0000
0000
0001
,
0000
0000
0000
0010
,
0000
0100
0000
1000
,
0000
0001
0000
0100
,
0000
0010
0000
1000
,
0000
0000
0000
0001
,
0001
0001
0000
0010
,
0100
0000
1000
0000
,
0001
0000
1000
0000
,
0010
0000
0100
0001
,
1000
0001
0000
1000
,
1000
0000
0100
0000
,
0010
0000
0001
0000
,
0100
0000
0010
1000
,
1000
1000
0000
0001
,
0010
0000
0100
0000
,
1000
0000
0001
0000
,
0100
0000
0010
1000
,
0001
1000
0000
0100
,
0100
0000
0010
0000
,
0001
0000
0100
0000
,
0010
0000
1000
0001
,
0001
0001
0000
0010
,
0010
0000
0000
0000
,
0000
0100
0000
1000
,
0000
0001
0000
0000
,
0000
1000
0000
0010
,
0000
0100
0000
0000
,
0000
0001
0000
0010
,
0000
0100
0000
0000
,
0000
1000
0000
0001
,
0000
0100
0000
0000
,
0000
0010
0000
1000
,
0000
0100
0000
0000
,
0000
0010
0000
0001
,
0000
1000
0000
0000
,
0000
0001
0000
0100
,
0000
0010
0000
1000
,
0000
0100
0000
0010
,
0000
0000
0000
0001
,
0001
0001
0001
1000
,
0000
0000
0000
0000
,
0000
0010
0010
0000
,
0000
0000
0000
0000
,
0000
0000
0000
0110
,
0100
0000
0001
0000
,
1000
0000
0100
0000
,
0010
0000
0001
1000
,
0000
1001
0000
1000
,
1000
0000
0010
0000
,
0100
0000
0001
0000
,
0010
0000
0100
1000
,
0001
1000
0000
0010
,
1000
0000
0001
0000
,
0100
0000
0010
0000
,
1000
0000
0001
0010
,
0000
0110
0000
0100
,
0100
0000
1000
0000
,
0001
0000
1000
0000
,
0010
0000
0100
0001
,
1000
0001
0000
0010
,
0100
0000
0000
0000
,
0000
0000
0100
0010
,
0100
0000
0000
0000
;

//---------------dance-single - ----------------
#NOTES:
     dance-single:
     :
     Beginner:
     1:
     0.097,0.142,0.000,0.000,0.000:
0000
0000
0000
0000
,
0000
0000
0000
0000
,
0010
0000
0000
0000
,
1000
0000
0000
0000
,
0100
0000
0000
0000
,
0001
0000
0000
0000
,
0010
0000
0000
0000
,
0001
0000
0000
0000
,
0100
0000
0000
0000
,
1000
0000
0000
0000
,
0010
0000
0000
0000
,
1000
0000
0000
0000
,
0010
0000
0000
0000
,
1000
0000
0000
0000
,
0001
0000
0000
0000
,
0100
0000
0000
0000
,
0001
0000
0000
0000
,
0100
0000
0000
0000
,
0001
0000
0000
0000
,
1000
0000
0000
0000
,
0001
0000
0000
0000
,
1000
0000
0000
0000
,
0010
0000
0000
0000
,
0100
0000
0000
0000
,
0010
0000
0000
0000
,
0100
0000
0000
0001
,
0000
0001
0000
0000
,
0000
1000
0000
0000
,
0000
0100
0000
0000
,
0000
0010
0000
0000
,
0000
0001
0000
0000
,
0000
0100
0000
0100
,
0000
0010
0000
0010
,
0000
0100
0000
0100
,
0000
0000
0000
0010
,
0000
0010
0000
0010
,
0000
0000
0000
1000
,
0000
0000
0000
0001
,
0000
0000
0000
0100
,
0000
0000
0000
0010
,
0000
0000
0000
1000
,
0000
0000
0000
0001
,
0000
0000
0000
0100
,
0000
0100
0000
0001
,
0000
0000
0000
0010
,
0000
0000
0000
0100
,
0000
0000
0000
1000
,
0000
0000
0000
0010
,
0000
0000
0000
0100
,
0000
0000
0000
0001
,
0000
0000
0000
1000
,
0000
1000
0000
0100
,
0000
0000
0000
0000
,
0000
0000
0000
0010
,
0000
0000
0000
0000
,
0000
0000
0000
0001
,
0000
0000
0000
0000
,
0000
0000
0000
0100
,
0000
0000
0000
0000
,
0000
0000
0000
0010
,
0000
0000
0000
0000
,
0000
0000
0000
0010
,
0000
0000
0000
0000
,
0000
0000
0000
0100
,
0000
0000
0000
0000
,
0000
0000
0000
0100
,
0000
0000
0000
0000
,
0000
0000
0000
0001
,
0000
0000
0000
1000
,
0000
0001
0000
1000
,
0000
0000
0000
0000
,
0000
0000
0000
0000
,
0000
0000
0000
0000
,
0000
0000
0000
0000
,
0010
0000
0000
0000
,
0100
0000
0000
0000
,
0100
0000
0000
0000
,
0001
0000
0000
0000
,
1000
0000
0000
0000
,
1000
0000
0000
0000
,
0100
0000
0010
0000
,
0010
0000
0000
0000
,
0001
0000
0000
0000
,
1000
0000
0000
0000
,
0100
0000
0000
0000
,
0010
0000
0000
0000
,
0001
0000
0000
0000
,
1000
0000
0000
0000
,
0010
0000
0000
0000
,
0100
0000
0100
0000
,
0100
0000
0000
0000
,
0000
0000
0000
0001
;

//---------------dance-double - ----------------
#NOTES:
     dance-double:
     :
     Challenge:
     9:
     0.732,0.817,0.618,0.409,0.035: // measure 1
00000000
00000000
00000000
00000000
,  // measure 2
00000000
00000000
00000000
00000000
,  // measure 3
10000000
01000000
00010000
10000000
00100000
00010000
00001000
00000100
,  // measure 4
00000001
00001000
00000010
00000001
00000010
00000100
00000010
00000000
,  // measure 5
00000001
00000002
00000010
00000003
00000011
00000000
00000010
00000020
,  // measure 6
00000100
00000030
00000110
00000000
00000100
00010000
00001000
00000000
,  // measure 7
00010000
00100000
10000000
00010000
01000000
00001000
00000100
00000001
,  // measure 8
00000100
00000010
00001000
00000010
00000001
00000010
00001000
00000000
,  // measure 9
00000010
00001000
00001010
00000000
00001000
00000100
00010000
00001000
,  // measure 10
01000000
00000000
01000000
00000000
00010000
00000000
10000000
00000000
01000000
00000000
00100000
01000000
00100000
00000000
00001000
00010000
,  // measure 11
00001000
00010000
00000100
00001000
00000110
00000000
00001001
00000000
,  // measure 12
00000001
00000010
00000110
00000000
00001001
00000000
00000001
00001000
,  // measure 13
00000100
01000000
00000100
01000000
00001000
00010000
00001000
00010000
,  // measure 14
00000020
00010000
00000030
00200000
00001000
00300000
00011000
00000000
,  // measure 15
00001000
00100000
01000000
10000000
01010000
00000000
11000000
00000000
,  // measure 16
10000000
00010000
00110000
00000000
00011000
00000000
00001000
00010000
,  // measure 17
00000010
00100000
00000010
00100000
00001000
00010000
00001000
00000000
,  // measure 18
02000000
00001000
03000000
00000200
00010000
00000300
00011000
00000000
,  // measure 19
00000010
00000000
00000100
00000000
00010000
00000000
00001000
00000000
00020000
00000100
00000000
00000000
00031000
00000000
00000000
00000000
,  // measure 20
00001000
00000000
00010000
00000000
00002000
01000000
00000000
00000000
00013000
00000000
00000000
00000000
00001000
00000000
00010000
00000000
,  // measure 21
00000010
00100000
00000010
00100000
00001000
00001000
00001000
01000000
,  // measure 22
00010000
20000000
00000000
32000000
00010000
03000000
01100000
00000000
,  // measure 23
00100000
00001000
00010000
00000010
00001010
00000000
00000011
00000000
,  // measure 24
00000001
00000010
00001100
00000000
00000101
00000000
00000001
00001000
,  // measure 25
00000100
01000000
00000100
01000000
00001000
00001000
00001000
00000000
,  // measure 26
00020000
00000010
00031000
00022000
,  // measure 27
00033000
00110000
00000000
00100000
01000000
00000000
10000000
10000000
,  // measure 28
10000000
00100000
00010000
00100000
01000000
00000000
00022000
00000000
,  // measure 29
00033000
00001010
00000000
00000010
00000100
00000000
00000001
00000001
,  // measure 30
00000001
00000010
00001000
00000010
00000100
00000000
00002100
00000000
,  // measure 31
00003001
00001000
00000100
00010000
00001000
00000000
00012000
00000000
,  // measure 32
00103000
00001000
00010000
00000000
00002000
00000000
00000000
00000000
01003000
00000000
00000000
00000000
00010000
00000000
10000000
00000000
,  // measure 33
00100000
10100000
00101000
00001010
,  // measure 34
00000011
00002002
00003003
00001001
,  // measure 35
00011000
00000000
10010000
00000000
00011000
00000000
00001000
00010000
,  // measure 36
00001000
00000000
00011000
00000000
00010000
00001000
00010000
00001000
00010000
00000000
00000200
00000000
00000010
00000000
00000010
00000000
,  // measure 37
00000010
00000010
00001000
00000000
00000010
00000000
00001000
00001000
,  // measure 38
00000010
00000000
00001300
00000000
00000110
00000000
00000010
00000100
,  // measure 39
00002001
00003000
00001100
00000100
,  // measure 40
00010000
00001000
01000000
00010000
10000000
00200000
01000000
01000000
,  // measure 41
01000000
01000000
00010000
00000000
01000000
00000000
00010000
00010000
,  // measure 42
01000000
00310000
01100000
00010000
,  // measure 43
00100000
00001000
00010000
00000000
00011000
00000000
00001100
00000000
,  // measure 44
00001001
00000000
00000101
00000000
00000001
00000200
00000010
00000010
,  // measure 45
00000010
00000010
00001000
00000000
00000010
00000000
00001000
00001000
,  // measure 46
00000010
00000000
00001300
00000000
00000110
00000000
00000100
00000010
,  // measure 47
00001002
00000000
00000003
00001000
00001000
00001000
00000010
00000000
,  // measure 48
00010000
00001000
00100000
00010000
10000000
02000000
00100000
00100000
,  // measure 49
00100000
00100000
10000000
00000000
00100000
00000000
10000000
10000000
,  // measure 50
00100000
13000000
01100000
01000000
,  // measure 51
10000000
00010000
01000000
00000000
01010000
00000000
00010100
00000000
,  // measure 52
00001100
00000101
00000000
00002001
,  // measure 53
00000010
00000000
00003100
00000000
00000000
00011000
00000000
00000000
,  // measure 54
01000000
00000000
01001000
00000000
01000000
00010000
20000000
00000000
,  // measure 55
30100000
00000000
10100000
00000000
00100000
10000000
00100000
01000000
,  // measure 56
00100000
00010000
00200000
00000000
00000000
01300000
00002000
00000000
,  // measure 57
00000000
00013000
00000200
00000000
00000000
00001300
00000020
00000000
,  // measure 58
00000000
00000130
00000002
00000000
00000000
00000000
00000013
00000000
,  // measure 59
00000100
00000000
00000110
00001000
00000000
00000100
00010000
00000100
,  // measure 60
00000000
00010000
00001000
01000000
00010000
10000000
00100000
00000000
,  // measure 61
01000000
00100000
10000000
01000000
00100000
00010000
00001000
00000100
,  // measure 62
00000010
00000001
00000010
00000200
00000000
00001300
00000000
00000010
,  // measure 63
00001000
00000001
00000100
00001000
00000100
00000001
00001000
00000100
,  // measure 64
00010000
00001000
01000000
00010000
10000000
00100000
00010000
00000020
,  // measure 65
00000000
00000000
00000130
00000001
00000100
00000020
00000000
00001030
,  // measure 66
00000100
00010000
00001000
00010000
00000100
00000010
00000001
00000200
,  // measure 67
00000000
00000300
00011000
01000000
00010000
20000000
00000000
31000000
,  // measure 68
00100000
00001000
00010000
00000010
00001000
00000100
00011000
00000000
,  // measure 69
00011000
00100000
00011000
00000000
00011000
00000000
00011000
00010000
,  // measure 70
00011000
00000000
00000100
00000000
00010000
00001000
00010000
00001000
00010000
00000000
00011000
00000000
00100000
00000000
00010000
00000000
,  // measure 71
00100000
01000000
10000000
00010000
01000000
00010000
00000000
00100000
,  // measure 72
01000000
10000000
00010000
01000000
00100000
00000000
00000000
00000000
,  // measure 73
00000000
00000000
00000000
00000000
,  // measure 74
00000000
00000000
00000000
00000000
00001000
00000200
00000010
00000010
,  // measure 75
00000010
00000010
00000301
00000010
00000100
00001000
00000100
00000100
,  // measure 76
00000010
00000001
00000100
00000000
00001002
00000000
00001003
00000000
,  // measure 77
00021000
00030000
20010000
30100000
,  // measure 78
10000000
00100000
00010000
10000000
01000000
00200000
01000000
01000000
,  // measure 79
01000000
01000000
10300000
00100000
01000000
00010000
01000000
01000000
,  // measure 80
00100000
10000000
01000000
00000000
10010000
00000000
10000000
00000000
,  // measure 81
00010000
00001000
00010000
00000000
00011000
00000000
00001010
00000000
,  // measure 82
00000011
00000000
00000101
00000000
00000100
00000020
00000100
00000100
,  // measure 83
00000100
00000100
00001030
00000100
00000010
00000001
00000010
00000010
,  // measure 84
00000100
00000001
00000010
00000000
00001002
00000000
00001003
00000000
,  // measure 85
00021000
00000000
00030000
00001000
00010000
10000000
01000000
00000000
,  // measure 86
00010000
01000000
10000000
00010000
00100000
02000000
00100000
00100000
,  // measure 87
00100000
00100000
03010000
00100000
01000000
10000000
00100000
00100000
,  // measure 88
01000000
00010000
00100000
00000000
10010000
00000000
10000000
00000000
,  // measure 89
00010000
00001000
00000010
00000000
00000011
00000000
00000101
00000000
,  // measure 90
00001100
00000000
00011000
00020000
00002000
00033000
00012000
00000000
,  // measure 91
00100000
00023000
00000010
00032000
,  // measure 92
00100000
00000000
00013000
00000000
00011000
00011000
00200000
00000000
,  // measure 93
00300010
00000000
00000000
00000000
;

//---------------dance-double - ----------------
#NOTES:
     dance-double:
     :
     Hard:
     9:
     0.589,0.568,0.556,0.162,0.000:
00000000
00000000
00000000
00000000
,
00000000
00000000
00000000
00000000
,
00100000
01010000
00100000
01010000
,
01000000
00011000
01000000
00011000
,
00000100
00001010
00000100
00001010
,
00000001
00001100
00000001
00001100
,
00000010
00011000
00000010
00011000
,
01000000
10100000
01000000
10100000
,
00010000
00110000
00001000
00110000
,
01000000
00000000
10010000
00000000
10000000
00010000
10000000
00010000
,
01000000
00100000
01000000
00000000
00020000
00000000
00130000
00000000
,
00001000
00010000
00002000
00000000
00003010
00000000
00000100
00001000
,
00000001
00001000
00000001
00001000
00000001
00001000
00000001
00001000
,
00000010
00001001
00000000
00000010
00001001
00000000
00000000
00000000
,
00001000
00000100
00001000
00000100
00020000
00000000
00031000
00000000
,
01000000
00010000
02000000
00000000
13000000
00000000
01000000
00100000
,
10000000
00100000
10000000
00100000
10000000
00100000
10000000
00000000
,
00100000
10010000
00000000
00100000
10010000
00000000
00000000
00000000
,
00010000
00100000
00010000
00100000
00002000
00000000
00013000
00000000
,
00001000
00010000
00002000
00000000
00003010
00000000
00000001
00000010
,
00000001
00000010
00000001
00000010
00000100
00001000
00000001
00000100
,
00000010
00001001
00000000
00000010
00001001
00000000
00000000
00000000
,
00000100
00010000
00001000
00010000
00000020
00000000
00000130
00000000
,
00000001
00001000
00000200
00000000
00010300
00000000
00001000
01000000
,
00010000
00100000
00010000
00100000
00010000
00100000
00020000
00000000
,
02030000
23000000
30020000
00130000
,
00000000
01000000
00000000
00001000
00010000
00000000
00001000
00010000
,
00001000
00010000
00000010
00000000
00000100
00000000
00000001
00000000
,
00000000
00000010
00000000
00000100
00010000
00000000
00001000
00010000
,
00001000
00010000
00100000
00000000
01000000
00000000
00010000
00000000
,
10000000
00010000
01000000
00010000
00100000
00000000
00020000
00000000
,
00130000
00001000
00010000
00000000
00000100
00000000
00001000
00000100
,
00001000
00000010
00000001
00000100
,
00001000
00010000
00000000
10000000
,
10000000
00000000
00010000
00000000
00010000
00000000
10000000
00010000
,
10000000
00010000
20000000
00000000
30010000
10000000
00010000
00000000
,
01100000
00000000
01000000
00000000
10010000
00000000
10000000
00100000
,
00010000
00001000
00000100
00000001
00000100
00000000
00000001
00000000
,
00001001
00001000
00001001
00000001
,
00001000
00000100
00000001
00000100
00001000
00000000
00000010
00000100
,
00001001
00000000
00000100
00000000
00000110
00000000
00000001
00000100
,
00001000
00010000
00100000
10000000
00100000
00000000
10000000
00000000
,
01000000
10000000
01000000
00000000
11000000
00000000
01010000
00000000
,
00110000
00000000
10100000
00000000
10000000
00010000
00100000
00000000
,
00110000
00000000
01000000
00000000
01010000
00000000
01000000
00001000
,
00010000
00000010
00000001
00000010
00001000
00000000
00000100
00000000
,
00001001
00000010
00001001
00000100
,
00001000
00000100
00000001
00000010
00001000
00000000
00000010
00000100
,
00001001
00000000
00000100
00000000
00000110
00000000
00000100
00010000
,
00001000
00100000
10000000
00100000
00010000
00000000
01000000
00000000
,
10000000
01000000
00010000
00000000
00100000
00000000
00110000
00000000
,
01010000
10010000
00000000
00200000
,
01300000
00010000
00000000
00100000
,
00000000
00000000
00001000
00000000
00010000
00010000
00000020
00000000
,
00000130
00000000
00000001
00000000
00000010
00000100
00000010
00000000
,
00000100
00000000
00020000
00000000
00000000
00031000
01000000
00000000
,
00000000
01010000
00000000
10000000
,
00100000
10010000
00000000
10000000
,
00000000
01100000
00000000
01000000
,
00001000
00000000
00011000
00000000
00000000
00000000
00100000
00001000
,
00100000
00000000
00001000
00000100
00001000
00000000
00000100
00000010
,
00000100
00000000
00001000
00010000
00001000
00000000
00100000
00000000
,
01000000
01010000
01000000
00100000
,
10000000
00000000
01000000
00000000
00100000
00010000
01000000
00010000
,
01000000
00000000
00010000
00001000
00010000
00000000
00001000
00000010
,
00001000
00000000
00000010
00000001
00000010
00000000
00000100
00000000
,
00000100
00000000
00001001
00000000
00000001
00001000
00000100
00000000
,
00010000
00011000
01000000
01010000
,
01010000
00000000
01010000
00000000
01010000
00000000
01000000
00100000
,
01000000
00100000
20000000
00000000
30020000
00000000
00130000
00000000
,
00100000
00000000
00001000
00000000
00010000
00000100
00000000
00001000
,
00000100
00000010
00000001
00001000
00000100
00000000
00000000
00000000
,
00000000
00000000
00000000
00000000
,
00000000
00000000
00000000
00000000
00001000
00000001
00001000
00000000
,
00000110
00000000
00000010
00000000
00001001
00000000
00000001
00000100
,
00001000
00010000
00100000
10000000
00100000
00000000
10000000
00000000
,
10010000
00010000
10010000
10000000
,
00010000
00100000
10000000
00100000
00010000
00000000
01000000
00100000
,
10010000
00000000
00100000
00000000
01100000
00000000
10000000
00100000
,
00010000
00001000
00000100
00000001
00000100
00000000
00000001
00000000
,
00000010
00000001
00000010
00000000
00000011
00000000
00001010
00000000
,
00001100
00000000
00000101
00000000
00000001
00001000
00000100
00000000
,
00001100
00000000
00000010
00000000
00001010
00000000
00000010
00010000
,
00001000
01000000
10000000
01000000
00010000
00000000
00100000
00000000
,
10010000
01000000
10010000
00100000
,
00010000
00100000
10000000
01000000
00010000
00000000
01000000
00100000
,
10010000
00000000
00100000
00000000
01100000
00000000
00100000
00001000
,
00010000
00000100
00000001
00000100
00001000
00000000
00000010
00000000
,
00000001
00000010
00001000
00000000
00000100
00000000
00001100
00000000
,
00011000
01010000
00000000
00021000
,
00030100
00000000
00000000
00000000
,
00000000
00000000
00000000
00000000
00010000
00001000
00012000
00000000
,
00103000
00000000
00000000
00000000
;

//---------------dance-double - ----------------
#NOTES:
     dance-double:
     :
     Medium:
     7:
     0.459,0.497,0.309,0.154,0.000:
00000000
00000000
00000000
00000000
,
00000000
00000000
00000000
00000000
,
10000000
01000000
10000000
01000000
,
00010000
01000000
00010000
01000000
,
00010000
00001000
00010000
00001000
,
00000010
00001000
00000010
00001000
,
00000010
00000001
00000010
00000001
,
00000100
00000001
00000100
00000001
,
00000100
00001000
00000100
00001000
,
00010000
00000000
00001000
00000000
00010000
00001000
00010000
00000000
,
00001000
00110000
00000000
01100000
,
00000000
11000000
00000000
10010000
,
10000000
00010000
10000000
00000000
00100000
00000000
01000000
00000000
,
00010000
00100000
00000000
00010000
00100000
00000000
00001000
00000000
,
00010000
00010100
00000000
00001100
,
00000000
00001001
00000000
00000101
,
00000100
00000001
00000100
00000000
00000010
00000000
00001000
00000000
,
00000100
00010000
00000000
00000100
00010000
00000000
00001000
00000000
,
01000000
01100000
00000000
10010000
,
00000000
00110000
00000000
00011000
,
00010000
00001000
00010000
00000000
00000100
00000000
00001000
00000000
,
00000010
00000100
00000000
00000010
00000100
00000000
00000001
00000000
,
00000010
00000110
00000000
00001100
,
00000000
00011000
00000000
01010000
,
01000000
00010000
01000000
00000000
00100000
00000000
10000000
00000000
,
01000000
01000000
10010000
20000000
,
00000000
30100000
00000000
00010000
00100000
00000000
01000000
00000000
,
00000000
10010000
00000000
00020000
,
00000000
00130000
00000000
00001000
00010000
00000000
00000100
00000000
,
00000000
00001001
00000000
00001000
,
00000010
00001000
00000010
00000000
00000100
00000000
00000001
00000000
,
00000010
00000001
00000010
00000000
00000100
00000000
00010000
00001000
,
00010000
00001000
01000000
00010000
,
10000000
00010000
00000000
00100000
,
00100000
01000000
01000000
01100000
,
10010000
00000000
00010000
10000000
00010000
00000000
00100000
00100000
,
00100000
00000000
00001000
00000000
00010000
00000000
00000010
00000010
,
00000010
00010000
00001000
01000000
,
00100000
01000000
00100000
10000000
,
00010000
00000000
10000000
00000000
00010000
00000000
01000000
01000000
,
01000000
00000000
00001000
00000000
00010000
00000000
00000100
00000100
,
00000100
00010000
00001000
00100000
,
00001000
00010000
00000010
00000100
,
00000110
00000000
00001001
00000000
00000001
00000000
00001000
00001000
,
00001000
00000000
00000100
00000000
00010000
00000000
00001000
00001000
,
00001000
01000000
00010000
10000000
,
00100000
01000000
00010000
00100000
,
00001000
00000000
00010000
00000000
00000100
00000000
00010000
00010000
,
00010000
00000000
00001000
00000000
01000000
00000000
00010000
00010000
,
00010000
10000000
00100000
01000000
,
00010000
01000000
00010000
00000000
00100000
00000000
00001000
00000000
,
00011000
00011000
00000000
00000010
,
00000100
00000001
00000000
00001000
,
00000000
00000100
00010000
00001000
,
01000000
00010000
00000000
20000000
,
00000000
30200000
00000000
01300000
,
00010000
10000000
00000000
00100000
,
01000000
02200000
03300000
01000000
,
00010000
00100000
00001000
00010000
,
00001000
00011000
00010000
00000200
,
00001300
00002000
00003001
00000002
,
00000103
00000200
00000310
00001000
,
00000100
00001000
00000100
00010000
,
00001000
01000000
00010000
20000000
,
30100000
00200000
01300000
02000000
,
03010000
00020000
00130000
00001000
,
00010000
00001000
00010000
00000100
,
00001000
00000010
00000100
00000201
,
00000001
00000001
00000301
00001000
,
00000100
00000000
00001000
00000100
00001000
00000000
00000200
00000000
,
00000000
00020300
00000000
00032000
,
00000000
02003000
00000000
03000000
,
00000000
00000000
00000000
00000000
,
00000000
00000000
00000000
00000000
00010000
00000000
00100000
00100000
,
00100000
00000000
00001000
00000000
00010000
00000000
00000010
00000010
,
00000010
00010000
00001000
01000000
,
10010000
01000000
10010000
10000000
,
00010000
10000000
00010000
00000000
10010000
00000000
01000000
01000000
,
01000000
00000000
00001000
00000000
00010000
00000000
00000100
00000100
,
00000100
00010000
00001000
00100000
,
00001000
00010000
00001000
00000000
00010000
00000000
00000010
00000000
,
00000110
00000000
00001001
00000000
00000001
00000000
00001000
00001000
,
00001000
00000000
00000100
00000000
00010000
00000000
00001000
00001000
,
00001000
01000000
00010000
10000000
,
01100000
00010000
01100000
00100000
,
01000000
00001000
01000000
00000000
01010000
00000000
00010000
00010000
,
00010000
00000000
00100000
00000000
10010000
00000000
00010000
00010000
,
00100000
10010000
00100000
01000000
,
00010000
01000000
00010000
00000000
00100000
00000000
00001000
00000000
,
00011000
00011000
00000000
02000000
,
00010000
00000000
00010000
00000000
,
00010000
00000000
00000000
00000000
03010000
10000000
00010000
00000000
,
10000000
00000000
00000000
00000000
;

//---------------dance-double - ----------------
#NOTES:
     dance-double:
     :
     Easy:
     4:
     0.283,0.320,0.100,0.108,0.000:
00000000
00000000
00000000
00000000
,
00000000
00000000
00000000
00000000
,
00001000
00010000
00000000
00000100
,
00000000
00001000
00000000
00000010
,
00000100
00000100
00000100
00000001
,
00000001
00000001
00001000
00000000
,
00000100
00000010
00000000
00000001
,
00000000
00001000
00000000
00000100
,
00010000
00010000
00010000
00001000
,
00001000
00001000
01000000
01000000
,
00100000
20000000
30000000
02000000
,
03000000
00200000
00300000
00001000
,
00010000
00001000
00010000
00000000
,
00000100
00000000
00000010
00000000
,
00000001
00000200
00000300
00000020
,
00000030
00020000
00030000
00001000
,
01000000
01000000
01000000
00000000
,
00010000
00000000
10000000
00000000
,
00100000
20000000
30000000
02000000
,
03000000
00200000
00300000
00001000
,
00010000
00001000
00010000
00000000
,
00000100
00000000
00000100
00000000
,
00000010
00000002
00000003
00002000
,
00003000
00000200
00000300
00010000
,
00001000
00010000
00001000
00010000
,
00001000
00001000
00010000
00000100
,
00000000
00010000
00000000
00001000
,
00000000
01000000
00000000
00010000
,
00000000
10000000
00000000
00100000
,
00000000
01000000
00000000
00001000
,
00000000
00010000
00000000
00001000
,
00000000
00011000
00000000
00010000
,
00000000
00000100
00000000
00000010
,
00000000
00000001
00000000
00000100
,
00000100
00000100
00000100
00000100
,
00000100
00000100
00000100
00000001
,
00000001
00000001
00001000
00001000
,
00001000
00000100
00000000
00010000
,
00001000
00000000
01000000
00000000
,
00010000
00000000
01000000
00100000
,
00100000
00100000
10000000
10000000
,
10000000
00010000
00000000
00100000
,
00000000
00001000
00000000
00011000
,
00000000
00011000
00000000
01000000
,
01000000
01000000
00010000
00010000
,
00010000
10000000
00000000
01000000
,
00100000
00000000
00001000
00000000
,
00010000
00000000
00000100
00000010
,
00000010
00000010
00000001
00000001
,
00000001
00001000
00000000
00000100
,
00000000
00010000
00000000
00011000
,
00000000
00011000
00000000
01000000
,
00100000
00000000
00000000
00000000
,
00000000
00000000
10000000
00010000
,
00100000
00000000
00000000
00001000
,
00000000
00011000
00000000
00010000
,
00000000
00000100
00000000
00001000
,
00000000
00000100
00000000
00000010
,
00000000
00000001
00000000
00000100
,
00000000
00000110
00000000
00000010
,
00000000
00010000
00000000
00001000
,
00000000
00010000
00000000
00000100
,
00000000
00010000
00000000
00001000
,
00000000
00011000
00000000
00001000
,
00000000
00100000
00000000
01000000
,
00000000
01100000
00000000
01000000
,
00000000
10000000
00000000
00010000
,
00000000
10000000
00000000
20020000
,
00000000
00000000
30030000
10010000
,
00000000
10010000
00000000
00100000
,
00000000
00001000
00000000
00010000
,
00000000
00000010
00000000
00000000
,
00000000
00000000
00000000
00000000
,
00000000
00000000
00000100
00001000
,
00001000
00001000
00000010
00000010
,
00000010
00000100
00000000
00000001
,
00001000
00000000
00000100
00000000
,
00010000
00001000
00010000
00001000
,
00001000
00001000
01000000
01000000
,
01000000
00010000
00000000
10000000
,
00100000
10000000
00000000
00100000
,
00000000
10010000
00000000
10000000
,
10000000
10000000
01000000
01000000
,
01000000
00100000
00000000
00001000
,
00010000
00000000
00001000
00000000
,
00010000
00000000
00000100
00001000
,
00001000
00001000
00000010
00000010
,
00000010
00000100
00000000
00000001
,
00000000
00000010
00000000
00000100
,
00000010
00000100
00000000
00010000
,
00001000
00000000
00000000
00000000
,
00000000
00000000
00010000
00001000
,
00010000
00000000
00000000
00000000
;
