#TITLE:PARANOiA;
#SUBTITLE:~SiGMA~;
#ARTIST:Oni-91;
#TITLETRANSLIT:;
#SUBTITLETRANSLIT:;
#ARTISTTRANSLIT:;
#GENRE:;
#CREDIT:;
#MENUCOLOR:;
#METERTYPE:DDR;
#BANNER:PARANOiA ~SiGMA~-bn.png;
#BACKGROUND:PARANOiA ~SiGMA~-bg.png;
#LYRICSPATH:;
#CDTITLE:ddrencorecdtitle.png;
#MUSIC:PARANOiA ~SiGMA~.mp3;
#OFFSET:-0.012;
#SAMPLESTART:72.000;
#SAMPLELENGTH:12.000;
#SELECTABLE:YES;
#LISTSORT:26;
#BPMS:0.000=160.000;
#STOPS:;
#BGCHANGES:;
#ATTACKS:;

//---------------dance-single - ----------------
#NOTES:
     dance-single:
     :
     Medium:
     6:
     0.389,0.397,0.051,0.236,0.000:
0000
0000
0000
0000
,
0000
0000
0000
0000
,
0000
0000
0000
0000
,
0000
0000
0000
0000
,
1000
0001
0000
0000
0100
0000
0000
0001
,
0000
0000
1000
0000
0010
1000
0100
0000
,
0010
0001
0000
0000
1000
0000
0000
0100
,
0000
0000
1000
0000
0010
0100
0001
0000
,
1000
0000
0000
0010
0000
0000
0100
0000
,
0000
0001
0000
0000
1000
0100
1000
0000
,
0001
0000
0000
0010
0000
0000
0100
0000
,
0000
1000
0000
0000
0001
0100
0001
0000
,
1000
0000
0000
0010
0000
0000
1000
0000
,
0000
0001
0000
0000
0010
0100
0010
0000
,
0001
0000
0000
1000
0000
0000
0010
0000
,
0000
0100
0000
0000
0001
1000
0001
0100
,
0010
1000
0100
1000
,
0001
0000
0010
0001
0000
1000
0001
0000
,
0100
0100
0001
1000
,
0010
0000
0100
0001
0000
1000
0010
0000
,
0100
0100
0001
0010
,
0001
0000
1000
0100
0000
1000
0001
0000
,
0010
0010
0001
0100
,
0001
0000
1000
0010
0000
0100
0001
0000
,
1000
0100
1000
0001
,
0010
0000
0001
1000
0000
0010
0100
0000
,
0001
0010
0001
1000
,
0200
0000
0000
1300
0000
0010
0100
0000
,
0001
0001
1000
0100
,
2000
0000
0000
3010
0000
0100
0001
0000
,
1000
0100
1000
0010
,
0100
0000
0001
1000
0001
0000
1000
0000
,
0200
0000
2300
0000
,
3020
0000
0000
0100
0000
0000
0130
0000
,
0002
0000
0023
0000
,
0230
0000
0000
1000
0000
0000
1300
0000
,
0002
0000
2003
0000
,
3200
0000
0000
0010
0000
0000
0310
0000
,
0002
0000
0203
0000
,
0320
1030
0200
0310
,
0001
0100
0001
1000
,
0020
0000
0000
0100
0000
0000
0130
0000
,
0001
0100
0001
1000
,
0002
0000
0000
0010
0000
0000
0013
0000
,
0001
1000
0100
1000
,
2000
0000
0000
0100
0000
0000
3100
0000
,
1000
0010
0100
0001
,
0002
0000
0000
1000
0000
0000
0103
0000
,
0001
0000
1000
0000
0100
0000
0010
0001
,
0020
0000
0000
0001
0000
0000
0031
0000
,
1000
0000
0100
0000
1000
0000
0010
0100
,
0010
0000
0000
1100
0000
0000
1001
0000
,
0100
0001
0010
0001
,
2000
0000
0000
0100
0000
0000
3100
0000
,
1000
0000
0001
0000
0010
0000
0001
0100
,
0001
0000
0000
1001
0000
0000
1010
0000
,
0001
0000
0100
0000
0001
0000
1000
0010
,
1000
0000
0001
0100
0000
0001
0010
0000
,
0001
1000
0001
0000
0100
0000
0010
1000
,
0010
0000
0100
0001
0000
1000
0100
0000
,
0010
0001
0010
0000
0100
0000
1000
0001
,
1000
0000
0010
0100
0000
0001
0010
0000
,
0001
1000
0100
1000
,
0010
0100
0001
1000
0000
0100
0010
0000
,
2002
0000
3003
0000
;

//---------------dance-single - ----------------
#NOTES:
     dance-single:
     :
     Beginner:
     2:
     0.190,0.230,0.082,0.041,0.000:
0000
0000
0000
0000
,
0000
0000
0000
0000
,
0000
0000
0000
0000
,
0000
0000
0000
0000
,
1000
0000
0010
0000
,
1000
0000
0010
0000
,
0100
0000
0001
0000
,
0100
0000
0001
0000
,
1000
0000
0001
0000
,
0010
0000
0001
0000
,
1000
0000
0100
0000
,
1000
0000
0010
0000
,
1001
0000
0000
0000
,
0110
0000
0000
0000
,
1001
0000
1001
0000
,
1001
0000
0000
0000
,
1000
1000
1000
0000
,
0010
0000
0010
0000
,
0100
0100
0100
0000
,
0001
0000
0001
0000
,
0010
0010
0010
0000
,
0001
0000
1000
0000
,
0100
0100
0100
0000
,
1000
0000
0001
0000
,
1001
0000
0000
0000
,
0010
0000
0100
0000
,
0001
0001
0000
0000
,
1000
0000
0100
0000
,
1000
1000
0000
0000
,
0001
0000
0010
0000
,
0100
0100
0000
0000
,
0001
0000
0100
0000
,
0002
0000
0000
0003
,
0000
0000
1000
1000
,
2000
0000
0000
3000
,
0000
0000
0010
0010
,
0020
0000
0000
0030
,
0000
0000
0100
0100
,
0200
0000
0000
0300
,
0000
0000
0000
0000
,
0001
0000
1000
0000
,
0001
0000
0001
0000
,
0100
0000
0001
0000
,
0100
0000
0100
0000
,
0010
0000
0100
0000
,
0010
0000
0010
0000
,
1000
0000
0010
0000
,
1000
0000
1000
0000
,
0001
0001
0000
1000
,
0000
0001
0001
0001
,
0001
0000
1000
0000
,
0010
0000
1000
0000
,
0100
0100
0000
1000
,
0000
0010
0010
0010
,
0010
0000
0100
0000
,
0001
0000
1000
0000
,
1001
0000
0000
0000
,
0010
0000
1000
0000
,
0100
0000
1000
0000
,
0001
0000
1000
0000
,
0100
0000
0010
0000
,
0001
0000
1000
0000
,
0001
0000
0100
0000
,
0010
0000
1000
0000
,
0110
0000
0000
0000
;

//---------------dance-single - ----------------
#NOTES:
     dance-single:
     :
     Easy:
     4:
     0.284,0.361,0.072,0.072,0.000:
0000
0000
0000
0000
,
0000
0000
0000
0000
,
0000
0000
0000
0000
,
0000
0000
0000
0000
,
0001
0000
0010
0000
,
0100
1000
0100
0000
,
0001
0000
0100
0000
,
0010
1000
0010
0000
,
0100
0000
0001
0000
,
1000
0100
1000
0000
,
0001
0000
0010
0000
,
0001
1000
0001
0000
,
0100
0000
1000
0000
,
0010
1000
0010
0000
,
0100
0000
0001
1000
,
0001
0100
0001
1000
,
1001
0000
0100
0000
,
0010
1000
0100
1000
,
1001
0000
0010
0000
,
0001
0100
0001
0010
,
1001
1000
0001
0001
,
1000
0100
1000
0010
,
1000
1000
0001
0010
,
0001
0001
1000
1000
,
0001
0100
0001
1000
,
0010
0010
1000
1000
,
0100
1000
0001
0010
,
0001
0001
1000
1000
,
0010
0100
0001
1000
,
0100
0100
0010
0010
,
0001
1000
0100
1000
,
2002
0000
0000
3003
,
0010
0000
1000
0000
,
0002
0000
1000
1003
,
1000
0000
0010
0000
,
0200
0000
0001
0301
,
0001
0000
1000
0000
,
0200
0000
0010
0310
,
0010
0000
0001
0000
,
1000
0000
0100
1000
,
0001
0010
0002
0000
,
1003
0000
0100
0000
,
1000
0010
2000
0000
,
3100
0000
0010
0001
,
1000
0000
0001
0000
,
0100
0000
0010
1000
,
0100
1000
0001
0010
,
0001
1001
1000
1001
,
0010
1000
0000
0100
,
1000
0000
0001
0010
,
0001
0001
0000
1000
,
0010
0000
0100
0000
,
0001
1000
0100
0000
,
0010
0001
0000
1000
,
0000
0010
0100
0001
,
0000
1000
0100
0000
,
1000
0010
0100
0001
,
0001
0000
1000
0000
,
0100
0010
0100
1000
,
1000
0000
0001
0000
,
0100
0010
1000
0100
,
1000
0000
0010
0000
,
0100
0001
1000
0001
,
0010
0000
0001
0000
,
1001
0000
0000
0000
;

//---------------dance-single - ----------------
#NOTES:
     dance-single:
     :
     Hard:
     7:
     0.505,0.496,0.307,0.297,0.036: // measure 1
0000
0000
0000
0000
,  // measure 2
0000
0000
0000
0000
,  // measure 3
0000
0000
0000
0000
,  // measure 4
0000
0000
0000
0000
,  // measure 5
1000
0010
0000
1000
0100
0000
1000
0010
,  // measure 6
0000
1000
0100
0000
1000
0001
1000
0000
,  // measure 7
0001
0010
0000
0001
0100
0000
0001
0010
,  // measure 8
0000
0001
0100
0000
0001
1000
0001
0000
,  // measure 9
0100
0010
0000
0100
1000
0000
0100
0001
,  // measure 10
0000
0100
0010
0000
1000
0100
1000
0000
,  // measure 11
0001
0010
0000
0001
1000
0000
0100
1000
,  // measure 12
0000
0010
0100
0000
0001
1000
0001
0000
,  // measure 13
2000
0010
0000
0000
0001
0000
0000
0100
,  // measure 14
0000
3001
0100
0000
0001
0010
0001
0000
,  // measure 15
0200
0001
0000
0000
0010
0000
0000
0001
,  // measure 16
0000
0310
1000
0000
0100
1000
0100
0000
,  // measure 17
1100
0010
0001
0100
,  // measure 18
0001
0000
1000
1010
0000
0000
0101
0000
,  // measure 19
1001
1000
0100
1000
,  // measure 20
0010
0000
0001
0101
0000
0000
1001
0000
,  // measure 21
1100
0010
0001
0100
,  // measure 22
0001
0000
1000
1001
0000
0000
0110
0000
,  // measure 23
0101
1000
0100
1000
,  // measure 24
0001
0000
0010
0000
0001
0100
0001
1000
,  // measure 25
0010
0000
1000
0000
0100
0000
1000
0100
,  // measure 26
1000
0000
0010
0200
0000
0301
0020
0000
,  // measure 27
0031
1000
0001
0000
0100
0000
0001
0000
,  // measure 28
0010
0000
0001
2000
0000
3100
0020
0000
,  // measure 29
0031
0100
0001
0000
1000
0000
0010
1000
,  // measure 30
0010
0000
0100
0002
0000
1003
0200
0000
,  // measure 31
1300
0010
1000
0000
0001
0000
0010
0000
,  // measure 32
0001
0000
0100
0000
0001
1000
0001
0100
,  // measure 33
0020
1030
2000
3100
,  // measure 34
0200
0000
0310
0000
0001
0100
0001
1000
,  // measure 35
0200
1300
2000
3010
,  // measure 36
0020
0000
0000
0100
0000
0000
0130
0000
,  // measure 37
0001
0010
0002
0000
1003
0000
2000
0000
,  // measure 38
3100
0000
0010
0002
0000
0000
2003
0000
,  // measure 39
3020
0130
0200
0301
,  // measure 40
0002
0000
0000
1000
0000
0000
1003
0000
,  // measure 41
1010
0000
0000
1001
0000
0000
0101
0000
,  // measure 42
0000
1001
0000
0000
1010
0000
1100
0000
,  // measure 43
1001
0000
0000
0011
0000
0000
0101
0000
,  // measure 44
0000
1001
0000
0000
0110
0000
1001
0000
,  // measure 45
1100
0000
0000
0110
0000
0000
0101
0000
,  // measure 46
0000
1001
0000
0000
1010
0000
0110
0000
,  // measure 47
1001
0100
0010
0001
,  // measure 48
1000
0100
1000
0000
0001
0010
0001
0100
,  // measure 49
0010
0000
0000
0000
1000
0000
0000
0100
1000
0000
0000
0000
0001
0000
0000
0000
,  // measure 50
0100
0000
0001
1000
0000
0100
1000
0000
,  // measure 51
0010
0000
0000
0000
0100
0000
0000
0010
1000
0000
0000
0000
0100
0000
0000
0000
,  // measure 52
0010
0000
0001
0100
0000
0010
0100
0000
,  // measure 53
0001
0000
0010
0000
0001
0000
0000
1000
0100
0000
0000
0000
1000
0000
0000
0000
,  // measure 54
0010
0000
0100
0001
0000
0010
0001
0000
,  // measure 55
1000
0000
0100
0000
1000
0000
0000
0010
0100
0000
0000
0000
0001
0000
0000
0000
,  // measure 56
1000
0000
0100
1000
0000
0001
0010
0000
,  // measure 57
0001
0000
0100
0000
0001
0000
0000
0000
1000
0000
0100
0000
1000
0000
0000
0010
,  // measure 58
0100
0000
0000
0002
0000
0000
2003
0000
,  // measure 59
3010
0000
0100
0000
0001
0000
0000
0000
1000
0000
0100
0000
1000
0000
0000
0010
,  // measure 60
0100
0000
0000
0020
0000
0000
0230
0000
,  // measure 61
0301
0000
0010
0000
0001
0000
0000
0000
1000
0000
0100
0000
1000
0000
0000
0100
,  // measure 62
0010
0000
0000
0002
0000
0000
0203
0000
,  // measure 63
0310
1000
0010
0000
0100
0001
0100
0000
,  // measure 64
0010
1000
0100
0010
0001
1000
0001
0000
,  // measure 65
0220
0000
0330
0000
;

//---------------dance-double - ----------------
#NOTES:
     dance-double:
     :
     Easy:
     3:
     0.218,0.230,0.010,0.041,0.000:
00000000
00000000
00000000
00000000
,
00000000
00000000
00000000
00000000
,
00000000
00000000
00000000
00000000
,
00000000
00000000
00000000
00000000
,
00001000
00000000
00100000
00000000
,
00001000
00000000
00010000
00001000
,
00010000
00000000
00000100
00000000
,
00010000
00000000
00001000
00010000
,
00001000
00000000
01000000
00000000
,
00010000
00000000
10000000
01000000
,
10000000
00000000
00010000
00000000
,
00100000
00000000
00001000
00010000
,
00001000
00000000
00000100
00000000
,
00001000
00000000
00000001
00000010
,
00000001
00000000
00000100
00000000
,
00000010
00001000
00000010
00001000
,
00000100
00000000
00010000
00000000
,
00001000
00000000
00100000
00010000
,
00100000
00000000
00010000
00000000
,
01000000
00000000
00010000
10000000
,
00010000
00000000
10000000
00000000
,
01000000
00000000
00100000
00010000
,
00100000
00000000
00001000
00000000
,
00010000
00000000
00000100
00001000
,
00000001
00000001
00000000
00000010
,
00000010
00000000
00000001
00001000
,
00000100
00000100
00000000
00010000
,
00010000
00000000
00001000
00010000
,
00001000
00001000
00000000
00100000
,
00100000
00000000
00010000
01000000
,
00010000
00000000
10000000
00000000
,
01000000
10000000
00010000
10000000
,
00200000
00000000
00000000
00300000
,
00000000
00000000
01000000
00000000
,
00002000
00000000
00000000
00003000
,
00000000
00000000
00010000
00000000
,
00000200
00000000
00000000
00000300
,
00000000
00000000
00001000
00000000
,
00000020
00000000
00000000
00000030
,
00000000
00000000
00000100
00000000
,
00000001
00000000
00001000
00000000
,
00000100
00000000
00010000
00000000
,
00001000
00000000
00100000
00000000
,
00010000
00000000
01000000
00000000
,
00001000
00000000
00010000
00000000
,
00000100
00000000
00001000
00000000
,
00000010
00000000
00000100
00000000
,
00000001
00000000
00001000
00000100
,
00001000
00000000
00000001
00000000
,
00000010
00000000
00000001
00000100
,
00000001
00000000
00001000
00000000
,
00000100
00000000
00010000
00001000
,
00010000
00000000
00001000
00000000
,
00100000
00000000
00010000
01000000
,
00010000
00000000
10000000
00000000
,
01000000
00000000
10000000
00100000
,
10000000
00000000
00010000
00000000
,
00100000
00010000
00100000
00001000
,
00010000
00000000
00000100
00000000
,
00001000
00000010
00001000
00000001
,
00000100
00000000
00000001
00000000
,
00001000
00000100
00001000
00000100
,
00010000
00000000
00001000
00000000
,
00010000
00001000
00010000
00000000
,
00011000
00000000
00000000
00000000
;

//---------------dance-double - ----------------
#NOTES:
     dance-double:
     :
     Medium:
     6:
     0.343,0.394,0.010,0.205,0.000:
00000000
00000000
00000000
00000000
,
00000000
00000000
00000000
00000000
,
00000000
00000000
00000000
00000000
,
00000000
00000000
00000000
00000000
,
10000000
00000000
00000000
00100000
00000000
00000000
01000000
00000000
,
00000000
00010000
00000000
00000000
00100000
00000000
00010000
00000000
,
01000000
00000000
00000000
00001000
00000000
00000000
00010000
00000000
,
00000000
00000100
00000000
00000000
00001000
00000000
00000010
00000000
,
00001000
00000000
00000000
00000001
00000000
00000000
00000010
00000000
,
00000000
00000001
00000000
00000000
00001000
00000000
00000100
00000000
,
00010000
00000000
00000000
00001000
00000000
00000000
00100000
00000000
,
00000000
00010000
00000000
00000000
01000000
00000000
00010000
00000000
,
10000000
00000000
00000000
01000000
00000000
00000000
00100000
00000000
,
00000000
00010000
00000000
00000000
01000000
00000000
00010000
00000000
,
01000000
00000000
00000000
00001000
00000000
00000000
00010000
00000000
,
00000000
00000100
00000000
00000000
00001000
00000000
00000010
00000000
,
00000100
00000001
00001000
00000100
,
00001000
00000000
00000000
00000001
00000000
00000000
00001000
00000000
,
00000100
00010000
00001000
00100000
,
00010000
00000000
00000000
01000000
00000000
00000000
00010000
00000000
,
10000000
01000000
10000000
00100000
,
01000000
00000000
00000000
00010000
00000000
00000000
00100000
00000000
,
00010000
01000000
00001000
00010000
,
00000100
00000000
00000000
00001000
00000000
00000000
00000010
00000000
,
00000100
00000001
00001000
00000100
,
00010000
00000000
00000000
00001000
00000000
00000000
00010000
00000000
,
00001000
00010000
00001000
00000000
01000000
00000000
00010000
00000000
,
00100000
00000000
00000000
00010000
00000000
00000000
10000000
00000000
,
01000000
10000000
01000000
00000000
00100000
00000000
00010000
00000000
,
01000000
00000000
00000000
00001000
00000000
00000000
00010000
00000000
,
00000100
00001000
00000100
00000000
00001000
00000000
00000010
00000000
,
00000100
00000000
00000000
00000001
00000000
00000000
00001000
00000000
,
00000200
00000000
00000000
00000000
00010000
00000000
00010000
00000300
,
00020000
00000000
00000000
00001000
00000000
00000000
00031000
00000000
,
00002000
00000000
00100000
00103000
,
00200000
00000000
00000000
00010000
00000000
00000000
00310000
00000000
,
00020000
00000000
10000000
10030000
,
20000000
00000000
00000000
00100000
00000000
00000000
30100000
00000000
,
00200000
00000000
01000000
01300000
,
02000000
00000000
00000000
00010000
00000000
00000000
03010000
00000000
,
00100000
00000000
00001000
00000000
,
00010000
00000000
00000000
00000200
00000000
00000000
00000320
00000000
,
00000031
00000000
00001000
00000000
,
00000100
00000000
00000000
00020000
00000000
00000000
00032000
00000000
,
00103000
00000000
00010000
00000000
,
01000000
00000000
00000000
00200000
00000000
00000000
20300000
00000000
,
31000000
00000000
00100000
00000000
,
00010000
10000000
01000000
00100000
,
00010000
01000000
00001000
00010000
,
00000100
00000000
00001000
00000020
00000000
00000130
00000002
00000000
,
00001003
00000100
00010000
00001000
,
00100000
00000000
00010000
02000000
00000000
03010000
00200000
00000000
,
00310000
10000000
01000000
10000000
,
00100000
00000000
01000000
00020000
00000000
00130000
00002000
00000000
,
00013000
00000100
00001000
00000010
,
00000100
00000000
00000001
00000000
00001000
00000100
00001000
00000000
,
00000100
00010000
00001000
00100000
,
00010000
00000000
01000000
00000000
00100000
10000000
00100000
00000000
,
01000000
00010000
00100000
00001000
,
00010000
00000000
00000100
00000000
00001000
00000010
00001000
00000000
,
00000100
00010000
00001000
00100000
,
00010000
00000000
01000000
00000000
00010000
00100000
00010000
00000000
,
00001000
00010000
00000100
00001000
,
00000010
00000000
00010000
00000000
00001000
00010000
00001000
00000000
,
00011000
00000000
00000000
00000000
;

//---------------dance-double - ----------------
#NOTES:
     dance-double:
     :
     Hard:
     8:
     0.488,0.496,0.010,0.389,0.000:
00000000
00000000
00000000
00000000
,
00000000
00000000
00000000
00000000
,
00000000
00000000
00000000
00000000
,
00000000
00000000
00000000
00000000
,
00000001
00000010
00000000
00000010
00000100
00000000
00000100
00001000
,
00000000
00001000
00000100
00000000
00010000
00001000
00010000
00000000
,
00001000
00100000
00000000
00100000
00010000
00000000
00010000
01000000
,
00000000
01000000
00100000
00000000
10000000
01000000
10000000
00000000
,
00010000
00100000
00000000
00100000
00001000
00000000
00001000
00010000
,
00000000
00010000
00000100
00000000
00001000
00000010
00001000
00000000
,
00000001
00000010
00000000
00000010
00000001
00000000
00000001
00001000
,
00000000
00001000
00000100
00000000
00010000
00001000
00010000
00000000
,
00001000
01000000
00100000
10000000
,
01000000
00000000
10000000
00000000
00010000
00100000
00001000
00000000
,
00010000
00000100
00001000
00000010
,
00000100
00000000
00000001
00000000
00001000
00000100
00010000
00001000
,
00100000
00010000
10000000
01000000
,
00100000
00001000
00010000
00000200
00000000
00001300
00000020
00000000
,
00000130
00000001
00000100
00000000
00000010
00000000
00001000
00000000
,
00000100
00010000
00001000
00200000
00000000
00310000
02000000
00000000
,
03010000
10000000
00010000
00100000
,
00010000
01000000
00001000
00200000
00000000
00301000
00020000
00000000
,
00030100
00001000
00000010
00000100
,
00000001
00000010
00000100
00000002
00000000
00000103
00002000
00000000
,
00003100
00010000
00001000
01000000
,
00010000
00100000
10000000
00200000
00000000
00310000
02000000
00000000
,
03010000
01000000
00001000
00010000
,
00000100
00001000
00000010
00000002
00000000
00000013
00002000
00000000
,
00003100
00000010
00000001
00001000
,
00000100
00010000
00001000
00000200
00000000
00000310
00002000
00000000
,
00003100
00010000
00001000
00100000
,
00010000
01000000
00010000
20000000
00000000
31000000
00200000
00000000
,
00320000
00000000
20000000
00030000
,
32000000
00000000
00000000
00100000
00000000
00000000
03100000
00000000
,
00002000
00000000
00000200
00003000
,
00000320
00000000
00000000
00010000
00000000
00000000
00010030
00000000
,
00002000
00000000
00200000
00003000
,
02300000
00000000
00000000
10000000
00000000
00000000
13000000
00000000
,
00200000
00000000
00020000
00300000
,
20030000
00000000
00000000
01000000
00000000
00000000
31000000
00000000
,
00002000
00000000
00020000
00003000
,
00030100
00000000
00001000
00000000
00000010
00001000
00000100
00000010
,
00000002
00000000
00002000
00000003
,
00003100
00000000
00010000
00000000
00001000
01000000
00010000
00100000
,
02000000
00000000
20000000
03000000
,
30100000
00000000
01000000
00000000
00010000
00100000
00010000
10000000
,
02000000
00000000
20000000
03000000
,
30100000
00000000
01000000
00000000
00010000
00100000
00001000
00010000
,
00000100
00001000
00000010
00000000
00000100
00000001
00000010
00000000
,
00000001
00001000
00000100
00000010
00000001
00000001
00000001
00000000
,
00001000
00000100
00010000
00000000
00001000
00100000
00010000
00000000
,
01000000
00100000
10000000
00010000
01000000
01000000
01000000
00000000
,
00010000
00100000
00010000
00000000
01000000
00001000
01000000
00000000
,
00010000
00100000
00001000
00010000
00000100
00000100
00000100
00000000
,
00001000
00000010
00000100
00000001
,
00001000
00000100
00000010
00000001
00000010
00000100
00001000
00000001
,
00000100
00000010
00001000
00000100
,
00010000
00010000
00010000
00000000
00001000
00001000
00001000
00000000
,
00100000
00010000
10000000
01000000
,
10000000
10000000
10000000
00000000
00100000
00100000
00100000
00000000
,
01000000
00010000
01000000
00000000
00100000
10000000
00100000
00000000
,
10000000
01000000
00100000
00010000
01000000
00010000
00100000
00000000
,
00001000
00010000
00001000
00000000
00010000
00000100
00001000
00000000
,
00000100
00000010
00000001
00000100
00000010
00000100
00000001
00000000
,
00002002
00000000
00003003
00000000
;
