#TITLE:PARANOiA;
#SUBTITLE:~SiGMA~ [SPECIAL];
#ARTIST:Oni-91;
#TITLETRANSLIT:;
#SUBTITLETRANSLIT:;
#ARTISTTRANSLIT:;
#GENRE:;
#CREDIT:;
#MENUCOLOR:;
#METERTYPE:DDR;
#BANNER:PARANOiA ~SiGMA~-bn.png;
#BACKGROUND:PARANOiA ~SiGMA~-bg.png;
#LYRICSPATH:;
#CDTITLE:currentcdtitle.png;
#MUSIC:PARANOiA ~SiGMA~.mp3;
#OFFSET:-0.027;
#SAMPLESTART:72.000;
#SAMPLELENGTH:12.000;
#SELECTABLE:YES;
#LISTSORT:;
#BPMS:0.000=160.000,128.000=80.000,144.000=120.000,168.000=160.000;
#STOPS:;
#BGCHANGES:;
#ATTACKS:;

//---------------dance-single - ----------------
#NOTES:
     dance-single:
     :
     Challenge:
     10:
     0.734,0.963,0.246,0.092,0.651: // measure 1
0000
0000
0000
0000
,  // measure 2
0000
0000
0000
0000
,  // measure 3
0000
0000
0000
0000
,  // measure 4
0000
0000
0000
0000
,  // measure 5
1000
0100
0000
0001
0100
0000
1000
0010
,  // measure 6
0000
0001
0010
0000
1000
0100
0001
0000
,  // measure 7
1000
0010
0000
0001
0010
0000
0100
0001
,  // measure 8
0000
0100
1000
0000
0010
0001
1000
0000
,  // measure 9
0100
0010
0000
1000
0100
0000
0001
0100
,  // measure 10
0000
0010
0001
0000
0100
1000
0100
0000
,  // measure 11
0010
0001
0000
1000
0100
0000
0001
0010
,  // measure 12
0000
0100
1000
0000
0001
0100
1000
0000
,  // measure 13
1100
1000
0000
0101
0001
0000
0110
0100
,  // measure 14
0000
0100
0101
0000
0010
1000
0100
0000
,  // measure 15
1000
1010
0000
0001
0011
0000
1001
1000
,  // measure 16
0000
1000
0100
0000
0010
0001
0110
0000
,  // measure 17
1000
0000
0100
0000
0010
0000
0001
0100
0000
0010
0100
0000
0001
0000
0010
0000
,  // measure 18
0100
0000
1000
0000
0100
0000
1000
0010
0000
0100
0010
0000
1000
0100
1000
0100
,  // measure 19
1000
0000
0001
0000
0010
0000
0001
0100
0000
0010
1000
0000
0100
0000
0010
0000
,  // measure 20
0001
0100
1000
0200
0000
0301
0020
0000
,  // measure 21
0130
0000
1000
0000
0010
0000
0100
0010
0000
1000
0100
0000
0010
0000
0001
0000
,  // measure 22
0100
0000
0001
0000
0010
0000
0100
1000
0000
0010
0100
0000
0001
0010
0001
0010
,  // measure 23
0001
0000
1000
0000
0100
0000
0001
0100
0000
1000
0010
0000
0100
0000
0001
0000
,  // measure 24
1000
0010
0100
0002
0000
1003
1100
1010
,  // measure 25
0101
0000
0001
0000
1000
0000
0010
0000
0100
0001
0100
0000
0010
0000
1000
0000
,  // measure 26
0100
0000
0010
0001
1000
0100
0010
0100
1000
0000
0001
0000
0100
0000
0010
0000
,  // measure 27
0101
0000
1001
0000
1000
0000
0100
0000
0010
0000
0001
1000
0100
0000
0010
0000
,  // measure 28
0001
0000
0100
0010
1000
0100
1000
0000
0001
0000
0010
0000
0001
0000
0100
0000
,  // measure 29
0110
0000
0101
0000
1000
0000
0010
0000
0100
0001
0010
0001
1000
0100
0010
0001
,  // measure 30
0100
0010
1000
0002
0000
0103
2000
0000
,  // measure 31
3100
0101
0010
0000
1000
0011
0100
0000
,  // measure 32
1000
0000
0010
0000
0100
0000
0001
0000
1000
0010
0100
0010
1000
0100
0010
0001
,  // measure 33
0100
0000
0001
0000
0010
0000
0100
0000
1000
0010
0100
0010
1000
0100
0010
0001
0100
0000
0000
0000
0000
0000
0010
0000
0000
0000
1000
0000
0010
0000
0000
0000
,  // measure 34
0100
0000
0001
0000
0100
0000
0000
0000
0010
0100
0001
0010
0001
1000
0100
0010
0100
0000
0000
0000
0000
0000
0001
0000
0000
0000
0100
0000
0010
0000
0000
0000
,  // measure 35
0001
0100
0001
0000
1000
0100
1000
0000
0010
0000
0100
0001
0000
0010
0001
0000
,  // measure 36
1000
0000
0100
0000
1000
0000
0000
0000
0001
0000
0000
0000
0010
0000
0000
0000
0100
0000
0000
0000
1000
0000
0000
0000
0001
0010
0001
0100
0010
1000
0100
1000
,  // measure 37
0010
0000
0000
0100
0000
0000
0001
0000
0000
0000
0000
0000
0001
0000
0000
1000
0000
0000
0100
0000
0000
0000
0000
0000
0010
0000
0000
0001
0000
0000
0100
0000
,  // measure 38
0000
0020
0000
0000
0000
0000
0000
1030
0000
0000
0200
0000
0000
0000
0000
0000
0310
0000
0000
0001
0000
0000
0100
0000
0000
0000
0000
0000
0010
0000
0000
1000
,  // measure 39
0000
0000
0000
0000
0100
0000
0000
0000
0000
0000
0000
0000
0000
0000
0000
0000
0010
0000
0000
0000
0000
0000
0000
0000
0000
0000
0000
0000
0001
0000
0000
0000
0000
0000
0200
0000
0000
0000
0000
0000
0000
0000
0000
0000
0000
0000
0310
0000
0000
0000
0000
0000
1000
0000
0000
0100
0000
0000
0010
0000
0000
0001
0000
0000
,  // measure 40
0010
0000
0000
0100
0000
0000
1000
0000
0000
0000
0000
0000
0001
0000
0000
0100
0000
0000
0010
0000
0000
0000
0000
0000
1000
0000
0000
0100
0000
0000
0010
0000
,  // measure 41
0000
0001
0000
0000
0100
0000
0000
0001
0000
0000
0010
0000
0000
0100
0000
0000
1000
0000
0000
0000
0000
0000
0100
0000
0000
0000
0000
0000
0010
0000
0000
0000
,  // measure 42
0000
0000
0000
0000
0001
0000
0000
0000
0000
0000
0000
0000
0000
0000
0000
0000
1000
0000
0000
0000
0000
0000
0010
0000
0000
0000
0000
0000
0100
0000
0000
0000
0000
0000
0001
0000
0000
0000
0000
0000
1000
0000
0000
0100
0000
0000
0010
0000
0000
0001
0000
0000
0100
0000
0000
0010
0000
0000
0100
0000
0000
0001
0000
0000
,  // measure 43
1000
0010
1000
0100
0001
0100
1000
0010
,  // measure 44
0100
0000
0001
0000
0010
0000
0001
0000
1000
0100
0010
0001
1000
0100
0010
0001
,  // measure 45
0100
0001
0010
0100
1000
0010
0001
0010
,  // measure 46
1000
0000
0001
0000
0100
0000
0010
0000
1000
0010
0100
0001
1000
0010
0100
0001
,  // measure 47
1000
0100
0010
0001
0010
1000
0010
0001
,  // measure 48
0100
0001
0010
0100
1100
1001
0011
0110
,  // measure 49
1001
0000
0010
0101
1000
0000
0100
0011
,  // measure 50
1000
0000
0000
0000
0100
0000
0010
0000
0001
0000
1000
0000
0010
0100
0001
1000
,  // measure 51
0100
1000
0010
0100
0001
0000
0000
0000
1000
0000
0010
0000
0100
0000
0000
0000
,  // measure 52
0001
0000
0010
0000
0100
0000
1000
0000
0001
0100
0001
1000
0010
0100
0010
1000
,  // measure 53
0001
0010
0001
1000
0100
0000
0000
0000
0010
0000
0001
0000
0100
0000
0000
0000
,  // measure 54
0010
0000
1000
0000
0100
0000
0000
0000
0001
0000
0010
0000
0100
1000
0001
0010
,  // measure 55
0001
1000
0100
0000
0010
0001
0100
0000
,  // measure 56
1000
0100
0010
0001
0100
1000
0100
0001
,  // measure 57
0010
0100
1000
0001
0100
0010
1000
0100
,  // measure 58
0010
0000
0001
0000
0100
0000
0010
0000
1000
0100
0010
0100
1000
0001
0010
0001
,  // measure 59
0200
0000
0000
0300
;

//---------------dance-double - ----------------
#NOTES:
     dance-double:
     :
     Challenge:
     10:
     0.766,1.000,0.318,0.133,0.676:
00000000
00000000
00000000
00000000
,
00000000
00000000
00000000
00000000
,
00000000
00000000
00000000
00000000
,
00000000
00000000
00000000
00000000
,
00000001
00000010
00000000
00000100
00001000
00000000
00000010
00010000
,
00000000
00001000
01000000
00000000
00100000
10000000
01000000
00000000
,
10000000
00100000
00000000
01000000
00010000
00000000
00100000
00001000
,
00000000
00010000
00000100
00000000
00000010
00000001
00000100
00000000
,
00000001
00000101
00000000
00001000
00001100
00000000
00010000
00011000
,
00000000
00001000
01001000
00000000
00100000
10000000
11000000
00000000
,
00010000
01010000
00000000
00100000
00011000
00000000
00000100
00001100
,
00000000
00000010
00000011
00000000
00001000
00000001
00000100
00000000
,
00000001
00000100
00001000
00010000
01000000
10000000
00100000
00010000
,
00001000
00000010
00000001
00000100
00000010
00000001
00000010
00000000
,
00001000
00000100
00010000
01000000
10000000
00100000
00010000
00100000
,
10000000
00000000
01000000
00000000
00010000
00000000
00001000
00000000
00000010
00000000
00000001
00000100
00000001
00001000
00000001
00001000
,
00000100
00000000
00010000
00000000
00001000
00000000
01000000
00100000
00000000
00100000
10000000
00000000
01000000
00000000
10000000
00000000
,
00010000
00000000
00100000
00000000
00001000
00000000
00010000
00000000
00010100
00000000
00000000
00001100
00000000
00000000
00011000
00000000
,
01000000
00000000
00010000
00000000
00100000
00000000
01000000
10000000
00000000
10000000
01000000
00000000
10000000
00000000
00100000
00000000
,
01000000
00000000
00010000
00000000
00100000
00000000
00001000
00000000
00011000
00000000
00000000
00010100
00000000
00000000
00001100
00000000
,
00000001
00000010
00000100
00001000
00000001
00000100
00000010
00001000
,
00000100
00010000
00001000
00010000
00000100
00000000
00001100
00000000
00000000
00001001
00000000
00000000
00000101
00000000
00001000
00000000
,
00000100
00000000
00010000
00001000
01000000
00000000
00100000
10000000
,
01000000
00000000
00100000
00000000
00010000
01000000
00010000
00100000
00001000
00010000
00000100
00001000
00000010
00000000
00000100
00000000
,
00000001
00001000
00000100
00010000
00001000
00100000
00010000
01000000
,
00001000
00000000
00100000
00000000
00010000
00000000
01000000
00000000
00001000
00010000
00000100
00001000
00000010
00000100
00000001
00001000
,
00000100
00010000
00001000
01000000
00100000
10000000
01000000
10000000
,
00100000
00000000
01000000
00000000
00010000
00000000
00100000
00000000
01000000
10000000
00010000
00100000
00010000
01000000
00001000
00010000
,
00000100
00001000
00000010
00000100
00000001
00000010
00000100
00010000
,
00001000
00000000
01000000
00000000
00100000
00000000
10000000
00000000
00010000
00100000
00010000
10000000
01000000
10000000
00100000
01000000
,
00010000
10000000
00010000
00100000
,
00001000
00000000
00010000
00001000
00010000
00000000
00000100
00001000
00000100
00000000
00001000
00000001
00001000
00000000
00000010
00000000
,
00000100
00000000
00000001
00000000
00001000
00000000
00000100
00000000
00000010
00000001
00000100
00000010
00001000
00000100
00001000
00000001
00000200
00000000
00000000
00000000
00000000
00000000
00000010
00000000
00000000
00000000
00000000
00000300
00000001
00000000
00001000
00000100
,
00010000
00000000
00001000
00000000
01000000
00000000
00100000
00000000
10000000
01000000
10000000
00010000
00100000
01000000
10000000
00010000
02000000
00000000
00000000
00000000
00000000
00000000
00010000
00000000
00000000
00000000
00000000
00000000
03100000
00000000
10000000
00000000
,
00010000
00000000
00100000
00000000
00001000
00000000
00010000
00000100
00001000
00000010
00000100
00000001
00001000
00000100
00000010
00000001
00000200
00000000
00000000
00000000
00000000
00000000
00000001
00000000
00000000
00000000
00000000
00000000
00000301
00000000
00001000
00000000
,
00000100
00010000
00001000
01000000
00100000
10000000
01000000
10000000
00000000
00010000
00000000
00100000
00000000
01010000
00000000
10000000
,
01000000
00000000
00000000
10000000
00000000
00000000
01000000
00000000
00000000
00000000
00000000
00000000
00100000
00000000
00000000
00010000
00000000
00000000
00100000
00000000
00000000
00000000
00000000
00000000
00002000
00000000
00000000
00000000
00000000
00000000
00013000
00000000
,
00000000
00000200
00000000
00000000
00001000
00000000
00000300
00000002
00000000
00000000
00000100
00000000
00000000
00000103
00000000
00000000
00000001
00000000
00000000
00001000
00000000
00000000
00000100
00000000
00000000
00000000
00000000
00000000
00010000
00000000
00000000
00001000
,
00000000
00000000
01000000
00000000
00000000
00000000
00000000
00000000
00100000
00000000
00000000
10000000
00000000
00000000
01000000
00000000
00000000
00200000
00000000
00000000
00000000
00000000
00000000
00310000
00000000
00000000
20000000
00000000
00000000
30020000
00000000
00000000
,
00130000
00000000
00000000
10000000
00000000
00000000
00100000
00000000
00000000
00000000
00000000
00000000
00001000
00000000
00000000
00010000
00000000
00000000
00001000
00000000
00000000
00000000
00000000
00000000
00000100
00000000
00000000
00000001
00000000
00000000
00000020
00000000
,
00000000
00000000
00000000
00000000
00000031
00000000
00000000
00000000
00000000
00000000
00000101
00000000
00000000
00001000
00000000
00000000
00000100
00000000
00000000
00010000
00000000
00000000
00001000
00000000
00000000
00000000
00000000
00000000
00010000
00000000
00000000
10000000
,
00000000
00000000
00000000
00000000
00100000
00000000
00000000
00000000
00000000
00000000
10000000
00000000
00000000
00000000
00000000
00000000
01000000
00000000
00000000
00000000
00000000
00000000
00100000
00000000
00000000
00000000
00000000
00000000
00010000
00000000
00000000
00000000
00000000
00000000
10000000
00000000
00000000
00000000
00000000
00000000
00100000
00000000
00000000
01000000
00000000
00000000
00010000
00000000
00000000
10000000
00000000
00000000
01000000
00000000
00000000
10000000
00000000
00000000
00010000
00000000
00000000
00100000
00000000
00000000
,
00010000
01000000
00010000
00100000
10000000
00100000
00010000
01000000
,
00001000
00000000
00010000
00000000
00000100
00000000
00001000
00000000
00001010
00000000
00000000
00000101
00000000
00000000
00001001
00000000
,
00001100
00000001
00001000
00000100
00001000
00000001
00000100
00001000
,
00010000
00000000
01000000
00000000
10000000
00000000
00010000
00000000
00100000
00000000
00000000
10010000
00000000
00000000
11000000
00000000
,
10010000
00100000
00010000
01000000
00001000
00010000
00000100
00001000
,
00000010
00000100
00000001
00000000
00001000
00000000
00000100
00000000
00000010
00000000
00000000
00001200
00000000
00000000
00010300
00000000
,
00011000
00000000
01000000
00000000
00100000
00000000
10000000
00000000
01000000
00000000
00100000
00010000
01000000
00000000
00100000
10000000
,
01000000
00000000
00100000
00000000
00001000
00000000
00010000
00000000
00000100
00000000
00000000
00001010
00000000
00000000
00000001
00000000
,
00000010
00000000
00000001
00000000
00001000
00000000
00000100
00010000
00000100
00000000
00010000
00001000
00010000
00000000
01000000
00010000
,
01000000
00000000
00100000
00000000
10000000
00000000
01000000
00000000
10000000
00010000
00100000
01000000
10000000
00000000
00010000
00000000
,
10000000
00000000
01000000
00000000
00010000
00000000
00001000
00000000
00000100
00000000
00000001
00000010
00000001
00000000
00001000
00000100
,
00001000
00000000
00000001
00000000
00000010
00000000
00000001
00000000
00000100
00000001
00001000
00000100
00001000
00000010
00010000
00001000
,
00010000
00000100
00001000
00000010
00000100
00000001
00001000
00000100
,
00010000
00000000
00001000
00010000
00001000
00000000
01000000
00000000
00010000
00000000
10000000
00000000
01000000
00000000
00100000
00000000
,
00010000
01000000
00001000
00000100
00000001
00001000
00000001
00000100
,
00001000
00010000
01000000
10000000
00010000
10000000
00010000
00100000
,
00202000
00000000
00303000
00000000
;
