#TITLE:Out of Control;
#SUBTITLE:;
#ARTIST:Darude;
#TITLETRANSLIT:;
#SUBTITLETRANSLIT:;
#ARTISTTRANSLIT:;
#GENRE:;
#CREDIT:;
#MENUCOLOR:;
#METERTYPE:DDR;
#BANNER:Out of Control-bn.png;
#BACKGROUND:Out of Control-bg.png;
#LYRICSPATH:;
#CDTITLE:ddrencorecdtitle.png;
#MUSIC:Out of Control.mp3;
#OFFSET:-0.017;
#SAMPLESTART:14.028;
#SAMPLELENGTH:13.989;
#SELECTABLE:YES;
#LISTSORT:;
#BPMS:0.000=136.864;
#STOPS:;
#BGCHANGES:;
#ATTACKS:;

//---------------dance-single - ----------------
#NOTES:
     dance-single:
     :
     Beginner:
     1:
     0.100,0.168,0.046,0.110,0.000:
0000
0000
0000
0000
,
0000
0000
0000
0000
,
0000
0000
0000
0000
,
0000
0000
0000
0000
,
0010
0010
0000
0000
,
0000
0000
0000
0000
,
0100
0100
0000
0000
,
0000
0000
0000
0000
,
0002
0000
0000
0000
,
0000
0000
0003
0000
,
2000
0000
0000
0000
,
0000
0000
3000
0000
,
0002
0000
0000
0000
,
0000
0000
0003
0000
,
2000
0000
0000
0000
,
0000
0000
3000
0000
,
0100
0000
1000
0000
,
0010
0000
0010
0000
,
0100
0000
0001
0000
,
0010
0000
0001
0000
,
0100
0000
0001
0000
,
0010
0000
0010
0000
,
0100
0000
1000
0000
,
0010
0000
1000
0000
,
1001
0000
0000
0000
,
0000
0000
0000
0000
,
0110
0000
0000
0000
,
0000
0000
0000
0000
,
1001
0000
0000
0000
,
0000
0000
0000
0000
,
0010
0010
0000
0000
,
0000
0000
0000
0000
,
2002
0000
0000
0000
,
0000
0000
0000
0000
,
0000
0000
0000
0000
,
0000
0000
3003
0000
,
1000
0000
0000
0000
,
0100
0000
0000
0000
,
0010
0000
0000
0000
,
0001
0000
0000
0000
,
0001
0000
0000
0000
,
0100
0000
0000
0000
,
0010
0000
0000
0000
,
1000
0000
0000
0000
,
0002
0000
0000
0000
,
0000
0000
0003
0000
,
2000
0000
0000
0000
,
0000
0000
3000
0000
,
0002
0000
0000
0000
,
0000
0000
0003
0000
,
2000
0000
0000
0000
,
0000
0000
3000
0000
,
0001
0000
0100
0000
,
0001
0000
1000
0000
,
0010
0000
1000
0000
,
0100
0000
0100
0000
,
1000
0000
0100
0000
,
1000
0000
0001
0000
,
0010
0000
0001
0000
,
0100
0000
0100
0000
,
2002
0000
0000
0000
,
3003
0000
0000
0000
;

//---------------dance-single - ----------------
#NOTES:
     dance-single:
     :
     Easy:
     2:
     0.164,0.196,0.046,0.110,0.000:
0000
0000
0000
0000
,
0000
0000
0000
0000
,
0000
0000
0000
0000
,
0000
0000
0000
0000
,
0001
0000
0001
0000
,
0100
0000
0010
0000
,
1000
0000
1000
0000
,
0100
0000
0010
0000
,
0002
0000
0000
0000
,
1000
0000
0103
0001
,
2000
0000
0000
0000
,
0001
0000
3100
1000
,
0002
0000
0000
0000
,
1000
0000
0013
0001
,
2000
0000
0000
0000
,
0001
0000
3010
1000
,
0001
0000
0010
0000
,
0100
0000
1000
0000
,
0001
0000
1000
0000
,
0100
0000
1000
0010
,
1000
0000
0100
0000
,
0010
0000
0001
0000
,
1000
0000
0001
0000
,
0100
0000
0001
0010
,
1001
0000
0000
0000
,
0010
0000
0100
0000
,
1001
0000
0000
0000
,
0100
0000
0010
0000
,
1001
0000
0000
0000
,
0010
0000
0100
0000
,
0001
0000
0001
0000
,
1000
0000
0010
0000
,
2000
0000
0000
0000
,
0000
0000
3000
0000
,
0002
0000
0000
0000
,
0000
0000
0003
0000
,
1001
0000
0100
0000
,
1000
0000
1000
0000
,
0001
0000
0100
0000
,
0010
0000
1000
0000
,
0001
0000
0100
0000
,
0001
0000
0001
0000
,
1000
0000
0010
0000
,
0100
0000
0001
0000
,
2000
0000
0000
0000
,
0010
0000
3100
1000
,
0002
0000
0000
0000
,
0010
0000
0103
0001
,
2000
0000
0000
0000
,
0100
0000
3010
1000
,
0002
0000
0000
0000
,
0100
0000
0013
0001
,
1000
0000
0010
0000
,
1000
0000
0100
1000
,
0100
0000
0010
0000
,
0001
0000
1000
0000
,
0001
0000
0100
0000
,
0001
0000
0010
0001
,
0010
0000
0100
0000
,
1000
0000
0001
0000
,
2002
0000
0000
0000
,
3003
0000
0000
0000
;

//---------------dance-single - ----------------
#NOTES:
     dance-single:
     :
     Medium:
     5:
     0.286,0.336,0.046,0.110,0.009:
0000
0000
0000
0000
,
0000
0000
0000
0000
,
0000
0000
0000
0000
,
0000
0000
0000
0000
,
1000
0000
0000
1000
0000
0000
0000
0000
0000
0000
0000
0000
0001
0000
0000
0000
,
0000
0100
0000
0100
,
0001
0000
0000
0001
0000
0000
0000
0000
0000
0000
0000
0000
1000
0000
0000
0000
,
0000
0010
0000
0010
,
1000
0100
0000
1000
0000
1000
0000
0010
,
0000
0100
0000
0001
0000
0001
0000
1000
,
0001
0100
0000
0001
0000
0001
0000
0010
,
0000
0100
0000
1000
0000
1000
0001
0000
,
1000
0010
0000
1000
0000
1000
0000
0100
,
0000
0010
0000
0001
0000
0001
0000
1000
,
0001
0010
0000
0001
0000
0001
0000
0100
,
0000
0010
0000
1000
0000
1000
0001
0000
,
0200
0000
0310
1000
,
0020
0000
0130
0001
,
2000
0000
3100
0010
,
0002
0000
0000
0000
0003
1000
0000
1000
,
0020
0000
0130
0001
,
0200
0000
0310
1000
,
0002
0000
0013
0100
,
2000
0000
0000
0000
3000
0001
1000
0000
,
0101
0000
0010
0000
,
1000
0000
0001
1000
,
1100
0000
0010
0000
,
0001
0000
1000
0001
,
0011
0000
0100
0000
,
1000
0000
0001
1000
,
0010
0000
0100
0000
,
0001
0000
1000
0000
,
0002
0000
0000
0000
,
0000
0000
0003
0000
,
2000
0000
0000
0000
,
0000
0000
3000
0000
,
1001
0100
0001
0010
,
0100
1000
0010
0100
,
0010
1000
0100
0010
,
0001
0100
0010
1000
,
0100
1000
0010
0100
,
0001
0010
0100
0010
,
0001
0100
0010
1000
,
0100
0010
0100
1000
,
0001
0010
0000
0001
0000
0001
0000
0100
,
0000
0010
0000
1000
0000
1000
0000
0001
,
1000
0010
0000
1000
0000
1000
0000
0100
,
0000
0010
0000
0001
0000
0001
1000
0000
,
0001
0100
0000
0001
0000
0001
0000
0010
,
0000
0100
0000
1000
0000
1000
0000
0001
,
1000
0100
0000
1000
0000
1000
0000
0010
,
0000
0100
0000
0001
0000
0001
1000
0000
,
0001
1000
0100
0000
1000
0000
0010
0000
,
1000
0001
0100
0000
0001
0000
0010
0000
,
0001
1000
0100
0000
0010
0000
0001
0000
,
1000
0001
0100
0000
0001
1000
0100
0000
,
1000
0010
0100
0000
0010
0000
0100
0000
,
0001
0010
0100
0000
1000
0000
0001
0000
,
1000
0100
0010
0000
0100
0000
0010
0000
,
0001
0100
0010
0000
0100
0000
0010
0000
,
2002
0000
0000
0000
,
3003
0000
0000
0000
;

//---------------dance-single - ----------------
#NOTES:
     dance-single:
     :
     Hard:
     7:
     0.433,0.505,0.395,0.028,0.138:
0000
0000
0000
0000
,
0000
0000
0000
0000
,
0000
0000
0000
0000
,
0000
0000
0000
0000
,
1000
0000
0000
1000
0000
0000
0000
0000
0001
0000
0000
0000
0010
0000
0000
0000
,
0001
0100
0010
1000
,
0001
0000
0000
0001
0000
0000
0000
0000
1000
0000
0000
0000
0010
0000
0000
0000
,
1000
0000
0100
0000
0010
0001
1000
0000
,
1001
0010
0000
0100
0000
0100
0000
0001
,
0000
1000
0000
0100
0000
0100
0000
1000
,
0010
0100
0000
0010
0000
0010
0000
1000
,
0000
0001
0000
0010
0000
0010
0001
1000
,
0001
0100
0000
0010
0000
0010
0000
1000
,
0000
0001
0000
0010
0000
0010
0000
0100
,
1000
0010
0000
0100
0000
0100
0000
0001
,
0000
1000
0000
0100
0000
0100
1000
0001
,
1000
0010
0000
0101
0000
1100
0000
0010
,
0000
0001
0000
1001
0000
0110
0000
0100
,
0001
0010
0000
1100
0000
0101
0000
0010
,
0000
1000
0000
1001
0000
0110
0000
1010
,
0001
1000
0000
1010
0000
0011
0000
0100
,
0000
1000
0000
1001
0000
0110
0000
0010
,
1000
0001
0000
0011
0000
1010
0000
0100
,
0000
0001
0000
1001
0000
0110
0100
0001
,
1000
0100
0010
0001
1000
0000
0010
0000
,
0100
0001
0010
1000
,
0001
0010
0100
1000
0001
0000
0100
0000
,
0010
1000
0001
1001
,
0001
0100
0010
0100
0001
0000
0010
0000
,
0100
1000
0010
0001
,
1000
0000
0000
1000
0000
0000
0000
0000
0001
0000
0000
0000
1000
0000
0000
0000
,
0100
0000
0001
0000
1000
0001
1000
0010
,
2000
0000
0000
0000
,
0000
0000
3000
0000
,
0002
0000
0000
0000
,
0000
0000
0103
0010
,
1001
0000
0010
0000
0100
0000
0000
0100
0000
0000
0001
0000
0010
0000
0000
0010
,
0000
0000
0001
0000
1000
0000
0000
1000
0000
0000
0010
0000
0100
0000
0000
0001
,
0000
0000
0010
0000
0100
0000
0000
0100
0000
0000
1000
0000
0010
0000
0000
0010
,
0000
0000
1000
0000
0001
0000
0000
0001
0000
0000
0100
0000
0010
0000
0000
0110
,
0000
0000
0001
0000
1000
0000
0000
0100
0000
0000
1000
0000
0001
0000
0000
0100
,
0000
0000
0010
0000
1000
0000
0000
0100
0000
0000
0010
0000
0001
0000
0000
1000
,
0000
0000
1000
0000
0001
0000
0000
0010
0000
0000
0001
0000
1000
0000
0000
0010
,
0000
0000
0100
0000
0001
0000
0000
0010
0000
0000
0100
0000
1000
0000
0000
0000
,
1001
0010
0000
0101
0000
1100
0000
0010
,
0000
0001
0000
0110
0000
1001
0000
1000
,
0100
0010
0000
1100
0000
0101
0000
0010
,
0000
1000
0000
0110
0000
1001
0100
0001
,
0010
0100
0000
0011
0000
1010
0000
0100
,
0000
0001
0000
0110
0000
1001
0000
1000
,
0010
0100
0000
1010
0000
0011
0000
0100
,
0000
1000
0000
1010
0000
0110
0000
0101
,
1000
0000
0001
0000
0010
0000
0010
0001
0000
0000
0100
0000
0010
0000
0010
1000
,
0000
0000
0001
0000
0010
0000
0010
0001
0000
0000
1000
0000
0010
0000
0100
0000
,
0001
0000
1000
0000
0100
0000
0100
1000
0000
0000
0010
0000
0100
0000
0100
0001
,
0000
0000
1000
0000
0100
0000
0100
1000
0000
0000
1001
0000
0000
0000
0110
0000
,
0001
0000
0100
0000
0001
0000
0001
0010
0000
0000
0100
0000
1000
0000
1000
0010
,
0000
0000
0100
0000
0001
0000
0001
1000
0000
0000
0001
0000
0100
0000
0010
0000
,
1000
0000
0100
0000
1000
0000
1000
0010
0000
0000
0100
0000
0001
0000
0001
0010
,
0000
0000
0100
0000
1000
0000
1000
0001
0000
0000
0110
0000
0000
0000
1001
0000
,
0020
0000
0000
0000
,
0030
0000
0000
0000
;

//---------------dance-double - ----------------
#NOTES:
     dance-double:
     :
     Easy:
     2:
     0.154,0.196,0.046,0.110,0.000:
00000000
00000000
00000000
00000000
,
00000000
00000000
00000000
00000000
,
00000000
00000000
00000000
00000000
,
00000000
00000000
00000000
00000000
,
00010000
00010000
00000000
00000000
,
00000000
00000000
00000000
00000000
,
00001000
00001000
00000000
00000000
,
00000000
00000000
00000000
00000000
,
00020000
00000000
00000100
00000000
,
00001000
00000000
00030100
00010000
,
00002000
00000000
01000000
00000000
,
00010000
00000000
01003000
00001000
,
00020000
00000000
00000010
00000000
,
00001000
00000000
00030010
00010000
,
00002000
00000000
00100000
00000000
,
00010000
00000000
00103000
00001000
,
00010000
00000000
00000100
00000000
,
00000010
00000000
00000010
00000000
,
00000001
00000000
00001000
00000000
,
00000100
00000000
00000100
00000000
,
00010000
00000000
00001000
00000000
,
01000000
00000000
01000000
00000000
,
00010000
00000000
10000000
00000000
,
00100000
00000000
00100000
00000000
,
10010000
00000000
00000000
00000000
,
00000000
00000000
00000000
00000000
,
00011000
00000000
00000000
00000000
,
00000000
00000000
00000000
00000000
,
00001001
00000000
00000000
00000000
,
00000000
00000000
00000000
00000000
,
00000100
00000100
00000000
00000000
,
00000000
00000000
00000000
00000000
,
00000002
00000000
00000000
00000000
,
00000000
00000000
00000003
00000000
,
00002000
00000000
00000000
00000000
,
00000000
00000000
00003000
00000000
,
00001001
00000000
00000100
00000000
,
00001000
00000000
00010000
00000000
,
00100000
00000000
10000000
00000000
,
00010000
00000000
00010000
00000000
,
10000000
00000000
01000000
00000000
,
00010000
00000000
00001000
00000000
,
00000010
00000000
00000001
00000000
,
00001000
00000000
00000010
00000000
,
00020000
00000000
00001000
00000000
,
00000100
00000000
00031000
00010000
,
00002000
00000000
00010000
00000000
,
01000000
00000000
00013000
00001000
,
00020000
00000000
00001000
00000000
,
00000010
00000000
00031000
00010000
,
00002000
00000000
00010000
00000000
,
00100000
00000000
00013000
00001000
,
00010000
00000000
00000100
00000000
,
00000010
00000000
00000001
00000000
,
00000100
00000000
00000010
00000000
,
00010000
00000000
00010000
00000000
,
00001000
00000000
01000000
00000000
,
00100000
00000000
10000000
00000000
,
01000000
00000000
00100000
00000000
,
00001000
00000000
00001000
00000000
,
00022000
00000000
00000000
00000000
,
00033000
00000000
00000000
00000000
;

//---------------dance-double - ----------------
#NOTES:
     dance-double:
     :
     Medium:
     5:
     0.271,0.308,0.037,0.037,0.000:
00000000
00000000
00000000
00000000
,
00000000
00000000
00000000
00000000
,
00000000
00000000
00000000
00000000
,
00000000
00000000
00000000
00000000
,
00001000
00000000
00010000
00000000
,
00000100
00000000
00000010
00000000
,
00000100
00000000
00010000
00000000
,
00001000
00000000
01000000
00000000
,
00100000
10000000
00000000
00100000
00000000
00100000
00000000
10000000
,
00000000
00010000
00000000
00100000
00000000
00100000
00000000
00000000
,
00001000
00010000
00000000
00000100
00000000
00000100
00000000
00001000
,
00000000
00000010
00000000
00000100
00000000
00000000
00000001
00000000
,
00000010
00000001
00000000
00000010
00000000
00000010
00000000
00000100
,
00000000
00001000
00000000
00000010
00000000
00000010
00000000
00000000
,
00010000
00001000
00000000
01000000
00000000
01000000
00000000
00010000
,
00000000
00100000
00000000
01000000
00000000
00000000
10000000
00000000
,
00010000
01000000
10000000
01000000
,
00010000
01000000
10000000
01000000
,
00010000
00100000
00001000
00010000
,
00000010
00000100
00000001
00000001
,
00001000
00000100
00000001
00000100
,
00001000
00000100
00000001
00000100
,
00001000
00000010
00010000
00001000
,
01000000
00010000
10000000
10000000
,
10010000
00000000
01000000
00000000
,
00001000
00000000
00010000
00000000
,
00011000
00000000
00010000
00000000
,
00000100
00000000
00001000
00000000
,
00001001
00000000
00000001
00000000
,
00000100
00000000
00000010
00000000
,
00001000
00000000
00000010
00000000
,
00010000
00000000
00001000
00000000
,
00020000
00000000
00000000
00000000
,
00000000
00000000
00030000
00000000
,
00002000
00000000
00000000
00000000
,
00000000
00000000
00003000
00000000
,
00010000
00001000
00010000
00000000
00001000
00000000
01000000
00000000
,
00100000
10000000
00010000
00100000
,
00010000
10000000
00010000
00000000
01000000
00000000
00001000
00000000
,
00010000
00000100
00001000
00000010
,
00010000
00001000
00010000
00000000
00000100
00000000
00001000
00000000
,
00000010
00000100
00000001
00000010
,
00000001
00001000
00000001
00000000
00000100
00000000
00000010
00000000
,
00010000
00000100
00010000
00001000
,
01000000
00010000
00000000
00100000
00000000
00100000
00000000
01000000
,
00000000
10000000
00000000
00010000
00000000
00010000
00000000
00000000
,
00100000
00001000
00000000
00010000
00000000
00010000
00000000
00000010
,
00000000
00001000
00000000
00000100
00000000
00000100
00000010
00000000
,
00000100
00001000
00000000
00000100
00000000
00000100
00000000
00000010
,
00000000
00000001
00000000
00001000
00000000
00001000
00000000
00000000
,
00000010
00010000
00000000
00001000
00000000
00001000
00000000
01000000
,
00000000
00010000
00000000
00100000
00000000
00100000
01000000
00000000
,
00100000
00010000
01000000
00100000
,
10000000
00000000
01000000
00000000
00100000
00010000
00100000
00010000
,
01000000
00001000
00010000
00000010
,
00000100
00000000
00000001
00000000
00001000
00000100
00000000
00000100
,
00000010
00000001
00000100
00000010
,
00010000
00000000
00000100
00000000
00001000
00000010
00001000
00000010
,
00000100
00000001
00001000
00000010
,
00010000
00001000
01000000
00100000
,
20020000
00000000
00000000
00000000
,
30030000
00000000
00000000
00000000
;

//---------------dance-double - ----------------
#NOTES:
     dance-double:
     :
     Hard:
     8:
     0.471,0.477,0.717,0.055,0.133: // measure 1
00000000
00000000
00000000
00000000
,  // measure 2
00000000
00000000
00000000
00000000
,  // measure 3
00000000
00000000
00000000
00000000
,  // measure 4
00000000
00000000
00000000
00000000
,  // measure 5
00000010
00000000
00000000
00000010
00000000
00000000
00000000
00000000
00010000
00000000
00000000
00000000
00000100
00000000
00000000
00000000
,  // measure 6
00000010
00001000
00010000
01000000
,  // measure 7
00100000
00000000
00000000
00100000
00000000
00000000
00000000
00000000
00001000
00000000
00000000
00000000
01000000
00000000
00000000
00000000
,  // measure 8
00100000
00010000
00001000
00000100
,  // measure 9
00000010
00001000
00000000
00000110
00000000
00000011
00000000
00001010
,  // measure 10
00000000
00010010
00000000
00100010
00000000
00011000
00000000
00001000
,  // measure 11
01000000
00010000
00000000
01100000
00000000
11000000
00000000
01010000
,  // measure 12
00000000
01001000
00000000
01000100
00000000
00011000
00001000
00010000
,  // measure 13
00000100
00000010
00000000
00000110
00000000
00000101
00000000
00001100
,  // measure 14
00000000
00010100
00000000
01000100
00000000
00011000
00000000
00010000
,  // measure 15
00001000
00100000
00000000
01100000
00000000
10100000
00000000
00110000
,  // measure 16
00000000
00101000
00000000
00100010
00000000
00011000
00010000
00001000
,  // measure 17
01000000
00100000
00000000
01010000
00000000
01001000
00000000
10001000
,  // measure 18
00000000
00011000
00000000
00010001
00000000
00001100
00000000
00010000
,  // measure 19
00000100
00000010
00000000
00001100
00000000
00010100
00000000
00010001
,  // measure 20
00000000
00011000
00000000
10001000
00000000
01010000
00000000
00001000
,  // measure 21
00100000
01000000
00000000
00110000
00000000
00101000
00000000
10001000
,  // measure 22
00000000
00011000
00000000
00010001
00000000
00000101
00000000
00001000
,  // measure 23
00000010
00000100
00000000
00001010
00000000
00010010
00000000
00010001
,  // measure 24
00000000
00011000
00000000
10001000
00000000
11000000
10000000
00010000
,  // measure 25
01000000
00100000
01000000
00200000
00000000
00000000
10300000
00000000
,  // measure 26
01000000
00010000
00001000
00000010
,  // measure 27
00000100
00000010
00000100
00000020
00000000
00000000
00000031
00000000
,  // measure 28
00000100
00001000
00010000
00100000
,  // measure 29
01000000
00100000
01000000
00200000
00000000
00000000
01300000
00000000
,  // measure 30
00001000
00010000
01000000
00100000
,  // measure 31
00001000
00001000
00010000
00000010
,  // measure 32
00000100
00001000
00010000
00100000
,  // measure 33
20000000
00000000
00000000
00000000
,  // measure 34
00000000
00000000
30000000
00000000
,  // measure 35
00020000
00000000
00000000
00000000
,  // measure 36
00000000
00000000
00030000
00000000
,  // measure 37
10010000
00000000
01000000
00000000
00100000
00000000
00000000
00100000
00000000
00000000
01000000
00000000
00010000
00000000
00000000
00010000
,  // measure 38
00000000
00000000
00100000
00000000
00001000
00000000
00000000
00001000
00000000
00000000
00010000
00000000
00000010
00000000
00000000
00001000
,  // measure 39
00000000
00000000
00000100
00000000
00000010
00000000
00000000
00000010
00000000
00000000
00000100
00000000
00001000
00000000
00000000
00001000
,  // measure 40
00000000
00000000
00000010
00000000
00010000
00000000
00000000
00010000
00000000
00000000
00001000
00000000
01000000
00000000
00000000
00011000
,  // measure 41
00000000
00000000
00001000
00000000
01000000
00000000
00000000
00100000
00000000
00000000
10000000
00000000
01000000
00000000
00000000
00100000
,  // measure 42
00000000
00000000
00100000
00000000
00001000
00000000
00000000
00010000
00000000
00000000
00000010
00000000
00001000
00000000
00000000
00000010
,  // measure 43
00000000
00000000
00010000
00000000
00000100
00000000
00000000
00000010
00000000
00000000
00000001
00000000
00000100
00000000
00000000
00000010
,  // measure 44
00000000
00000000
00000010
00000000
00010000
00000000
00000000
00001000
00000000
00000000
01000000
00000000
00010000
00000000
00000000
00000000
,  // measure 45
01000000
00100000
00000000
10100000
00000000
00110000
00000000
01100000
,  // measure 46
00000000
01001000
00000000
01000100
00000000
00011000
00000000
00010000
,  // measure 47
00000010
00000100
00000000
00000101
00000000
00001100
00000000
00000110
,  // measure 48
00000000
00010010
00000000
00100010
00000000
00011000
00001000
00010000
,  // measure 49
00000100
00000010
00000000
00000011
00000000
00001010
00000000
00000110
,  // measure 50
00000000
00010100
00000000
01000100
00000000
00011000
00000000
00001000
,  // measure 51
00100000
01000000
00000000
11000000
00000000
01010000
00000000
01100000
,  // measure 52
00000000
00101000
00000000
00100010
00000000
00011000
00010000
00001000
,  // measure 53
01000000
00000000
00100000
00000000
10000000
00000000
01000000
10000000
00000000
00000000
00010000
00000000
00100000
00000000
00001000
00010000
,  // measure 54
00000000
00000000
00000100
00000000
00010000
00000000
00000010
00010000
00000000
00000000
00000100
00000000
00001000
00000000
00000010
00000000
,  // measure 55
00000000
00000000
00000100
00000000
00000001
00000000
00000010
00000001
00000000
00000000
00001000
00000000
00000100
00000000
00010000
00001000
,  // measure 56
00000000
00000000
00100000
00000000
00001000
00000000
01000000
00001000
00000000
00000000
01010000
00000000
00000000
00000000
10010000
00000000
,  // measure 57
01000000
00000000
00100000
00000000
10000000
00000000
00010000
10000000
00000000
00000000
01000000
00000000
00100000
00000000
00001000
00010000
,  // measure 58
00000000
00000000
01000000
00000000
10000000
00000000
00100000
01000000
00000000
00000000
00001000
00000000
00010000
00000000
00000010
00000000
,  // measure 59
00000000
00000000
00000100
00000000
00000001
00000000
00001000
00000001
00000000
00000000
00000010
00000000
00000100
00000000
00010000
00001000
,  // measure 60
00000000
00000000
00000010
00000000
00000001
00000000
00000100
00000010
00000000
00000000
00001001
00000000
00000000
00000000
00000110
00000000
,  // measure 61
00000020
00000000
00000000
00000000
,  // measure 62
00000030
00000000
00000000
00000000
;
