#TITLE:Optimistique-Moi;
#SUBTITLE:;
#ARTIST:Mylène Farmer;
#TITLETRANSLIT:;
#SUBTITLETRANSLIT:;
#ARTISTTRANSLIT:;
#GENRE:;
#CREDIT:;
#MENUCOLOR:;
#METERTYPE:DDR;
#BANNER:omoi.png;
#BACKGROUND:omoibg.png;
#LYRICSPATH:;
#CDTITLE:ddrencorecdtitle.png;
#MUSIC:Optimistique-Moi.mp3;
#OFFSET:-2.085;
#SAMPLESTART:35.460;
#SAMPLELENGTH:16.690;
#SELECTABLE:YES;
#LISTSORT:;
#DISPLAYBPM:115.000;
#BPMS:0.000=115.043;
#STOPS:;
#BGCHANGES:;
#ATTACKS:;

//---------------dance-single - ----------------
#NOTES:
     dance-single:
     :
     Hard:
     6:
     0.355,0.326,0.071,0.053,0.009:
1000
0000
0100
0000
0010
0001
0010
0000
,
0001
0000
0100
0000
0010
1000
0010
0000
,
1000
0000
1000
0100
0000
0100
1000
0000
,
0001
0000
0001
0100
0000
0100
0001
0000
,
1000
0010
1000
0000
0001
0000
0100
0000
,
0001
0010
0001
0000
1000
0000
0100
0000
,
1000
0000
0001
1000
0000
1000
0001
0000
,
0100
0000
0010
0100
0000
0010
0100
0000
,
0001
0100
0001
0000
1000
0010
1000
0001
,
0100
0001
0100
0000
0001
1000
0001
0000
,
1000
0000
0001
0100
0000
0100
0001
0000
,
1000
0000
0001
0010
0000
0010
0001
0000
,
1000
0010
1000
0000
0001
0100
0001
0010
,
0100
1000
0100
0000
0010
0001
0010
0000
,
0001
0000
1000
0010
0000
0010
0100
0000
,
0010
1000
0001
0100
0001
1000
0001
0000
,
1001
0000
1000
0010
1000
0001
0000
0011
,
0000
0010
0001
0100
0010
1000
0000
1010
,
0000
0010
1000
0100
0010
0100
0000
0110
,
0000
0010
0001
0100
0001
1000
0001
0000
,
1000
0000
0010
1000
0000
1000
0001
0010
,
0001
0000
0001
0100
0000
0100
0010
1000
,
0100
0000
0010
0001
0000
1000
0001
0000
,
0100
0001
0100
0000
0010
1000
0010
0000
,
2010
0000
0001
0010
,
3001
0000
1000
0000
0001
0000
1000
0000
0010
0000
0000
0100
0000
0000
0010
0000
,
0200
0000
0000
0000
,
0302
0000
0010
0000
,
2003
0000
0000
0010
0000
0000
3001
0000
,
1000
0010
0100
0001
,
1000
0000
0000
0100
0000
0000
1000
0000
0000
0000
0001
0000
0100
0000
0001
0000
,
0100
0010
1000
0001
1000
0001
1000
0000
,
0001
0010
0001
0000
1000
0010
0100
0001
,
0000
0100
0001
0000
0010
1000
0010
1000
,
0000
0001
0100
0000
0001
0010
0001
0010
,
0000
0001
1000
0010
0100
0000
0010
1000
,
0001
0000
0010
0001
0000
0001
0100
0000
,
0010
0000
1000
0001
0000
0001
1000
0000
,
0011
0000
1000
0100
0000
0100
0010
0000
,
0100
0010
0001
1000
0000
0010
1000
0000
,
0001
0010
0001
1000
0100
1000
0000
1000
,
0001
0100
0010
1000
0010
0100
0000
0100
,
0001
1000
0001
1000
0100
0010
0000
0010
,
0100
0010
0100
0010
0001
0100
0001
0000
,
1000
0000
0010
1000
0000
1000
0001
0010
,
0001
0000
0100
0001
0000
1000
0010
0100
,
0001
0000
1000
0100
0000
1000
0100
1000
,
0001
0000
0010
0100
0010
0000
0110
0000
,
2002
0000
0000
0000
,
3003
0000
0000
0000
;

//---------------dance-single - ----------------
#NOTES:
     dance-single:
     :
     Medium:
     5:
     0.302,0.283,0.089,0.160,0.000:
1000
0000
0000
1000
0100
0000
1000
0000
,
0001
0000
0000
0001
0100
0000
0001
0000
,
1000
0000
0000
0001
0000
0000
0100
0000
,
0010
0000
0000
0100
0000
0000
0001
0000
,
1000
0000
0000
1000
0001
0000
0100
0000
,
0010
0000
0000
0100
0001
0000
1000
0000
,
0100
0000
0000
0010
0000
0000
0001
0000
,
1000
0000
0010
1000
0000
1000
0001
0000
,
0100
0010
0100
0000
0010
0000
1000
0000
,
0001
0100
0001
0000
1000
0000
0100
0000
,
0010
0000
0001
0010
0000
0010
0001
0000
,
1000
0000
0010
1000
0000
1000
0010
0000
,
0100
0001
0100
0000
0001
0000
1000
0000
,
0100
0010
0100
0000
0010
0000
0001
0000
,
1000
0000
0001
1000
0000
0001
1000
0000
,
0010
1000
0010
1000
0000
1000
0001
0000
,
1000
0100
1000
0000
0001
0100
0000
0010
,
1000
0000
0001
0000
0010
0001
0000
0001
,
1000
0001
1000
0000
0010
0100
0000
0100
,
0001
0000
1000
0000
0100
1000
0100
0000
,
1001
0000
1000
0002
0000
0000
0013
0000
,
1000
0000
0010
0100
0000
0100
0001
0000
,
1010
0000
0000
0202
0000
0000
0303
0000
,
1000
0000
0010
1000
0000
1000
0100
0000
,
0210
0000
0010
0010
,
0310
0001
1000
0010
,
0200
0000
0001
0001
,
0301
1000
0010
0100
,
0102
0000
0000
2000
0000
0000
3003
0000
,
2010
0000
0000
0002
0000
0000
3003
0000
,
1000
0000
0010
0100
0000
0100
0001
0000
,
0010
0001
0010
0000
0001
1000
0001
0000
,
1001
0000
1000
0000
0100
0010
0000
0010
,
0001
0000
1000
0000
0001
0100
0001
0000
,
1000
0000
0010
0000
0100
0001
0000
0001
,
1000
0000
0100
0000
0010
0001
0010
0000
,
0001
0000
1000
0200
0000
0000
0300
0000
,
1000
0000
0001
0100
0000
0100
0010
0000
,
1010
0000
0000
2002
0000
0000
3003
0000
,
1000
0000
0001
0010
0000
0010
0001
0000
,
1000
0001
1000
0000
0001
0100
0000
0000
,
0001
1000
0001
0000
1000
0100
0000
0000
,
0010
0001
0010
0000
0001
0100
0000
0100
,
0001
1000
0010
0000
1000
0010
0000
1000
,
0002
0000
0000
0020
0000
0000
0033
0000
,
0100
0000
1000
0100
0000
0100
1000
0000
,
0002
0000
0000
2000
0000
0000
3003
0000
,
1000
0000
0001
0000
0100
0010
0100
0000
,
2002
0000
0000
0000
,
3003
0000
0000
0000
;

//---------------dance-single - ----------------
#NOTES:
     dance-single:
     :
     Easy:
     4:
     0.213,0.217,0.062,0.124,0.000:
1000
0010
1000
0000
,
0001
0100
0001
0000
,
1000
0100
0010
0100
,
0010
0001
0100
0001
,
1000
0001
0100
0000
,
0001
1000
0100
0000
,
1000
0100
0010
0001
,
0100
0010
0100
0000
,
1001
0001
0100
0000
,
0010
1000
0100
0000
,
0010
0001
1000
0100
,
0001
0100
1000
0010
,
0100
0001
0100
0000
,
0010
1000
0010
0000
,
1000
0010
0100
0001
,
2002
0000
0000
3003
,
0110
0010
1000
0000
,
0001
0100
0001
0000
,
1000
0100
0010
0000
,
0010
0001
0100
0001
,
1000
0000
0010
0000
,
0100
0000
0001
1000
,
0001
0000
0010
0000
,
0001
0000
1000
0100
,
0220
0000
0000
0000
,
0330
0000
0010
0001
,
2002
0000
0000
0000
,
3003
0000
0001
0100
,
0020
0000
2030
0000
,
3002
0000
0023
0000
,
0032
0000
0010
1000
,
0200
0000
0000
0303
,
0110
0010
1000
0100
,
1000
0001
0100
0000
,
0001
0010
0001
1000
,
0010
0100
0001
0001
,
1000
0000
0100
0000
,
0010
0100
0100
0010
,
0001
0000
1000
0000
,
0010
1000
0001
0010
,
0001
0100
1000
0100
,
0001
1000
0100
1000
,
0001
0010
1000
0010
,
0001
0100
0001
0100
,
0010
1000
0100
0000
,
0010
0001
0100
0000
,
0001
1000
0010
0100
,
0001
1000
0100
0010
,
0220
0000
0000
0000
,
0330
0000
0000
0000
;

//---------------dance-single - ----------------
#NOTES:
     dance-single:
     :
     Beginner:
     1:
     0.113,0.128,0.062,0.000,0.000:
1000
0000
0010
0000
,
0100
0000
0001
0000
,
1000
0000
0000
0000
,
0001
0000
0000
0000
,
0010
0000
0001
0000
,
1000
0000
0100
0000
,
0010
0000
0000
0000
,
0110
0000
0000
0000
,
1001
0000
0001
0000
,
1000
0000
0010
0000
,
0100
0000
0000
0000
,
0010
0000
0000
0000
,
1000
0000
0001
0000
,
1000
0000
0100
0000
,
0010
0000
0000
0000
,
0110
0000
0000
0000
,
1001
0000
0001
0000
,
1000
0000
0010
0000
,
0100
0000
0010
0000
,
0100
0000
0001
0000
,
1000
0000
1000
0000
,
0001
0000
0001
0000
,
0100
0000
0010
0000
,
0100
0000
0001
0000
,
1001
0000
0000
0000
,
1000
0000
0100
0000
,
1000
0000
0000
0000
,
0001
0000
0010
0000
,
0001
0000
0000
0000
,
0100
0000
0000
0000
,
0010
0000
1000
0000
,
0100
0000
0000
0000
,
0110
0000
0010
0000
,
0001
0000
0100
0000
,
0001
0000
1000
0000
,
0010
0000
0100
0000
,
0001
0000
0000
0000
,
1000
0000
0010
0000
,
1000
0000
0000
0000
,
0001
0000
0100
0000
,
0001
0000
1000
0000
,
0100
0000
0010
0000
,
0001
0000
1000
0000
,
0010
0000
0100
0000
,
0001
0000
1000
0000
,
0010
0000
0100
0000
,
0001
0000
1000
0000
,
0100
0000
0010
0000
,
0110
0000
0000
0000
;

//---------------dance-double - ----------------
#NOTES:
     dance-double:
     :
     Medium:
     5:
     0.269,0.256,0.053,0.115,0.000:
10000000
00010000
01000000
00001000
,
01000000
00000000
00001000
00000000
00010000
00010000
00010000
00000000
,
00000100
00000000
00000000
00000010
00000000
00000000
00000100
00000000
,
00001000
00000000
00000000
00000001
00000000
00000000
00001000
00000000
,
00000010
00001000
00000100
00010000
,
00001000
00000000
01000000
00000000
00100000
00100000
00100000
00000000
,
10000000
00000000
00000000
00010000
00000000
00000000
10000000
00000000
,
01000000
00000000
00000000
00100000
00000000
00000000
01000000
00000000
,
10000000
00000000
01000000
00000000
00100000
00000000
00010000
00100000
,
00010000
00000000
00100000
00000000
01000000
00000000
10000000
01000000
,
20000000
00000000
00000000
30100000
00000000
10000000
00010000
00000000
,
00200000
00000000
00000000
00301000
00000000
00100000
00010000
00000000
,
01000000
00001000
00010000
00001000
,
00100000
00000000
00001000
00000000
00010000
00001000
00010000
00000000
,
00000100
00000000
00000010
00000001
00000000
00000001
00000010
00000000
,
00000220
00000000
00000000
00000330
,
00000010
00000000
00000001
00000000
00001000
00000100
00000000
00001000
,
00000100
00000000
00010000
00000000
00001000
00010000
00000000
00010000
,
00001000
00000000
01000000
00000000
00010000
10000000
00000000
00010000
,
10000000
00000000
01000000
00000000
00100000
00010000
00100000
00000000
,
00001000
00000000
00000000
00100000
00000000
00000000
00001000
00000000
,
00010000
00000000
00000000
00000100
00000000
00000000
00010000
00000000
,
00000100
00000000
00000000
00000010
00000000
00000000
00000100
00000000
,
00000010
00000000
00000000
00000001
00000000
00000000
00000010
00000000
,
00002002
00000000
00000000
00003000
,
00000010
00001000
00000100
00001000
,
00000203
00000000
00000000
00000000
,
00000020
00000030
00000002
00000303
,
00000010
00000000
00001000
00000010
00000000
00000000
00001000
00000000
,
00000100
00000000
00010000
00000100
00000000
00000000
00010000
00000000
,
00001000
00000000
01000000
00001000
00000000
00000000
01000000
00000000
,
00020000
00100000
20000000
30030000
,
10000000
00000000
00010000
01000000
00010000
01000000
00000000
00000000
,
00001000
00000000
00010000
00001000
00010000
00001000
00000000
00000000
,
00010000
00000000
00000100
00001000
00000100
00001000
00000000
00000000
,
00000100
00000000
00000010
00000001
00000010
00000001
00000010
00000000
,
00000001
00000000
00000100
00000001
00000000
00000000
00000100
00000000
,
00000010
00000000
00001000
00000010
00000000
00000000
00001000
00000000
,
00000100
00000000
00010000
00001000
00000000
00000000
00010000
00000000
,
00011000
00000000
00000000
01001000
00000000
00000000
01010000
00000000
,
10000000
00000000
00100000
00000000
01000000
00010000
00000000
00010000
,
01000000
00000000
00100000
00000000
10000000
01000000
00000000
01000000
,
10000000
00000000
00010000
00000000
00100000
00010000
00000000
00010000
,
00100000
00000000
00001000
00000000
00010000
00001000
00010000
00000000
,
00000100
00000000
00000010
00000002
00000000
00000000
00000013
00000000
,
00000001
00000000
00001000
00000010
00000000
00000010
00001000
00000000
,
00000010
00000000
00010000
00002000
00000000
00000000
00013000
00000000
,
00001000
00000000
01000000
00010000
00000000
00010000
01000000
00000000
,
10010000
00000000
00000000
00000000
;

//---------------dance-double - ----------------
#NOTES:
     dance-double:
     :
     Easy:
     3:
     0.191,0.192,0.062,0.106,0.000:
00001000
00010000
00001000
00010000
,
00000100
00001000
00000100
00000000
,
00000010
00000000
00000001
00000000
,
00001000
00000000
00000010
00000000
,
00001000
00000100
00001000
00000100
,
00010000
00001000
00010000
00001000
,
00100000
00000000
00010000
00000000
,
01000000
00000000
00100000
00000000
,
10000000
00010000
10000000
00010000
,
10000000
01000000
00100000
00010000
,
00100000
00000000
00001000
00000000
,
00010000
00000000
00000100
00000000
,
00000010
00000001
00000010
00000001
,
00001000
00000010
00001000
00000010
,
00000100
00000000
00000010
00000000
,
00002002
00000000
00000000
00003003
,
00001000
00000100
00010000
00000000
,
00001000
01000000
00010000
00000000
,
10000000
00100000
01000000
00000000
,
00010000
00100000
00010000
10000000
,
02000000
00000000
00100000
00000000
,
13000000
00000000
00010000
01000000
,
00020000
00000000
00100000
00000000
,
01030000
00000000
01000000
00001000
,
00022000
00000000
00000000
00033000
,
00010000
00000000
00000100
00000000
,
00000220
00000000
00000000
00000330
,
00002002
00000000
00000000
00003003
,
00000001
00000000
00001000
00000010
,
00001000
00000000
00000001
00000100
,
00000001
00000000
00010000
00001000
,
00022000
00000000
00000000
00033000
,
00011000
00001000
01000000
00000000
,
00010000
01000000
00010000
00000000
,
10000000
01000000
10000000
00000000
,
00010000
00100000
00010000
00100000
,
00001000
00000000
00010000
00000000
,
00001000
00000000
01000000
00000000
,
00010000
00000000
00100000
00000000
,
00001000
00000000
00010000
00000000
,
00000100
00000010
00000001
00000100
,
00000010
00001000
00000100
00000000
,
00010000
00001000
00010000
00001000
,
01000000
00100000
01000000
00000000
,
00010000
00000000
10000000
00000000
,
01000000
00100000
00010000
00100000
,
01000000
00000000
00100000
00000000
,
00010000
00100000
00001000
00010000
,
00011000
00000000
00000000
00000000
;

//---------------dance-double - ----------------
#NOTES:
     dance-double:
     :
     Hard:
     6:
     0.332,0.298,0.044,0.151,0.004: // measure 1
00000001
00000000
00000100
00000000
00000010
00001000
00000010
00000000
,  // measure 2
00001000
00000000
00000100
00000000
00010000
00001000
00010000
00000000
,  // measure 3
00001000
00000000
01000000
00010000
00000000
00010000
01000000
00000000
,  // measure 4
00001000
00000000
00010000
00000100
00000000
00000100
00010000
00000000
,  // measure 5
00000100
00000010
00000001
00000000
00001000
00000010
00001000
00000000
,  // measure 6
00000010
00010000
00001000
00000000
00010000
00001000
00010000
00000000
,  // measure 7
00001000
00000000
01000000
00010000
00000000
00010000
01000000
00000000
,  // measure 8
00010000
00000000
10000000
01000000
00000000
01000000
10000000
00000000
,  // measure 9
00010000
10000000
02000000
00000000
00100000
00000000
13000000
00000000
,  // measure 10
00010000
01000000
00200000
00000000
00010000
00000000
01300000
00000000
,  // measure 11
10000000
00000000
00010000
01000000
00000000
01000000
00001000
00000000
,  // measure 12
00010000
00000000
00000100
00010000
00000000
00010000
00000010
00000000
,  // measure 13
00000100
00000001
00001000
00000000
00000100
00001000
00000100
00000010
,  // measure 14
00000001
00000010
00000001
00000000
00001000
00000010
00001000
00000000
,  // measure 15
00000010
00000000
00010000
00001000
00000000
00001000
00010000
00000000
,  // measure 16
02002000
00000000
00000000
03003000
,  // measure 17
01000000
00001000
01000000
00000000
00001000
00100000
00000000
00100000
,  // measure 18
00001000
00010000
00001000
00000000
00010000
00000100
00000000
00000100
,  // measure 19
00010000
00000010
00000100
00000000
00000010
00000100
00000010
00001000
,  // measure 20
00000000
00001000
00000200
00000000
00010000
00000000
00001300
00000000
,  // measure 21
00020100
00000000
00000000
00001000
00000000
00000000
00000100
00000000
,  // measure 22
00031000
00000000
00001000
01000000
00000000
01000000
00010000
10000000
,  // measure 23
02000000
00000000
00000000
00100000
00000000
00000000
13000000
00000000
,  // measure 24
10000000
00000000
10000000
01000000
00000000
01000000
00100000
00000000
,  // measure 25
00202000
00000000
00000000
00303000
,  // measure 26
00001000
00000000
00000000
00000000
00100000
00000000
00010000
00000000
01000000
00000000
00000000
00100000
00000000
00000000
10000000
00000000
,  // measure 27
02000000
00010000
00100000
10000000
,  // measure 28
03200000
00010000
00001000
00010000
,  // measure 29
00301000
00000000
00100000
00001000
00000000
00001000
00010000
00000000
,  // measure 30
00000100
00000000
00001000
00000010
00000000
00000010
00000100
00000000
,  // measure 31
00000001
00000100
00000001
00001000
00000000
00000001
00001000
00000000
,  // measure 32
00000220
00000000
00000000
00000330
,  // measure 33
00000001
00000100
00000001
00001000
00000001
00000000
00001000
00000000
,  // measure 34
00000100
00001000
00000100
00010000
00001000
00000000
01000000
00000000
,  // measure 35
00100000
01000000
00010000
01000000
00010000
00000000
10000000
00000000
,  // measure 36
01000000
00100000
01000000
10000000
01000000
00000000
00100000
00010000
,  // measure 37
00100000
00000000
00010000
01000000
00000000
01000000
00010000
00000000
,  // measure 38
00100000
00000000
00001000
00010000
00000000
00010000
00000010
00001000
,  // measure 39
00000100
00000000
00000010
00000001
00000000
00001000
00000010
00000000
,  // measure 40
00001000
00000000
00000100
00010000
00000000
00001000
00100000
00000000
,  // measure 41
00010000
00100000
00010000
10000000
01000000
10000000
00000000
00010000
,  // measure 42
00000000
00100000
00010000
01000000
00001000
01000000
00000000
00001000
,  // measure 43
00000000
01000000
00001000
00010000
00000100
00010000
00000000
00000100
,  // measure 44
00000000
00010000
00000100
00001000
00000100
00010000
00001000
00000000
,  // measure 45
00020000
00000000
00001000
00001000
00000000
00000000
00030100
00000000
,  // measure 46
00000200
00000000
00000010
00000010
00000000
00000000
00001300
00000100
,  // measure 47
00002000
00000000
00000000
00000010
00000000
00000000
00003001
00000000
,  // measure 48
00000002
00000000
00000000
00000010
00000000
00000000
00001003
00000000
,  // measure 49
00000110
00000000
00000000
00000000
;
