#TITLE:Oosanbashi;
#SUBTITLE:;
#ARTIST:Ucchies;
#TITLETRANSLIT:;
#SUBTITLETRANSLIT:;
#ARTISTTRANSLIT:;
#GENRE:;
#CREDIT:;
#MENUCOLOR:;
#METERTYPE:DDR;
#BANNER:Oosanbashi-bn.png;
#BACKGROUND:Oosanbashi-bg.png;
#LYRICSPATH:;
#CDTITLE:ddrencorecdtitle.png;
#MUSIC:Oosanbashi.mp3;
#OFFSET:-0.336;
#SAMPLESTART:82.458;
#SAMPLELENGTH:11.428;
#SELECTABLE:YES;
#LISTSORT:;
#BPMS:0.000=84.000,76.000=126.000,88.000=168.000;
#STOPS:;
#BGCHANGES:0.000=Oosanbashi.avi=1.000=1=0=0,
232.000=Oosanbashi-bg.png=1.000=0=0=1,
99999=-nosongbg-=1.000=0=0=0 // don't automatically add -songbackground-
;
#ATTACKS:;

//---------------dance-single - ----------------
#NOTES:
     dance-single:
     :
     Beginner:
     1:
     0.085,0.123,0.059,0.000,0.000:
0000
0000
0000
0000
,
0000
0000
0000
1000
,
1000
0000
0000
0001
,
0001
0000
0000
0000
,
0010
0000
0001
0000
,
1000
0000
0000
0010
,
0010
0000
0000
0100
,
0100
0000
0000
0000
,
0001
0000
1000
0000
,
0100
0000
0000
0000
,
1001
0000
0000
0000
,
1001
0000
0000
0000
,
0010
0000
0001
0000
,
0100
0000
0000
0000
,
0110
0000
0000
0000
,
0110
0000
0000
0000
,
1000
0000
0001
0000
,
0100
0000
0000
0000
,
0100
0000
0000
0000
,
0001
0000
0000
0001
,
0000
0000
1000
0000
,
0000
1000
0000
0000
,
0001
0000
0000
0000
,
0000
0000
0000
0000
,
1000
0000
0000
0000
,
0000
0000
0000
0000
,
0001
0000
0010
0000
,
0001
0000
1000
0000
,
0010
0000
0000
0000
,
0000
0000
0000
0000
,
0100
0000
0000
0000
,
0000
0000
0000
0000
,
0010
0000
0000
0000
,
0000
0000
0000
0000
,
1000
0000
0010
0000
,
1000
0000
0001
0000
,
0010
0000
0000
0000
,
0010
0000
0000
0000
,
1001
0000
0000
0000
,
0100
0000
0000
0000
,
1001
0000
0000
0000
,
0010
0000
0000
0000
,
0100
0000
0000
0000
,
0001
0000
0000
0000
,
1000
0000
0000
0000
,
0000
0000
0001
0000
,
0001
0000
0000
0000
,
0000
0000
1000
0000
,
1000
0000
0000
0000
,
0001
0000
0000
0000
,
0010
0000
0000
0000
,
0100
0000
0000
0000
,
1000
0000
0000
0000
,
0000
0000
0000
0000
,
0001
0000
0000
0000
,
0000
0000
0000
0000
,
0100
0000
0000
0000
,
0010
0000
0000
0000
,
1001
0000
0000
0000
;

//---------------dance-single - ----------------
#NOTES:
     dance-single:
     :
     Easy:
     3:
     0.181,0.199,0.008,0.025,0.000:
0000
0000
0000
0000
,
0000
0000
0000
1000
,
0001
0000
0000
0001
,
1000
0000
0000
0000
,
0010
1000
0100
0010
,
0001
0000
0100
0001
,
1000
0000
0000
1000
,
0001
0000
0000
0000
,
0010
0001
0100
0010
,
1000
0000
0001
0000
,
0010
0000
0001
0100
,
0010
0000
1000
0001
,
0010
0000
0010
0000
,
0001
0000
1000
0010
,
0100
0000
0001
1000
,
0010
0010
0010
0000
,
1000
0100
0010
0001
,
1000
0000
0010
0000
,
1000
0000
0001
0000
,
0010
0000
0000
0010
,
0000
0000
0000
0000
0100
0000
0000
0010
,
0000
0000
0100
0000
0000
0010
0000
0000
,
0001
0000
0100
0000
,
0010
0000
1000
0010
,
1000
0000
0100
0000
,
0010
0000
0001
0000
,
0100
0000
0001
1000
,
0010
0000
1000
0001
,
0010
0000
0100
0000
,
1000
0010
1000
0001
,
0010
0000
0001
0000
,
0100
0000
0001
1000
,
0001
0000
0100
0000
,
0010
0000
1000
0000
,
0001
0000
0100
0001
,
0010
0000
0100
1000
,
0020
0000
0000
0000
,
0230
0000
0000
0000
,
0301
0000
1000
0000
,
0010
1000
0001
0010
,
0100
0000
0010
0000
,
0001
1000
0010
0100
,
0001
0000
0001
1000
,
0010
0000
0010
1000
,
0001
0000
0010
0000
,
0100
1000
0100
0010
,
0001
0000
1000
0000
,
0001
0000
0100
0001
,
1000
0000
0010
0000
,
1001
0000
0100
0000
,
1000
0000
1000
0100
,
0010
0000
0100
0000
,
1000
0000
0001
0000
0000
0001
0000
0000
,
1000
0000
0000
1000
0000
0000
0010
0000
,
0100
0000
0001
0000
0000
0001
0000
0000
,
1000
0000
0000
1000
0000
0000
0100
0000
,
0010
0000
0100
0000
,
1000
0001
1000
0020
,
0000
0000
0030
0000
;

//---------------dance-single - ----------------
#NOTES:
     dance-single:
     :
     Medium:
     5:
     0.267,0.298,0.093,0.034,0.008:
0000
0000
0000
0000
,
0000
0000
0000
0000
0000
0000
0100
0001
,
1000
0000
0100
0000
1000
0000
0010
1000
,
0001
0010
0001
0100
,
0010
0000
1000
0001
0000
0001
0100
0000
,
0010
0000
0000
0000
0100
0001
0100
0000
,
0001
0000
1000
0000
0100
1000
0010
1000
,
0001
0100
0010
1000
,
1001
0000
0000
0010
0010
0000
0100
0001
,
2000
0000
0000
0000
3001
0000
1000
0001
,
0010
0000
0100
0000
0010
0000
0001
1000
,
0100
0000
0010
0000
0100
0000
1000
0010
,
0100
0000
0010
0100
0001
0000
0100
0001
,
1000
0000
0100
0000
0010
0000
0001
0100
,
0001
0000
0010
0000
0100
0000
1000
0010
,
1000
0001
0100
0010
,
1000
1000
0001
0001
,
0010
0000
0100
0000
,
0010
0000
0100
0000
,
1001
0000
0000
1001
,
0000
0000
0000
0000
1001
0000
0000
1001
,
0000
0000
0000
0000
0001
0000
0000
0010
0000
0000
0100
0000
0000
1000
0000
0000
,
0001
0100
0001
0100
,
0010
1000
0100
0010
,
0001
0100
0001
0100
,
0010
1000
0001
0010
,
0100
0000
0010
0100
,
1000
0010
0100
0001
,
1000
0000
0001
0000
,
1000
0010
0100
0001
,
1000
0100
1000
0100
,
0010
0001
0100
0010
,
1000
0100
1000
0100
,
0010
0001
1000
0001
,
0100
0000
0100
0001
,
1000
0000
0010
1000
,
0002
0000
0000
0000
,
2003
0000
0000
0000
,
3001
0000
1000
0000
0000
0010
0000
0000
,
0100
0001
1000
0100
,
1000
0000
0001
0000
0000
0100
0000
0000
,
0010
1000
0100
0010
,
0001
0000
0000
1100
0000
0000
0010
0000
,
0100
0000
0000
1001
0000
0000
0010
0000
,
0001
0000
1000
0000
0000
0110
0000
0000
,
1000
0100
0010
0001
,
1000
0001
0100
0000
0000
0000
0100
0000
,
0010
1000
0001
0010
,
0100
0000
0010
0000
,
1001
0000
0010
0001
,
0100
0000
0000
0110
0000
0000
0010
0000
,
1000
0000
0000
0101
0000
0000
0001
0000
,
1000
0000
0100
0000
0000
0010
0000
0000
,
0010
0100
0000
1000
0000
0001
0000
0000
,
0001
0000
0100
0000
0000
0010
0000
0000
,
0010
0100
0000
0001
0000
1000
0000
0000
,
1000
0000
0001
0000
0000
0100
0000
0000
,
0010
1000
0001
0200
,
0000
0000
0300
0000
;

//---------------dance-single - ----------------
#NOTES:
     dance-single:
     :
     Hard:
     8:
     0.409,0.472,0.246,0.025,0.285: // measure 1
0000
0000
0000
0000
,  // measure 2
0000
0000
0000
0000
0000
0000
0010
1000
,  // measure 3
0001
0000
0000
0100
0000
0010
0100
0010
0000
0000
1000
0000
0010
0000
1000
0000
,  // measure 4
0001
0000
0000
0001
0010
0000
0010
0100
0000
0000
1000
0000
0100
0010
0000
0000
,  // measure 5
0001
0000
0000
0001
0000
0000
0000
1000
0000
0000
1000
0000
0010
0100
0000
0000
,  // measure 6
0001
0000
0000
0100
0000
0000
0000
0010
1000
0010
0100
0001
1000
0000
0000
0000
,  // measure 7
0010
1000
0000
0100
0000
0010
0100
0010
0000
0000
0001
0000
1000
0000
0010
0000
,  // measure 8
0100
0000
0000
0010
0000
1000
0001
0010
0000
0001
1000
0010
0000
0000
0000
0000
,  // measure 9
1001
0000
0000
0100
0000
0000
0010
0000
0010
0000
0000
0000
0100
0000
0001
1000
,  // measure 10
0002
0000
0000
0000
1003
0000
0010
1000
,  // measure 11
0100
0000
0000
0010
0000
0100
0000
0000
1000
0000
0000
0000
0010
0000
0100
0000
,  // measure 12
0001
0000
0000
0010
0000
0001
0000
0000
1000
0000
0000
0010
0000
1000
0000
0000
,  // measure 13
0001
0000
0000
0001
0000
0001
0000
0000
1000
0000
0000
1000
0000
1000
0000
0000
,  // measure 14
0010
0000
0000
0100
0000
0100
0000
0000
1001
0000
0000
0000
0100
0000
0001
0000
,  // measure 15
0010
0100
1000
0100
0000
0010
0000
0001
1000
0000
0000
0010
0000
0010
0100
0000
,  // measure 16
0001
0000
0000
0000
1000
0000
0000
0000
0010
0000
0000
0100
0000
0000
0001
0000
,  // measure 17
1010
0110
0101
1001
,  // measure 18
0110
0000
0000
0001
0000
1000
0000
0000
0010
0000
0000
0100
0000
0000
0001
0000
,  // measure 19
0010
0000
0000
0001
0000
1000
0000
0000
0100
0000
0000
1000
0000
0001
0000
0000
,  // measure 20
0110
0000
0000
0000
0000
0000
0000
0000
0000
1000
0000
0000
0000
0000
0000
0001
0000
0000
0000
0000
0000
0000
0000
0000
0110
0000
0000
0000
0000
0000
0000
0000
,  // measure 21
0000
0001
0000
0000
0000
0000
0000
0000
0000
0000
0000
0000
0000
0000
0000
0000
1001
0000
0000
0000
0000
0000
0000
0000
0000
0000
0000
0000
0110
0000
0000
0000
,  // measure 22
0000
0000
0000
0000
0101
0000
0000
1100
0000
0000
0101
0000
0000
1100
0000
0000
,  // measure 23
0010
0000
0100
0000
0001
0010
0100
1000
,  // measure 24
0000
0000
0010
0000
0000
0000
0000
0010
0100
0000
0001
0000
0000
0000
0001
0000
,  // measure 25
0010
0000
0100
0000
1000
0010
0100
0001
,  // measure 26
0000
0000
0010
0000
0000
0000
0000
0010
0100
0000
1000
0000
0000
0000
1000
0000
,  // measure 27
0001
0000
1000
0000
0010
0100
0001
1000
,  // measure 28
0100
0000
0010
0001
0100
0000
0010
1000
,  // measure 29
0001
0000
0000
0000
0010
0000
0000
0000
0001
0000
0000
0000
0100
0000
0000
0100
,  // measure 30
0010
0000
0000
0010
1000
0000
0000
1000
0001
0000
0100
0000
0000
0000
0100
0000
,  // measure 31
0001
1000
0000
0100
0000
0010
0100
1000
,  // measure 32
0000
0000
0010
0000
0000
0000
0000
0010
0100
0000
0001
0000
0000
0000
0001
0000
,  // measure 33
0010
0100
0000
0010
0000
0001
1000
0100
,  // measure 34
0000
0000
0010
0000
0000
0000
0000
0010
0100
0000
1000
0000
0000
0000
1000
0000
,  // measure 35
0001
0000
1000
0000
0010
0100
0001
1000
,  // measure 36
0100
0000
0010
0000
0001
0000
1000
0001
,  // measure 37
2000
0000
0000
0000
,  // measure 38
3100
1000
0001
0100
0010
0000
1000
0000
,  // measure 39
0001
0000
0000
0100
0000
1001
0000
0000
,  // measure 40
0010
0001
0100
0010
1000
0100
0000
0010
,  // measure 41
0100
0000
0000
1000
0000
0011
0000
0000
,  // measure 42
0100
0001
0010
0100
1000
0010
0000
0100
,  // measure 43
0010
0000
0000
0101
0000
0000
0010
0000
,  // measure 44
0001
0000
0000
1100
0000
0000
0001
0000
,  // measure 45
1000
0000
0010
0100
0000
1001
0000
0000
,  // measure 46
0010
0001
0100
0010
1000
0000
0001
0000
,  // measure 47
0010
0000
0001
0000
0100
0000
0000
0000
0010
0000
0000
0000
1000
0000
0000
0001
,  // measure 48
0100
0000
0000
0100
0010
0000
0000
0010
1000
0000
0001
0000
0000
0000
0001
0000
,  // measure 49
0100
0000
0110
0000
0000
1001
0000
0000
,  // measure 50
1000
0100
0010
0001
0100
0010
1000
0001
,  // measure 51
0010
0000
0000
0011
0000
0000
0001
0000
,  // measure 52
0100
0000
0000
1010
0000
0000
1000
0000
,  // measure 53
0001
0000
0000
0000
0100
0000
0000
0000
0000
0000
0110
0000
0000
0000
0000
0010
,  // measure 54
1000
0001
0000
0010
0000
0110
0000
0000
,  // measure 55
1000
0000
0000
0000
0010
0000
0000
0000
0000
0000
0110
0000
0000
0000
0000
0100
,  // measure 56
0001
1000
0000
0100
0000
0110
0000
0000
,  // measure 57
0001
0000
1000
0000
0000
0101
0000
0000
,  // measure 58
0010
1000
0001
0010
0100
0010
0001
2000
,  // measure 59
0000
0000
3000
0000
;

//---------------dance-double - ----------------
#NOTES:
     dance-double:
     :
     Easy:
     3:
     0.164,0.174,0.034,0.025,0.000:
00000000
00000000
00000000
00000000
,
00000000
00000000
00000000
00000010
,
00000100
00000000
00000000
00000100
,
00000001
00000000
00000000
00000000
,
00001000
00000010
00010000
00001000
,
01000000
00000000
00000000
00010000
,
00100000
00000000
00000000
00100000
,
01000000
00000000
00000000
00000000
,
10000000
00010000
00100000
00001000
,
00010000
00000000
00000000
00000010
,
00001000
00000000
00000001
00001000
,
00000100
00000000
00000010
00000100
,
00001000
00000000
00000010
00000000
,
00010000
00000000
00000000
00001000
,
01000000
00000000
00000000
01000000
,
00010000
10000000
01000000
00000000
,
00100000
00010000
01000000
00001000
,
00010000
00000000
00000000
00000000
,
00001000
00000000
00000000
00000000
,
00010000
00000000
00000000
00000010
,
00000000
00000000
00000000
00000000
00001000
00000000
00000000
00000001
,
00000000
00000000
00001000
00000000
00000000
00000001
00000000
00000000
,
00000100
00000000
00000001
00000000
,
00001000
00000000
00000100
00001000
,
00000010
00000000
00010000
00000000
,
00001000
00000000
01000000
00010000
,
00100000
00000000
00100000
01000000
,
00000000
01000000
10000000
00000000
,
00010000
00000000
10000000
00000000
,
00100000
00000000
10000000
00010000
,
01000000
00000000
00001000
00000000
,
00010000
00000000
00000010
00001000
,
00000001
00000000
00000010
00000000
,
00000100
00000000
00001000
00000001
,
00000100
00000000
00000100
00000010
,
00001000
00000000
00001000
00000100
,
00020000
00000000
00000000
00000000
,
00032000
00000000
00000000
00000000
,
01003000
00000000
10010000
00000000
,
00100000
10000000
00010000
00000000
,
01000000
00000000
00011000
00000000
,
00010000
00000010
00001000
00000000
,
00000100
00000000
00001001
00000000
,
00000010
00000000
00001001
00000000
,
00000100
00000000
00000010
00000000
,
00001000
00000100
00000010
00000001
,
00000100
00000000
00000010
00000000
,
00010000
00000000
00001000
01000000
,
00010000
00000000
00100000
00000000
,
01000000
00000000
00100000
00000000
,
00010000
00000000
01000000
00001000
,
00010000
00000000
00000010
00000000
,
00001000
00000000
00000000
00000000
,
00000010
00000000
00000000
00000000
,
00010000
00000000
00000000
00000000
,
00001000
00000000
00000000
00000000
,
01000000
00000000
00010000
00000000
,
10000000
01000000
00100000
00020000
,
00000000
00000000
00030000
00000000
;

//---------------dance-double - ----------------
#NOTES:
     dance-double:
     :
     Medium:
     6:
     0.285,0.298,0.059,0.034,0.008:
00000000
00000000
00000000
00000000
,
00000000
00000000
00000000
00000000
00000000
00000000
00000100
00001000
,
00000010
00000000
00000000
00000000
00000100
00000000
00000001
00001000
,
00000100
00010000
00001000
01000000
,
00100000
00000000
10000000
01000000
00000000
01000000
00100000
00000000
,
00001000
00000000
00000000
00000000
00001000
00010000
00000010
00000000
,
00001000
00000000
00000010
00000000
00000100
00000001
00001000
00000100
,
00000010
00000000
00000001
00001000
,
00000010
00000000
00000000
00010000
00010000
00000000
00001000
01000000
,
00020000
00000000
00000000
00000000
10030000
00000000
01000000
10000000
,
00100000
00000000
01000000
00000000
00001000
00000000
00010000
00000010
,
00001000
00000000
00000100
00000000
00000010
00000000
00000001
00001000
,
00000100
00000000
00000100
00010000
00001000
00000000
00001000
01000000
,
00010000
00000000
00100000
00000000
01000000
00000000
10000000
00010000
,
01000000
00100000
10000000
00000000
00010000
00000000
00100000
00001000
,
00010000
00000010
00000100
00000000
,
00000010
00001000
00000100
00010000
,
00001000
00000000
00010000
00000000
,
00000010
00000000
00001000
00000000
,
00000101
00000000
00000000
00001100
,
00000000
00000000
00000000
00000000
00011000
00000000
00000000
01001000
,
00000000
00000000
00000000
00000000
00010000
00000000
00000000
00100000
00000000
00000000
01000000
00000000
00000000
10000000
00000000
00000000
,
00010000
00000000
00100000
00000000
00010000
01000000
00000000
00100000
,
00000000
10000000
00010000
00000000
00100000
00000000
00001000
00000000
,
00010000
00000000
00000010
00000000
00001000
00000100
00000000
00000010
,
00000000
00000001
00001000
00000000
00000010
00000000
00000100
00000000
,
00000001
00001000
00000100
00000010
,
00000100
00001000
00000010
00010000
,
00001000
01000000
00010000
00100000
,
01000000
00000000
00100000
00000000
,
00010000
00000000
10000000
00000000
01000000
00000000
00100000
01000000
,
00000000
10000000
00000000
00010000
01000000
00000000
00001000
00000000
,
00010000
00000000
00000010
00000000
00000100
00000001
00000000
00000010
,
00000000
00000100
00001000
00000000
00000010
00000000
00010000
00000000
,
00001000
01000000
00010000
00100000
,
01000000
00100000
00001000
00010000
,
00000020
00000000
00000000
00000000
,
00000230
00000000
00000000
00000000
,
00000301
00000000
00000010
00000100
00000000
00000010
00000000
00000000
,
00000001
00000100
00000001
00001000
00000010
00000000
00001000
00000000
,
00000100
00000000
00010000
00001000
00000000
00010000
00000000
00000000
,
00001000
01000000
00001000
00100000
00010000
00000000
01000000
00000000
,
00100000
00000000
10000000
00010000
,
01000000
00000000
00000000
00001000
00000000
00000000
00010000
00000000
,
00001000
00000000
01000000
00000000
,
00010000
00100000
00010000
10000000
01000000
00000000
00100000
00000000
,
00001000
00000000
00010000
00000000
00001000
00010000
00000010
00000000
,
00000100
00000001
00001000
00000001
,
00000100
00000000
00000010
00000000
,
00011000
00000000
00001000
00000000
,
01000000
00000000
00010000
01000000
00100000
00000000
10000000
00000000
,
01000000
00000000
00100000
00010000
01000000
00000000
00001000
00000000
,
00010000
00000000
00000010
00000000
00000000
00001001
00000000
00000000
,
00000100
00000010
00000000
00001000
00000000
00000100
00000000
00000000
,
00010000
00000000
00001000
00000000
00000000
01010000
00000000
00000000
,
00010000
10000000
00000000
01000000
00000000
00100000
00000000
00000000
,
00010000
10000000
01000000
00100000
,
00001000
00010000
00000100
00000000
00010000
00001000
02000000
00000000
,
00000000
00000000
03000000
00000000
;

//---------------dance-double - ----------------
#NOTES:
     dance-double:
     :
     Hard:
     8:
     0.396,0.447,0.119,0.017,0.272:
00000000
00000000
00000000
00000000
,
00000000
00000000
00000000
00000000
00000000
00000000
00100000
00010000
,
01000000
00000000
00000000
00100000
00000000
10000000
00010000
10000000
00000000
00000000
01000000
00000000
00100000
00000000
00001000
00000000
,
00010000
00000000
00000000
00000010
00000100
00000000
00000100
00000001
00000000
00000000
00000001
00000010
00000100
00001000
00000000
00000000
,
00000010
00000000
00000000
00000100
00000000
00000000
00000000
00000001
00000000
00000000
00001000
00000000
00000100
00000000
00000000
00000000
,
00010000
00000000
00000000
00001000
00000000
00000000
00000000
00100000
00010000
00100000
01000000
10000000
00010000
00000000
00000000
00000000
,
01000000
00100000
00000000
10000000
00000000
00010000
01000000
00010000
00000000
00000000
00100000
00000000
00001000
00000000
00000000
00000000
,
00010000
00000000
00000000
00000010
00000000
00001000
00000100
00000010
00000000
00000100
00000010
00000001
00000000
00000000
00000000
00000000
,
00001000
00000000
00000000
00000010
00000000
00000000
00000000
00000100
00000001
00000000
00000010
00000000
00000001
00000000
00000000
00000000
,
00001000
00000000
00000000
00000100
00000000
00000000
00000000
00000000
00011000
00000000
00000000
00000000
00100000
00000000
00010000
00000000
,
01000000
00000000
00000000
00100000
00000000
10000000
00000000
00000000
01000000
00000000
00000000
00000000
00100000
00000000
00010000
00000000
,
01000000
00000000
00000000
00001000
00000000
00010000
00000000
00000000
00000010
00000000
00000000
00001000
00000000
00000001
00000000
00000000
,
00000010
00000000
00000000
00000100
00000000
00000100
00000000
00000000
00010000
00000000
00000000
00001000
00000000
00001000
00000000
00000000
,
01000000
00000000
00000000
00100000
00000000
00100000
00000000
00000000
10010000
00000000
00000000
00000000
01000000
00000000
00100000
00000000
,
10000000
00000000
00000000
00010000
00000000
01000000
00000000
01000000
00100000
00000000
00000000
10000000
00000000
10000000
00010000
00000000
,
00100000
00000000
00000000
00001000
00000000
00010000
00000000
00010000
00000100
00000000
00000000
00000010
00000000
00000000
00000001
00000000
,
00001000
00000000
00000010
00001000
00000100
00000000
00010000
00000000
,
00001000
00000000
00000000
00100000
00000000
00001000
00000000
00000000
01000000
00000000
00000000
00010000
00000000
00000000
00100000
00000000
,
00001000
00000000
00000000
00010000
00000000
00000010
00000000
00000000
00000100
00000000
00000000
00000001
00000000
00001000
00000000
00000000
,
00010100
00000000
00000000
00011000
,
00000000
00000000
00000000
00000000
01010000
00000000
00000000
10010000
,
00000000
00000000
00000000
00000000
11000000
00000000
00000000
01100000
00000000
00000000
00110000
00000000
00000000
00011000
00000000
00000000
,
00010000
00000000
00001000
00000000
00100000
00010000
00100000
01000000
,
00000000
00000000
10000000
00000000
00000000
00000000
00000000
00010000
10000000
00000000
01000000
00000000
00000000
00000000
01000000
00000000
,
00100000
00000000
00001000
00000000
00010000
00000010
00010000
00000100
,
00000000
00000000
00001000
00000000
00000000
00000000
00000000
00000001
00001000
00000000
00000010
00000000
00000000
00000000
00000010
00000000
,
00000100
00000000
00000001
00000000
00000100
00000010
00001000
00000000
,
00000100
00000000
00010000
00000000
00001000
00000000
01000000
00010000
,
00100000
00000000
01000000
00000000
10000000
00000000
00000000
00000000
00010000
00000000
00000000
00000000
00100000
00000000
00000000
00100000
,
00001000
00000000
00000000
00001000
00010000
00000000
00000000
00010000
00000100
00000000
00000000
00000000
00010000
00000000
00000000
00000000
,
00000100
00000000
00001000
00000000
00000010
00001000
00000010
00000100
,
00000000
00000000
00000001
00000000
00000000
00000000
00000000
00001000
00000001
00000000
00000100
00000000
00000000
00000000
00000100
00000000
,
00000010
00000000
00010000
00000000
00001000
01000000
00001000
00100000
,
00000000
00000000
00010000
00000000
00000000
00000000
00000000
10000000
00010000
00000000
01000000
00000000
00000000
00000000
01000000
00000000
,
00010000
00000000
00100000
00000000
00001000
00000000
00010000
00000010
,
00000100
00000000
00000001
00000000
00000010
00000000
00000100
00001000
,
00000002
00000000
00000000
00000000
,
00000103
00000001
00001000
00000000
00000100
00010000
00001000
00000000
,
01000000
00000000
00010000
00100000
00000000
00100000
00000000
00000000
,
01000000
10000000
01000000
00100000
00001000
00010000
00000000
00010000
,
00000100
00000000
00001000
00000010
00000000
00000010
00000000
00000000
,
00000100
00000001
00000100
00000010
00010000
00001000
00000000
00001000
,
01000000
00000000
01000000
00100000
00000000
00100000
10000000
00000000
,
00010000
00000000
00100000
00001000
00000000
00001000
00010000
00000000
,
00000010
00000000
00000100
00000001
00000000
00001000
00000000
00000000
,
00000010
00000100
00000001
00001000
00000010
00010000
00000100
00010000
,
00001000
00000000
01000000
00010000
00000000
00100000
00000000
00100000
,
01000000
00000000
00000000
01000000
10000000
00000000
00000000
10000000
00010000
00000000
00100000
00000000
00000000
00000000
00100000
00000000
,
00001000
00000000
00010000
00000010
00000000
00000100
00000000
00000100
,
00000001
00000010
00000100
00001000
00000100
00010000
00001000
00000000
,
01000000
00000000
00000000
00011000
00000000
00000000
00010000
00000000
,
00000010
00000000
00000000
00011000
00000000
00000000
00001000
00000000
,
00100000
00000000
01000000
10000000
00000000
10000000
00000000
00000000
,
00010000
00100000
00000000
00001000
00000000
00011000
00000000
00000000
,
00010000
00000000
00000010
00000100
00000000
00000100
00000000
00000000
,
00000001
00000010
00000000
00000100
00000000
00011000
00000000
00000000
,
00001000
00100000
00010000
00000000
00100000
01000000
10000000
00000000
,
00010000
01000000
00001000
00010000
00000010
00001000
00000001
00000020
,
00000000
00000000
00000030
00000000
;
