#TITLE:On The Floor;
#SUBTITLE:;
#ARTIST:Jennifer Lopez feat. Pitbull;
#TITLETRANSLIT:;
#SUBTITLETRANSLIT:;
#ARTISTTRANSLIT:;
#GENRE:Dance;
#CREDIT:;
#MENUCOLOR:;
#METERTYPE:DDR;
#BANNER:On The Floor-bn.png;
#BACKGROUND:black.png;
#LYRICSPATH:;
#CDTITLE:;
#MUSIC:On The Floor.mp3;
#OFFSET:-0.012;
#SAMPLESTART:84.920;
#SAMPLELENGTH:14.760;
#SELECTABLE:YES;
#LISTSORT:;
#BPMS:0.000=130.000;
#STOPS:;
#BGCHANGES:0.000=On The Floor.avi=1.000=0=0=0,
246.000=black.png=1.000=0=0=1,
99999=-nosongbg-=1.000=0=0=0 // don't automatically add -songbackground-
;
#ATTACKS:;

//---------------dance-single - [Ness]----------------
#NOTES:
     dance-single:
     [Ness]:
     Challenge:
     9:
     0.555,0.555,0.266,0.026,0.361:
0000
0000
0000
0000
,
0000
0000
0000
0000
,
0000
0000
0000
0000
,
0000
0000
0000
0000
,
1000
0000
0000
1000
0000
0000
1000
0000
0000
0000
1000
0000
0000
0000
0010
0000
,
0100
0000
0000
0100
0000
0000
0100
0000
0000
0000
0100
0000
0000
0000
0100
0001
,
1000
0000
0000
1000
0000
0000
1000
0000
0000
0000
1000
0000
0000
0000
1000
0001
,
0010
0000
0000
0010
0000
0000
0010
0000
0000
0000
0010
0000
0000
0000
0010
0000
,
0100
0000
0000
0100
0000
0000
0100
0000
0000
0000
0100
0000
0000
0000
0100
0000
,
0100
0000
0000
0100
0000
0000
0100
0000
0100
0000
0000
0100
0000
0000
0100
0000
,
1000
0000
0000
0101
0000
0000
1001
0000
0000
0000
0000
0000
0001
0000
0010
0000
,
0100
0000
0000
0011
0000
0000
1100
0000
0000
0000
0000
0000
1000
0000
0010
0000
,
0100
0000
0000
1010
0000
0000
1001
0000
1000
0001
0010
0000
0100
0000
0001
0000
,
0101
0000
0000
0110
0000
0000
1100
0000
0100
0000
0100
0000
1000
0000
0010
0000
,
0001
0000
0000
0001
0000
0000
0001
0000
0001
0000
0000
0001
0000
0000
0001
0000
,
0010
0000
0000
1000
0000
0000
0010
0000
0100
0000
0000
1000
0000
0000
0100
0000
,
0001
0000
0000
0010
0100
0000
1000
0000
0001
0000
0000
0100
0010
0000
1000
0000
,
0100
0000
0000
1000
0010
0000
0100
0000
0001
0000
0000
0000
1100
0000
0001
0000
,
1000
0000
0000
0100
0010
0000
0001
0000
0100
0000
0000
0001
1000
0000
0010
0000
,
0100
0000
0000
0010
1000
0000
0100
0000
0010
0000
0000
0000
0110
0000
1000
0000
,
0001
0000
0000
1000
0001
0000
0010
0000
0100
0000
0000
1000
0100
0000
0010
0000
,
0001
0000
0000
0100
0010
0000
1000
0000
0001
0000
0010
0100
0000
0000
0010
0000
,
0100
0000
1000
0001
0000
0000
1000
0000
0010
0000
1000
0100
0000
0000
0001
0000
,
0100
0000
1000
0100
0000
0000
0010
0000
1000
0000
0010
0001
0000
0000
0100
0000
,
0010
0000
0000
0010
1000
0000
0010
0000
1000
0000
0000
0010
1000
0000
1000
0000
,
1000
0000
1000
0010
1000
0000
1000
0000
1000
0000
0000
0010
1000
0000
0010
0000
,
0100
0000
0001
0100
0010
0000
1000
0000
0100
0000
0010
0100
1000
0000
0001
0000
,
0010
0000
0100
0010
0001
0000
1000
0000
0001
0000
0000
0000
0110
0000
1000
0000
,
0100
0000
1000
0010
0100
0000
0001
0000
1000
0000
0001
0010
0100
0000
1000
0000
,
0001
0000
0100
0010
1000
0000
0001
0000
0010
0000
0000
0000
0011
0000
1000
0000
,
0100
0000
1000
0100
0010
0000
0001
0000
1000
0000
0010
0100
0001
0000
0010
0000
,
0100
0000
1000
0010
0100
0000
0001
0000
1000
0000
0001
0010
0100
0000
1000
0000
,
0001
1000
0010
0100
0001
1000
0000
0000
,
1000
0010
0001
0010
1000
0100
0000
0000
,
0010
0000
0001
0100
0010
1000
0100
0000
,
1000
0010
0100
0001
0010
0100
1000
0000
,
0201
0000
0000
0301
0010
0100
1000
0000
,
0010
1000
0001
0100
0010
0100
0001
1000
,
0001
0000
0000
0100
0002
0000
0100
0000
0000
0000
0100
0000
0003
0000
0100
0002
,
0010
0000
0000
0010
0000
0000
0010
0000
0000
0000
0010
0000
0000
0000
0013
0000
,
0100
0000
0000
0100
1000
0000
0100
0000
0010
0000
0001
0000
1001
0000
0000
0000
,
0001
0010
1001
0010
0100
1000
1001
1000
,
0001
0000
0000
0100
1000
0000
0100
0000
0000
0000
0100
0000
0010
0000
1000
0001
,
0100
0000
0000
0100
0010
0000
1000
0000
0000
0000
0100
0000
0010
0000
0001
0000
,
1000
0000
0000
1000
0000
0000
1000
0000
0000
0000
1000
0000
0000
0000
1000
0000
,
1000
0000
0000
1000
0000
0000
1000
0000
1000
0000
1000
0000
1000
0000
1000
0000
,
0010
0000
0000
0010
1000
0000
0000
1000
0100
0000
0000
0100
0010
0000
0000
0010
,
0001
0000
0000
0001
1000
0000
0000
1000
0010
0000
0000
0010
0100
0000
0000
0100
,
0001
0000
0000
1000
0001
0000
0010
0000
0100
0000
1000
0000
0010
0000
0100
0000
,
0101
0000
0000
1100
0000
0000
1100
0000
0101
0000
0000
1000
0010
0000
1000
0000
,
0100
0000
0000
0100
0010
0000
0000
0010
0001
0000
0000
0001
1000
0000
0000
1000
,
0010
0000
0000
0010
0100
0000
0000
0100
0010
0000
0000
0010
1000
0000
0000
1000
,
0001
0000
0000
1000
0001
0000
0010
0000
0100
0000
1000
0000
0010
0000
0100
0000
,
1100
0000
0000
0101
0000
0000
0101
0000
1100
0000
0000
0001
0010
0000
0001
0000
,
0100
0000
0010
1000
0001
0000
1000
0000
0100
0000
0010
0000
1001
0000
0000
0000
,
0001
1000
0010
0100
0001
0010
0100
1000
,
0100
0000
0000
1000
0100
0000
0010
0000
0000
0000
0001
0000
0100
0000
0010
0100
,
0010
0000
0000
1000
0010
0000
1000
0000
0000
0000
0100
0000
0010
0000
0001
0000
,
1000
0000
0001
1000
0010
0000
0100
0000
0001
0000
0010
0000
1001
0000
0000
0000
,
0001
1000
0010
0100
0001
0010
0100
1000
,
0001
0000
0000
1000
0001
0000
0100
0000
0010
0000
1000
0000
0100
0000
0010
0000
,
0011
0000
0000
1010
0000
0000
1010
0000
0011
0000
0000
0000
0000
0000
0000
0000
;

//---------------dance-single - [Ness]----------------
#NOTES:
     dance-single:
     [Ness]:
     Hard:
     7:
     0.365,0.393,0.120,0.180,0.060:
0000
0000
0000
0000
,
0000
0000
0000
0000
,
0000
0000
0000
0000
,
0000
0000
0000
0000
,
0020
0000
1030
0001
,
1000
0100
0010
0001
,
0200
0000
0001
0000
,
0320
0000
1000
0000
,
0130
0000
0000
0000
0000
0000
0000
0100
,
0010
0000
0000
0000
0000
0000
0010
0000
1000
0000
0000
1000
0000
0000
1000
0000
,
0001
0000
0000
1000
0000
0000
0100
0000
0000
0000
0000
0000
0010
0000
0001
0000
,
1000
0000
0000
0001
0000
0000
0100
0000
0000
0000
0000
0000
0010
0000
1000
0000
,
0100
0000
0000
0100
0000
0000
0100
0000
1000
0000
0010
0000
0100
0000
0001
0000
,
1000
0000
0000
0001
0000
0000
1000
0000
0010
0000
0000
0000
0100
0000
0001
0000
,
2000
0000
0000
0000
,
0200
0000
0000
3300
,
1001
0000
1000
0010
1000
0000
0001
0010
,
0001
0000
0000
0100
0000
0000
0001
0000
0200
0000
0000
0000
0310
0000
0000
0000
,
1000
0000
0001
1000
0010
0000
1000
0100
,
0010
0000
0000
0001
0000
0000
1000
0000
0200
0000
0000
0000
0310
0000
0000
0000
,
0001
0000
0100
0010
1000
0000
0100
0010
,
0001
0000
0000
1000
0000
0000
0001
0000
0100
0000
0000
0010
0000
0000
1000
0000
,
0001
0000
0000
1000
0000
0000
0100
0000
0010
0000
0000
0000
0110
0000
0000
0000
,
0001
0000
0000
1000
0000
0000
0010
0000
0100
0000
0000
0000
0110
0000
0000
0000
,
0002
0000
0010
0000
0013
0000
0001
0010
,
0100
1000
0100
0010
0002
0000
1003
0000
,
0001
0000
1000
0010
1000
0010
0100
0000
,
0001
0000
0100
0001
0000
0000
1000
0000
0100
0000
0000
0000
0110
0000
0000
0000
,
0100
0000
1000
0001
1000
0001
0010
0000
,
0100
0000
0000
1000
0000
0000
0001
0000
0200
0000
0000
0000
0310
0000
0000
0000
,
1000
0000
0010
1000
0100
0000
0010
0000
,
0001
0000
0000
0100
0000
0000
0001
0000
1000
0000
0000
0000
0001
0000
0010
0000
,
0100
0000
0000
1000
0010
1010
0000
0000
,
0010
1000
0010
0100
0001
1000
0000
0000
,
0002
0010
1000
0103
,
0001
0100
0001
0100
0010
0100
0000
0000
,
0002
0000
0013
0100
,
1000
0010
0100
0001
,
2000
0000
0100
0000
,
3002
0000
0010
0000
,
2003
0010
3100
1000
,
0001
0100
1000
0100
,
0002
0010
0000
1003
,
0200
0010
0000
1300
,
0020
0000
1000
0000
,
0230
0000
0001
0000
,
0310
0000
0000
1000
0001
0100
0001
0000
,
0010
0100
0010
0100
1000
0001
1000
0001
,
0100
0000
0001
0000
1000
0100
1000
0000
,
0101
1100
0101
0101
,
0001
0000
0000
0010
0100
1000
0001
0000
,
1000
0001
1000
0001
0100
0010
0100
0010
,
1000
0000
0001
0000
0010
0100
0010
0000
,
0011
1010
0011
0011
,
1001
0000
1000
0001
1000
0000
0010
1000
,
0001
0000
0100
0001
0100
0000
0010
0100
,
0010
1000
0100
0001
,
0020
1030
0200
0301
,
0010
0000
0001
1000
0100
0000
1000
0010
,
0100
0000
0001
1000
0100
0000
0010
0001
,
1000
0100
0001
0010
,
0100
0000
0000
0000
;

//---------------dance-single - [Ness]----------------
#NOTES:
     dance-single:
     [Ness]:
     Medium:
     5:
     0.268,0.288,0.034,0.258,0.000:
0000
0000
0000
0000
,
0000
0000
0000
0000
,
0000
0000
0000
0000
,
0000
0000
0000
0000
,
2000
0000
3020
0000
,
0230
0000
0302
0000
,
2003
0000
0000
0000
,
3020
0000
0000
0000
,
0130
0000
0000
0000
,
0100
0000
0000
0000
,
0001
0000
0001
0000
0000
0000
1000
0010
,
1000
0000
1000
0000
0000
0000
0100
0010
,
0100
0000
0100
0000
1000
0001
1000
0000
,
0010
0000
0010
0000
0100
0100
0100
0000
,
0001
0000
0010
0000
,
0200
0000
2300
0000
,
3001
1000
0010
0100
,
0001
0000
1000
0001
1000
0000
0000
0000
,
0001
0010
0100
1000
,
0010
0000
1000
0010
1000
0000
0000
0000
,
0010
0100
0001
1000
,
0001
0010
0100
1000
,
0001
1000
0010
1000
,
0100
1000
0010
1000
,
0002
0000
0000
0003
0020
0000
0000
0030
,
0200
0000
2300
0000
,
3001
0100
0010
1000
,
0001
0000
1000
0001
1000
0000
0010
0000
,
0100
0001
0010
0100
,
1000
0000
0001
1000
0001
0000
0100
0000
,
0010
1000
0100
1000
,
0001
0010
0001
0100
,
0010
0000
0000
1000
0010
1000
0000
0000
,
0001
1000
0100
0000
,
0010
0000
0010
0001
0100
0000
0001
0000
,
1000
0001
1000
0000
0010
0000
0000
0000
,
0200
0000
0302
0000
,
0023
0000
0230
0000
,
2300
0000
0000
0000
,
3002
0000
0000
0000
,
0203
0010
0000
0310
,
2000
0100
0000
3100
,
0020
0001
0000
0031
,
2000
0100
0000
3100
,
0020
0000
0000
0000
,
0032
0000
0000
0000
,
1003
0000
0000
0010
0100
0000
0001
0000
,
1000
1100
0001
0101
,
1000
0000
0010
0100
0010
0000
1000
0000
,
0001
0010
0100
1000
,
0001
0000
0000
0010
0100
0000
1000
0000
,
0001
0101
1000
1100
,
0001
0000
0010
0100
0010
0000
0100
0000
,
1000
0001
0100
0000
,
0010
0000
0000
1000
0100
0000
1000
0000
,
0001
0010
0100
1000
,
0020
0000
0230
0000
,
0302
0000
2003
0000
,
3100
0000
0000
0010
0001
0000
1000
0000
,
0010
0100
0001
1000
,
0002
0000
0203
0000
,
0310
0000
0000
0000
;

//---------------dance-single - [Ness]----------------
#NOTES:
     dance-single:
     [Ness]:
     Easy:
     2:
     0.183,0.236,0.060,0.138,0.000:
0000
0000
0000
0000
,
0000
0000
0000
0000
,
0000
0000
0000
0000
,
0000
0000
0000
0000
,
1000
0000
0000
0000
,
0010
0000
0000
0000
,
0100
0000
0000
0000
,
0001
0000
0000
0000
,
0010
0000
0000
0000
,
0010
0000
0000
0000
,
0100
0000
0000
1000
,
0001
0000
0000
0100
,
0010
0000
1000
0001
,
1000
0000
0100
0010
,
0001
0000
1000
0000
,
0002
0000
2003
0000
,
3010
0100
0010
0000
,
1000
0000
0110
0000
,
0010
0100
0010
0000
,
0001
0000
0110
0000
,
0100
0010
0100
0000
,
1000
0000
0001
0000
,
1000
0000
0001
0000
,
0010
0000
0100
0000
,
2000
0000
3020
0000
,
0230
0000
0302
0000
,
1003
0100
0010
0000
,
0001
0000
1001
0000
,
0001
0100
0010
0000
,
1000
0000
1001
0000
,
1000
0010
1000
0000
,
0010
0000
0110
0000
,
1000
0000
0001
0000
,
0010
0010
0010
0000
,
0100
1000
0100
1000
,
0001
1000
0001
0000
,
0200
0000
0320
0000
,
2030
0000
3200
0000
,
0310
0000
0000
0000
,
0000
0000
0000
0000
,
0002
0000
0203
0000
,
0320
0000
2030
0000
,
3100
0000
0000
0000
,
0000
0000
0000
0000
,
0110
0000
0000
0000
,
0110
0000
0000
0000
,
0010
0010
0001
0001
,
1000
1000
0100
0100
,
1000
0000
0001
0000
,
0100
0000
0010
0000
,
1000
1000
0001
0001
,
0100
0100
0010
0010
,
1000
0000
0100
0000
,
0010
0000
0001
0000
,
2000
0000
3010
1000
,
0100
0000
0010
0000
,
0001
0000
1000
0001
,
1000
0000
0001
1000
,
0002
0000
0013
0001
,
0100
0000
0010
0000
,
1000
0000
0001
1000
,
0001
0000
0000
0000
;

//---------------dance-single - [Ness]----------------
#NOTES:
     dance-single:
     [Ness]:
     Beginner:
     1:
     0.097,0.157,0.009,0.009,0.000:
0000
0000
0000
0000
,
0000
0000
0000
0000
,
0000
0000
0000
0000
,
0000
0000
0000
0000
,
0010
0000
0000
0000
,
1000
0000
0000
0000
,
1000
0000
0000
0000
,
0001
0000
0000
0000
,
0100
0000
0000
0000
,
0010
0000
0000
0000
,
0100
0000
0000
0000
,
0001
0000
0000
0000
,
1000
0000
0000
0000
,
0100
0000
0000
0000
,
0010
0000
0000
0000
,
0010
0000
0000
0000
,
0001
0000
0000
0000
,
1000
0000
0000
0000
,
0010
0000
0000
0000
,
0100
0000
0000
0000
,
0001
0000
0000
0000
,
1000
0000
1000
0000
,
1000
0000
1000
0000
,
1000
0000
1000
0000
,
0100
0000
0000
0000
,
0010
0000
0000
0000
,
0001
0000
0001
0000
,
0100
0000
0000
0000
,
1000
0000
1000
0000
,
0100
0000
0000
0000
,
0010
0000
0010
0000
,
0010
0000
0000
0000
,
0001
0000
1001
0000
,
0010
0000
0100
0000
,
0010
0000
0010
0000
,
0010
0000
0010
0000
,
0100
0000
0000
0000
,
1000
0000
0000
0000
,
0001
0000
0000
0000
,
0010
0000
0000
0000
,
0100
0000
0100
0000
,
0010
0000
0010
0000
,
0100
0000
0000
0000
,
1000
0000
0000
0000
,
0002
0000
0000
0003
,
0000
0000
0000
0000
,
0010
0000
0010
0000
,
0100
0000
0100
0000
,
1000
0000
0000
0000
,
0001
0000
0000
0000
,
0100
0000
0100
0000
,
0010
0000
0010
0000
,
1000
0000
0000
0000
,
0001
0000
0000
0000
,
0010
0000
0010
0000
,
0100
0000
0100
0000
,
1000
0000
0000
0000
,
0001
0000
0000
0000
,
0100
0000
0100
0000
,
0010
0000
0010
0000
,
1000
0000
0000
0000
,
0001
0000
0000
0000
;

//---------------dance-double - [Ness]----------------
#NOTES:
     dance-double:
     [Ness]:
     Challenge:
     9:
     0.551,0.581,0.275,0.043,0.352: // measure 1
00000000
00000000
00000000
00000000
,  // measure 2
00000000
00000000
00000000
00000000
,  // measure 3
00000000
00000000
00000000
00000000
,  // measure 4
00000000
00000000
00000000
00000000
,  // measure 5
00010000
00000000
00000000
00010000
00000000
00000000
00010000
00000000
00000000
00000000
00010000
00000000
00000000
00000000
00000010
00000000
,  // measure 6
00000100
00000000
00000000
00000100
00000000
00000000
00000100
00000000
00000000
00000000
00000100
00000000
00000000
00000000
00000100
00000001
,  // measure 7
00001000
00000000
00000000
00001000
00000000
00000000
00001000
00000000
00000000
00000000
00001000
00000000
00000000
00000000
00001000
00000100
,  // measure 8
00010000
00000000
00000000
00010000
00000000
00000000
00010000
00000000
00000000
00000000
00010000
00000000
00000000
00000000
00010000
00000000
,  // measure 9
00100000
00000000
00000000
00100000
00000000
00000000
00100000
00000000
00000000
00000000
00100000
00000000
00000000
00000000
01000000
00000000
,  // measure 10
00100000
00000000
00000000
00100000
00000000
00000000
00100000
00000000
10000000
00000000
00000000
10000000
00000000
00000000
10000000
00000000
,  // measure 11
00010000
00000000
00000000
00101000
00000000
00000000
00010010
00000000
00000000
00000000
00000000
00000000
00000010
00000000
00000100
00000000
,  // measure 12
00000101
00000000
00000000
00001100
00000000
00000000
00011000
00000000
00000000
00000000
00000000
00000000
01000000
00000000
00100000
00000000
,  // measure 13
10100000
00000000
00000000
00101000
00000000
00000000
00011000
00000000
00000100
00010000
00001000
00000000
01000000
00000000
00001000
00000000
,  // measure 14
00011000
00000000
00000000
00011000
00000000
00000000
00001010
00000000
00000100
00000000
00000100
00000000
00010000
00000000
00001000
00000000
,  // measure 15
01000000
00000000
00000000
01000000
00000000
00000000
01000000
00000000
01000000
00000000
00000000
01000000
00000000
00000000
01000000
00000000
,  // measure 16
01002000
00000000
00000000
01000000
00000000
00000000
01000000
00000000
01000000
00000000
00000000
01000000
00000000
00000000
01003000
00000000
,  // measure 17
00100000
00000000
00000000
10000000
01000000
00000000
00100000
00000000
00001000
00000000
00000000
00010000
00000100
00000000
00001000
00000000
,  // measure 18
00000010
00000000
00000000
00000100
00000001
00000000
00000010
00000000
00000100
00000000
00000000
00000000
00000110
00000000
00000100
00000000
,  // measure 19
00000010
00000000
00000000
00000001
00000100
00000000
00000010
00000000
00001000
00000000
00000000
00000100
00010000
00000000
00001000
00000000
,  // measure 20
01000000
00000000
00000000
00010000
10000000
00000000
00100000
00000000
01000000
00000000
00000000
00000000
10100000
00000000
00010000
00000000
,  // measure 21
10000000
00000000
00000000
00010000
00100000
00000000
00001000
00000000
00010000
00000000
00000000
00000010
00000100
00000000
00000001
00000000
,  // measure 22
00000010
00000000
00000000
00000100
00010000
00000000
00001000
00000000
01000000
00000000
00100000
10000000
00000000
00000000
01000000
00000000
,  // measure 23
00100000
00000000
00001000
00010000
00000000
00000000
00000100
00000000
00001000
00000000
00000010
00000100
00000000
00000000
00000001
00000000
,  // measure 24
00000010
00000000
00000100
00010000
00000000
00000000
00001000
00000000
02000000
00000000
00000000
00000000
03100000
00000000
00000000
00000000
,  // measure 25
01000000
00000000
00000000
01000000
00010000
00000000
01000000
00000000
00010000
00000000
00000000
01000000
00010000
00000000
00010000
00000000
,  // measure 26
00010000
00000000
00010000
01000000
00010000
00000000
00010000
00000000
00010000
00000000
00000000
01000000
00010000
00000000
01000000
00000000
,  // measure 27
00100000
00000000
10000000
01000000
00100000
00000000
00001000
00000000
00010000
00000000
00000100
00001000
00000010
00000000
00000100
00000000
,  // measure 28
00000001
00000000
00000010
00000100
00010000
00000000
00001000
00000000
01000000
00000000
00000000
00000000
01100000
00000000
00010000
00000000
,  // measure 29
10000000
00000000
00010000
00100000
00001000
00000000
00010000
00000000
00000010
00000000
00000100
00000001
00000010
00000000
00000100
00000000
,  // measure 30
00001000
00000000
00000100
00010000
00001000
00000000
01000000
00000000
00010000
00000000
00000000
00000000
00101000
00000000
00010000
00000000
,  // measure 31
00000100
00000000
00001000
00000100
00000010
00000000
00000001
00000000
00000100
00000000
00000001
00000010
00000100
00000000
00010000
00000000
,  // measure 32
00001000
00000000
00100000
00010000
01000000
00000000
00100000
00000000
10000000
00000000
00000000
00000000
01100000
00000000
00010000
00000000
,  // measure 33
00100000
00000000
00001000
00010000
00000100
00000001
00000000
00000000
,  // measure 34
00000100
00000010
00000100
00000010
00000001
00001000
00000000
00000000
,  // measure 35
00001000
00000000
00000010
00001000
00010000
00100000
10000000
00000000
,  // measure 36
10000000
00100000
00010000
00001000
00000100
00000001
00000000
00000000
,  // measure 37
00000210
00000000
00000000
00000301
00000100
00001000
00000100
00000000
,  // measure 38
00000010
00001000
00000100
00010000
00001000
01000000
00010000
10000000
,  // measure 39
00010000
00000000
00000000
00100000
00020000
00000000
10000000
00000000
00000000
00000000
10000000
00000000
00000000
00000000
10030000
00200000
,  // measure 40
01000000
00000000
00000000
01000000
00000000
00000000
01000000
00000000
00000000
00000000
01000000
00000000
00000000
00000000
01300000
00000000
,  // measure 41
00001000
00000000
00010000
00000100
00001000
00000010
00000100
00000000
,  // measure 42
00000001
00000010
00000100
00010000
00001000
01000000
00010000
00100000
,  // measure 43
01000000
00000000
00000000
10000000
01000000
00000000
00100000
00000000
00000000
00000000
00001000
00000000
00010000
00000000
00000100
00001000
,  // measure 44
00000010
00000000
00000000
00000010
00000100
00000000
00000001
00000000
00000000
00000000
00000010
00000000
00000100
00000000
00010000
00000000
,  // measure 45
00001000
00000000
00000000
00001000
00000000
00000000
00001000
00000000
00000000
00000000
00001000
00000000
00000000
00000000
00010000
00000000
,  // measure 46
00001000
00000000
00000000
00001000
00000000
00000000
00001000
00000000
00001000
00000000
00001000
00000000
00001000
00000000
00001000
00000000
,  // measure 47
00100000
00000000
00000000
00100000
00010000
00000000
00000000
00010000
01000000
00000000
00000000
01000000
10000000
00000000
00000000
10000000
,  // measure 48
01000000
00000000
00000000
01000000
00001000
00000000
00000000
00001000
00000100
00000000
00000000
00000100
00000001
00000000
00000000
00000001
,  // measure 49
00001000
00000000
00000000
00000001
00001000
00000000
00000010
00000000
00000100
00000000
00000001
00000000
00000010
00000000
00000100
00000000
,  // measure 50
00001100
00000000
00000000
00011000
00000000
00000000
01010000
00000000
00011000
00000000
00000000
00010000
00001000
00000000
00000100
00000000
,  // measure 51
00000010
00000000
00000000
00000010
00001000
00000000
00000000
00001000
00000100
00000000
00000000
00000100
00000001
00000000
00000000
00000001
,  // measure 52
00000100
00000000
00000000
00000100
00010000
00000000
00000000
00010000
00100000
00000000
00000000
00100000
10000000
00000000
00000000
10000000
,  // measure 53
00100000
00000000
00000000
01000000
00100000
00000000
10000000
00000000
00010000
00000000
01000000
00000000
00001000
00000000
00010000
00000000
,  // measure 54
00010100
00000000
00000000
00011000
00000000
00000000
01010000
00000000
00011000
00000000
00000000
00010000
00001000
00000000
00100000
00000000
,  // measure 55
01000000
00000000
10000000
01000000
00100000
00000000
00001000
00000000
00010000
00000000
00000010
00000000
00001010
00000000
00000000
00000000
,  // measure 56
00000010
00001000
00000100
00000010
00000001
00000100
00001000
00000100
,  // measure 57
00000001
00000000
00000000
00000010
00000100
00000000
00010000
00000000
00000000
00000000
00001000
00000000
01000000
00000000
00010000
01000000
,  // measure 58
00100000
00000000
00000000
10000000
01000000
00000000
00100000
00000000
00000000
00000000
00001000
00000000
00010000
00000000
00000100
00000000
,  // measure 59
00001000
00000000
00000010
00001000
00000001
00000000
00000010
00000000
00000100
00000000
00010000
00000000
00011000
00000000
00000000
00000000
,  // measure 60
00010000
00000000
00001000
01000000
00010000
00000000
01000000
00000000
10000000
00000000
01000000
00000000
00100000
00000000
10000000
00000000
,  // measure 61
01000000
00000000
00000000
00010000
01000000
00000000
00100000
00000000
00001000
00000000
00010000
00000000
00000010
00000000
00001000
00000000
,  // measure 62
00001010
00000000
00000000
00011000
00000000
00000000
00110000
00000000
00011000
00000000
00000000
00000000
00000000
00000000
00000000
00000000
;

//---------------dance-double - [Ness]----------------
#NOTES:
     dance-double:
     [Ness]:
     Hard:
     7:
     0.382,0.419,0.163,0.301,0.034:
00000000
00000000
00000000
00000000
,
00000000
00000000
00000000
00000000
,
00000000
00000000
00000000
00000000
,
00000000
00000000
00000000
00000000
,
00000200
00000000
00010300
00001000
,
01000000
00100000
10000000
01000000
,
20000000
00000000
30200000
00000000
,
02300000
00000000
03020000
00000000
,
00130000
00000000
00000000
00000000
,
00000010
00000000
00000000
00000000
,
00011000
00000000
00000000
00010000
00000000
00000000
00001000
00000000
00000000
00000000
00000000
00000000
01000000
00000000
01000000
00000000
,
00001000
00000000
00000000
00010000
00000000
00000000
00001000
00000000
00000000
00000000
00000000
00000000
00000100
00000000
00000100
00000000
,
00000001
00000000
00000000
00001000
00000000
00000000
00000001
00000000
00001000
00000010
00001000
00000000
00000001
00000000
00001000
00000000
,
00000100
00000000
00000000
00000100
00000000
00000000
00000100
00000000
00010000
00000000
00001000
00000000
00010000
00000000
00001000
00000000
,
02000000
00000000
03200000
00000000
,
20300000
00000000
32000000
00000000
,
03100000
00000000
10000000
00100000
00010000
00000000
00010000
01000000
,
10000000
00000000
10000000
01000000
00010000
00000000
00011000
00000000
,
00010000
00000000
00001000
00000100
00000001
00000000
00000001
00000010
,
00001000
00000000
00001000
00000010
00000001
00000000
00001001
00000000
,
00000001
00000000
00000010
00000001
00001000
00000000
00001000
00000100
,
00000001
00000000
00000001
00000100
00001000
00000000
00001000
00010000
,
01000000
00000000
01000000
10000000
01000000
00000000
10000000
01000000
,
00010000
00000000
01000000
00010000
02000000
00000000
03200000
00000000
,
10300000
00000000
01000000
00000000
00010000
00000000
01000000
00100000
,
01000000
00100000
01000000
00100000
00001000
00000000
00011000
00000000
,
00010000
00000000
00000100
00001000
00000010
00000000
00000100
00000001
,
00001000
00000000
00000000
00000010
00000000
00000000
00001000
00000000
00000200
00000000
00000000
00000000
00000310
00000000
00000000
00000000
,
00000001
00000000
00000100
00000010
00001000
00000000
00000100
00010000
,
00001000
00000000
00000000
01000000
00000000
00000000
00010000
00000000
02000000
00000000
00000000
00000000
03100000
00000000
00000000
00000000
,
10000000
00000000
01000000
00100000
00001000
00000000
00010000
00000010
,
00000100
00000000
00000000
00000001
00000000
00000000
00000100
00000000
00000020
00000000
00000000
00000000
00001030
00000000
00000100
00000000
,
00001000
00000000
00000000
00000100
00010000
00011000
00000000
00000000
,
00010000
00001000
01000000
00010000
10000000
00100000
00000000
00000000
,
20000000
00000000
31000000
00100000
00010000
00100000
01000000
00000000
,
00100000
00001000
00010000
00000100
00001000
00000010
00000000
00000000
,
00000200
00000000
00000301
00000010
,
00000100
00010000
00001000
01000000
,
00020000
00000000
00230000
00000000
,
20300000
00000000
30200000
00000000
,
00302000
00000000
00013000
00000100
,
00001000
00000010
00000100
00000001
,
00000020
00000001
00000000
00000031
,
00002000
00000010
00000000
00003010
,
00020000
00000000
00000000
00000000
,
00032000
00000000
00000000
00000000
,
02003000
00000000
00000000
03100000
10000000
01000000
00100000
00000000
,
00001000
00010000
00001000
00010000
00001000
00010000
00001000
00010000
,
00000100
00000000
00001000
00000000
00000010
00001000
00000001
00000000
,
00000011
00001100
00001100
00011000
,
00002000
00000000
00000000
01003000
00010000
10000000
00010000
00000000
,
00100000
01000000
00100000
01000000
00100000
01000000
00100000
01000000
,
10000000
00000000
00010000
00000000
01000000
00010000
00100000
00000000
,
00110000
00011000
00011000
00001010
,
00000010
00000000
00001000
00000100
00001000
00000100
00001000
00000000
,
00000010
00001010
00000100
00010100
,
00000200
00020300
00032000
02003000
,
03010000
10100000
10000000
00110000
,
00100000
00000000
00010000
10000000
00010000
10000000
00010000
00000000
,
01000000
01010000
00100000
00101000
,
00020000
00030200
00002300
00003020
,
00000130
00000000
00000000
00000000
;

//---------------dance-double - [Ness]----------------
#NOTES:
     dance-double:
     [Ness]:
     Medium:
     5:
     0.277,0.341,0.069,0.215,0.000:
00000000
00000000
00000000
00000000
,
00000000
00000000
00000000
00000000
,
00000000
00000000
00000000
00000000
,
00000000
00000000
00000000
00000000
,
00200000
00000000
00320000
00000000
,
02030000
00000000
03002000
00000000
,
00013000
00000000
00000000
00000000
,
00000010
00000000
00000000
00000000
,
00000200
00000000
00000000
00000300
,
00000200
00000000
00000000
00000300
,
00000010
00000000
00001000
00000000
00000000
00000000
00000100
00001000
,
00000100
00000000
00010000
00000000
00000000
00000000
00001000
00010000
,
00001000
00000000
01000000
00000000
00010000
01000000
00010000
00000000
,
10000000
00000000
00100000
00000000
10000000
01000000
00100000
00000000
,
00002000
00000000
00023000
00000000
,
00030020
00000000
00000230
10000000
,
00000301
00001000
00000100
00010000
,
00001000
00000000
00010000
00001000
00010000
00000000
00000000
00000000
,
00001000
01000000
00010000
10000000
,
01000000
00000000
00100000
01000000
00100000
00000000
00000000
00000000
,
00001000
00010000
00000100
00000010
,
00000100
00001000
00000010
00000100
,
00000001
00000000
00000010
00000001
00000010
00000000
00000000
00000000
,
00000100
00000000
00001000
00000100
00001000
00000000
00000000
00000000
,
00000200
00000000
00020300
00000000
,
00032000
00000000
02003000
00000000
,
03010000
00100000
01000000
10000000
,
00010000
00000000
01000000
00010000
01000000
00000000
00100000
00000000
,
10000000
00010000
00100000
00001000
,
00010000
00000000
00001000
00010000
00001000
00000000
00000100
00000000
,
00000010
00001000
00000100
00000010
,
00000100
00000000
00000010
00000100
00000010
00000000
00000001
00000000
,
00001000
00000000
00000000
00000100
00000010
00000100
00000000
00000000
,
00000010
00000000
00000100
00000000
00010000
00001000
00000000
00000000
,
01000000
01000000
00010000
00010000
,
10000000
00000000
00010000
00000000
10000000
00010000
00000000
00000000
,
00200000
00000000
02300000
00000000
,
13000000
00010000
10000000
00010000
,
00100000
00000000
00000000
00000000
,
00001000
00000000
00000000
00000000
,
00020000
00000100
00000000
00030100
,
00002000
00000010
00000000
00003010
,
00000200
00000001
00000000
00000301
,
00002000
00000001
00000000
00003001
,
00002002
00000000
00000000
00000003
,
00020000
00000000
00000000
00003000
,
10030000
00100000
01000000
00010000
,
00100000
00001000
00010000
00000010
,
00000100
00000000
00000001
00000000
00000010
00000001
00000010
00000000
,
00000001
00000100
00000101
00000100
,
00000010
00001000
00000100
00010000
,
00001000
01000000
00010000
10000000
,
01000000
00000000
00100000
00000000
01000000
00100000
01000000
00000000
,
00100000
00001000
00010000
00000100
,
00002000
00000000
00000010
00003001
,
00000001
00000010
00000100
00010000
,
00001000
00011000
00010000
00011000
,
00100000
00110000
00010000
00110000
,
00200000
00000000
01300000
10000000
,
00100000
01000000
00001000
00010000
,
00001000
00011000
00010000
00011000
,
00000100
00000000
00000000
00000000
;

//---------------dance-double - [Ness]----------------
#NOTES:
     dance-double:
     [Ness]:
     Easy:
     3:
     0.160,0.262,0.060,0.103,0.000:
00000000
00000000
00000000
00000000
,
00000000
00000000
00000000
00000000
,
00000000
00000000
00000000
00000000
,
00000000
00000000
00000000
00000000
,
01000000
00000000
00000000
00000000
,
00100000
00000000
00000000
00000000
,
10000000
00000000
00000000
00000000
,
00010000
00000000
00000000
00000000
,
00100000
00000000
00000000
00000000
,
00100000
00000000
00000000
00000000
,
00011000
00000000
00000000
00010000
,
00001000
00000000
00000000
00001000
,
00010000
00000000
00000100
00000000
,
00000010
00000000
00000001
00000100
,
00000001
00000000
00000010
00000000
,
00000100
00000000
00001000
00000000
,
00011000
00000000
00001000
00000000
,
01000000
01000000
00100000
00000000
,
10000000
00000000
00010000
00000000
,
00100000
00100000
01000000
00000000
,
00100000
00000000
00001000
00000000
,
00010000
00010000
00000010
00000000
,
00000100
00000000
00000001
00000000
,
00000100
00000000
00000001
00000000
,
00000020
00000000
00000000
00000030
,
00000200
00000000
00000000
00000300
,
00010000
00000000
00001000
00000000
,
01000000
00010000
01000000
00000000
,
00100000
00000000
10000000
00000000
,
01000000
10000000
01000000
00000000
,
00100000
00000000
00001000
00000000
,
00010000
00001000
00010000
00000000
,
00000010
00000000
00000110
00000000
,
00000100
00000100
00000100
00000000
,
00000001
00000000
00000010
00000000
,
00000100
00000000
00001000
00000000
,
00012000
00000000
00000000
00000000
,
00203000
00000000
00000000
00000000
,
01300000
00000000
00000000
00000000
,
10000000
00000000
00000000
00000000
,
00020000
00000000
00000000
00000000
,
02030000
00000000
00000000
00000000
,
03001000
00000000
00000000
00000000
,
00010000
00000000
00000000
00000000
,
00022000
00000000
00000000
00033000
,
00022000
00000000
00000000
00033000
,
00011000
00000000
00100000
00000000
,
00001000
00000000
00010000
00000000
,
00000010
00000010
00000100
00000100
,
00000010
00000000
00000100
00000000
,
00000001
00000000
00000010
00000000
,
00000100
00000000
00010000
00000000
,
00001000
00001000
01000000
01000000
,
00010000
00000000
01000000
00000000
,
00200000
00000000
10300000
00100000
,
10000000
00000000
01000000
00000000
,
00100000
00000000
00001000
00000000
,
00010000
00000000
00000100
00000000
,
00000020
00000000
00000031
00000010
,
00000001
00000000
00000100
00000000
,
00000010
00000000
00001000
00000000
,
00000100
00000000
00000000
00000000
;
