#TITLE:Ole Olew;
#SUBTITLE:(Junkyard Remix);
#ARTIST:Rotator;
#TITLETRANSLIT:;
#SUBTITLETRANSLIT:;
#ARTISTTRANSLIT:;
#GENRE:;
#CREDIT:;
#MENUCOLOR:;
#METERTYPE:DDR;
#BANNER:Ole Olew (Junkyard Remix)-bn.png;
#BACKGROUND:Ole Olew (Junkyard Remix)-bg.png;
#LYRICSPATH:;
#CDTITLE:ddrencorecdtitle.png;
#MUSIC:Ole Olew (Junkyard Remix).mp3;
#OFFSET:-0.007;
#SAMPLESTART:34.909;
#SAMPLELENGTH:10.849;
#SELECTABLE:YES;
#LISTSORT:;
#BPMS:0.000=220.000;
#STOPS:;
#BGCHANGES:;
#ATTACKS:;

//---------------dance-single - ----------------
#NOTES:
     dance-single:
     :
     Beginner:
     3:
     0.215,0.363,0.048,0.038,0.000:
0000
0000
0000
0000
,
0000
0000
0000
0000
,
0000
0000
0000
0000
,
0000
0000
0000
0000
,
0010
0000
0000
0000
,
1000
0000
0000
0000
,
0001
0000
0000
0000
,
0100
0000
0000
0000
,
0100
0000
0000
0000
,
0001
0000
0000
0000
,
1000
0000
0010
0000
,
0100
0000
0001
0000
,
1000
0000
0000
0000
,
0100
0000
0000
0000
,
1000
0000
0000
0000
,
0001
0000
0000
0000
,
0100
0000
0100
0000
,
0010
0010
0010
0000
,
1000
0000
1000
0000
,
0001
0001
0001
0000
,
0010
0000
0010
0000
,
0100
0100
0100
0000
,
1000
0000
0000
0000
,
0001
0000
0000
0000
,
0100
0000
0000
0000
,
0100
0000
0000
0000
,
0001
0000
0010
0000
,
0100
0000
1000
0000
,
0001
0001
0001
0000
,
1000
1000
1000
0000
,
1001
0000
0000
0000
,
0000
0000
0000
0000
,
1000
0000
0000
0000
,
0001
0000
0000
0000
,
1000
0000
0000
0000
,
0001
0000
0000
0000
,
0100
0000
0000
0000
,
0010
0000
0000
0000
,
0100
0000
0000
0000
,
0000
0000
0001
0000
,
0000
0000
1000
0000
,
0000
0000
0100
0000
,
2002
0000
0000
0000
,
0000
0000
3003
0000
,
1000
0000
0100
0000
,
1000
0000
0010
0000
,
0100
0000
0001
0000
,
0100
0000
0010
0000
,
1000
0000
0001
0000
,
1000
0000
0010
0000
,
0100
0000
0001
0000
,
1000
0000
0010
0000
,
1000
1000
1000
0000
,
0001
0001
0001
0000
,
0100
0100
0100
0000
,
0010
0010
0010
0000
,
1000
0000
0100
0000
,
0010
0000
0001
0000
,
0010
0000
0100
0000
,
1000
0000
0001
0000
,
0100
0000
1001
0000
,
0010
0000
1001
0000
,
1000
0000
1000
0000
,
0001
0000
1001
0000
,
0001
0000
0100
0000
,
0001
0000
0010
0000
,
0100
0000
1000
0000
,
0100
0000
0010
0000
,
0001
0000
1000
0000
,
0001
0000
0010
0000
,
0100
0000
0010
0000
,
0001
0000
0000
0000
,
1000
0000
0000
0000
,
0001
0000
0000
0000
,
0100
0000
0000
0000
,
0001
0000
0000
0000
,
1000
0000
0000
0000
,
0100
0000
0000
0000
,
1000
0000
0000
0000
,
0000
0000
0000
0000
,
0001
0000
0001
0000
,
1000
1000
1000
0000
,
0010
0000
0010
0000
,
0100
0100
0100
0000
,
0010
0000
0010
0000
,
1000
1000
1000
0000
,
0001
0000
0001
0000
,
0010
0010
0010
0000
,
0002
0000
0000
0000
,
0003
0000
0000
0000
,
1000
0000
0010
0000
,
0100
0000
0000
0000
,
0020
0000
0000
0000
,
0030
0000
0000
0000
,
0100
0000
0001
0000
,
1000
0000
0000
0000
;

//---------------dance-single - ----------------
#NOTES:
     dance-single:
     :
     Easy:
     5:
     0.342,0.592,0.115,0.229,0.000:
0000
0000
0000
0000
,
0000
0000
0000
0000
,
0000
0000
0000
0000
,
0000
0000
0000
0000
,
1000
0000
0100
0000
,
1000
0000
0000
0001
0000
0000
0010
0000
,
0001
0000
0000
0100
0000
0000
0001
0000
,
1000
0010
1000
0000
,
0001
0000
0100
0000
,
0001
0000
0000
0000
,
0001
0000
0100
0000
,
0001
0000
0001
0000
,
1000
0000
0010
0000
,
0100
0000
0100
0000
,
0001
0000
0000
0010
0000
0000
0100
0000
,
1000
0000
1001
0000
,
1000
0100
1000
0000
,
0001
0000
0100
0000
0002
0000
0000
0003
,
1000
0001
1000
0000
,
0010
0100
0010
0100
,
0001
0010
0001
0000
,
1000
0000
0010
0000
2000
0000
0000
3000
,
0001
0000
0000
1000
0000
0000
0100
0000
,
0010
0000
0000
0000
,
0001
0000
0000
0000
,
1000
0000
0000
0000
,
0001
0100
0001
0100
,
0010
1000
0100
0000
,
1000
0010
1000
0010
,
0100
0001
0010
0100
,
1001
0000
0000
0000
,
0000
0000
0000
0000
,
0001
0000
0100
0000
,
0001
0010
0100
0000
,
1000
0000
0010
0000
,
1000
0100
0001
0000
,
0100
0000
0010
0000
,
0001
1000
0001
0000
,
1001
0000
0000
0000
,
0000
0000
1000
0000
,
0000
0000
0001
0000
,
0000
0000
0100
0000
,
2002
0000
0000
0000
,
0000
0000
3003
0000
,
0001
0000
0010
0000
,
0100
0000
0100
0000
,
1000
0000
0010
0000
,
0100
0000
1001
0000
,
0001
0010
0001
0100
,
0010
1000
0100
0100
,
1000
0010
1000
0100
,
0010
0001
0100
0000
,
0001
0001
0001
0000
,
1000
1000
1000
0000
,
0001
0001
0001
0000
,
1000
1000
1000
0000
,
0010
0100
0001
0000
,
0010
0100
1000
0000
,
0001
0100
0010
0000
,
1000
0100
0010
0000
,
0022
0000
0000
0033
1001
0000
0000
0000
,
2020
0000
0000
3030
1001
0000
0000
0000
,
0001
0001
1000
1000
,
0100
0000
1001
0000
,
2000
0000
3100
0000
,
0002
0000
0103
0000
,
2000
0000
3010
0000
,
0002
0000
0013
0000
,
2000
0000
3100
0000
,
0020
0000
0031
0000
,
0001
0000
1000
0000
,
0010
0000
0100
0000
,
0001
0000
0000
0000
,
1000
0100
0010
0000
,
0100
0000
0000
0000
,
0010
0000
0100
1001
,
1000
0000
0000
0000
,
0001
0100
0010
0000
,
0100
0000
0000
0000
,
0010
0000
0100
0000
,
0001
0010
0001
0000
,
1000
0000
0010
0000
2000
0000
0000
3000
,
0001
1000
0001
0000
,
0010
0100
0010
0100
,
1000
0010
1000
0000
,
0001
0000
0010
0000
0002
0000
0000
0003
,
1000
0000
0000
0010
0000
0000
0100
0000
,
0001
0000
0000
0000
,
2000
0000
3100
0200
,
0000
0300
0010
0000
,
0002
0000
0103
0200
,
0000
0300
1001
0000
,
2000
0000
3001
0020
,
0000
0030
0100
0000
,
2000
0000
3001
1000
,
0020
0000
0030
0000
;

//---------------dance-single - ----------------
#NOTES:
     dance-single:
     :
     Medium:
     7:
     0.521,0.640,0.219,0.248,0.005:
0000
0000
0000
0000
,
0000
0000
0000
0000
,
0000
0000
0000
0000
,
0000
0000
0000
0000
,
0100
0001
0000
0000
1000
0000
0001
0000
,
0100
0000
0000
0100
0000
0000
0000
0000
,
1010
0000
0000
1001
0000
0000
0001
0000
,
0100
0100
0001
0010
,
0100
1000
0000
0000
0010
0000
1000
0000
,
0100
0000
1000
0000
0000
0001
0000
0000
,
0010
0001
0010
0000
0001
1000
0001
0000
,
1000
0000
1000
0000
,
0010
1000
0000
0000
0001
0000
1000
0000
,
0100
0000
0010
0000
,
0101
0000
0000
1001
0000
0000
0000
0000
,
0010
0001
0100
0000
,
0001
0000
0010
0000
0001
0000
0100
0010
,
1000
0000
0100
0000
0200
0000
0000
0300
,
1000
0000
0010
0000
1000
0000
0100
0010
,
0001
0000
0100
0000
0010
1000
0001
0000
,
1000
0000
0100
0000
1000
0000
0010
0100
,
0001
0000
0010
0000
0020
0000
0000
0030
,
0110
0000
0000
1001
0000
0000
0010
0000
,
0001
0000
0100
0000
0010
0000
1000
0100
,
1000
0000
0100
0000
,
1000
0000
0010
0000
0000
0010
0000
0000
,
1001
0010
0101
0110
,
1000
0000
0100
0000
0020
0000
0000
0030
,
0001
0100
0010
1000
,
0100
0010
0001
1000
,
1001
0000
0000
0000
0000
0000
0000
0000
0000
0010
0000
0000
0000
0000
0000
0000
,
0000
0000
0000
0000
,
1000
0100
1000
0010
,
0100
0001
1000
0010
,
0100
0010
0000
0100
0001
0000
0000
0000
,
1000
0100
0010
0001
2000
0000
0000
3000
,
0010
1000
0100
0010
,
0001
1000
0010
0100
,
0001
0000
0000
1000
,
0000
0000
0010
0000
,
0100
0001
1000
0000
0100
0000
0010
0000
,
1001
0000
1001
0000
0100
0010
0000
0000
,
2002
0000
0000
0000
,
0000
0000
3003
0000
,
1000
0100
1000
0000
0001
0100
0001
0000
,
1000
0010
1000
0000
0001
1000
0001
0000
,
1000
0001
1000
0000
0001
0010
0001
0000
,
1000
0100
1000
0000
0001
1000
0001
0000
,
1000
0100
0010
0000
0100
0010
0001
0000
,
0010
0001
1000
0000
0001
1000
0010
0000
,
1000
0010
0100
0000
0010
0100
0001
0000
,
0100
0001
1000
0000
2002
0000
0000
3003
,
0001
0100
0001
0010
,
1000
0100
1000
0010
,
0001
1000
0001
0100
,
1000
0001
1000
0100
,
0001
0010
0100
1000
0001
0000
0001
0000
,
1000
0010
0100
0001
1000
0000
1000
0000
,
0020
0100
0230
0001
,
0302
1000
2003
0000
,
3001
0000
1100
0000
,
1000
0000
0101
0000
,
1000
0100
1000
0100
,
0010
0000
1001
0000
,
0001
0000
0100
0000
0010
0000
1000
0100
,
0010
0000
0001
0000
1000
0000
0010
1000
,
0001
0000
0010
0000
0001
0000
1000
0010
,
1000
0010
0100
0001
,
0100
0000
0001
0000
1000
0000
0100
1000
,
0001
0100
0001
1000
,
0010
0000
0000
0100
0000
0000
0001
0000
,
1000
0000
0010
0000
2002
0000
0000
3003
,
0001
0000
0000
0100
0000
0001
0000
0000
,
1000
0000
0010
0010
,
1000
0000
0000
0100
0000
1000
0000
0000
,
0010
0000
0000
1000
0001
0000
1000
0001
,
1000
0000
0000
0100
0000
0010
0000
0000
,
0001
0000
1000
1000
,
0001
0000
0100
0000
,
2002
0000
3003
0000
,
1000
0000
0100
0000
1000
0000
0010
0100
,
0001
0000
0010
0000
0020
0000
0000
0030
,
0001
0000
0100
0000
0001
0000
0010
0100
,
1000
0000
0010
0000
0100
0001
1000
0000
,
0001
0000
0010
0000
0001
0000
0100
0010
,
1000
0000
0100
0000
0200
0000
0000
0300
,
0110
0000
0000
1001
0000
0000
0100
0000
,
1000
0000
0001
0000
,
2000
0000
3010
0200
,
0000
0300
1001
0000
,
0002
0000
0103
0200
,
0010
0300
1001
0000
,
2000
0000
3001
0020
,
0100
0030
0010
0000
,
0002
0000
1003
0010
,
0200
0000
0000
0000
0301
0000
1000
0001
;

//---------------dance-single - ----------------
#NOTES:
     dance-single:
     :
     Hard:
     10:
     0.919,1.000,0.973,0.210,0.239: // measure 1
0000
0000
0000
0000
,  // measure 2
0000
0000
0000
0000
,  // measure 3
0000
0000
0000
0000
,  // measure 4
0000
0000
0000
0000
,  // measure 5
0100
1000
0000
0001
0100
0000
0010
1000
,  // measure 6
0110
0000
0000
0101
0000
0000
0010
0000
,  // measure 7
1100
1100
0000
0101
0101
0000
0010
0000
,  // measure 8
0100
1000
0010
0001
1000
0100
0001
1000
,  // measure 9
0001
0010
0000
0100
0010
0000
0010
0001
,  // measure 10
1000
0000
0110
1000
0000
0101
0000
0010
,  // measure 11
1010
0100
0001
0000
0010
0100
1000
0010
,  // measure 12
0100
0001
0010
0000
0001
0100
0010
0000
,  // measure 13
0010
1000
0000
0001
0000
0100
0010
1000
,  // measure 14
0100
0000
1000
0010
0000
0100
0000
0001
,  // measure 15
0011
0000
0000
1100
0000
0000
0010
0000
,  // measure 16
1000
0000
0000
0010
0000
0000
0000
0000
0000
0100
0000
0000
0001
0000
0000
0000
0010
0000
0000
0000
0100
0000
0000
0000
,  // measure 17
1001
0000
0110
0000
1010
0000
0100
0100
,  // measure 18
0011
0000
0110
0000
1100
0010
0100
0000
,  // measure 19
1010
0000
0110
0000
1001
0000
0010
0010
,  // measure 20
1100
0000
0110
0000
0001
0010
1000
0000
,  // measure 21
1001
0000
0110
0000
0101
0000
0010
0010
,  // measure 22
1100
0000
0101
0000
1001
0100
1000
0000
,  // measure 23
0011
0011
0000
1010
1010
0000
0100
0000
,  // measure 24
0010
0001
0100
1000
0001
0010
1000
0001
,  // measure 25
1000
0100
0000
1000
0000
0010
1000
0001
,  // measure 26
0100
0000
0110
1000
0000
0011
0000
0100
,  // measure 27
1100
0010
0001
0000
0110
0000
1001
0000
,  // measure 28
0010
0001
1000
0010
2002
0000
0000
3003
,  // measure 29
0010
1000
0100
0001
0100
1000
0010
0010
,  // measure 30
0100
0001
0010
1000
0010
0001
0100
0100
,  // measure 31
0010
0000
0000
1000
0000
0000
0110
0000
0000
0001
0000
0100
,  // measure 32
0000
0010
0000
1000
0000
0001
0000
0010
0000
0000
0000
0000
,  // measure 33
0010
0001
0100
0010
1000
0010
0100
0100
,  // measure 34
0010
1000
0100
0010
0001
0100
0010
0010
,  // measure 35
1000
0001
0000
1000
0010
0000
0100
0001
,  // measure 36
1000
0010
0000
0000
0100
0001
0000
0000
0202
0000
0000
0000
0000
0000
0303
0000
,  // measure 37
1000
0001
0100
0001
1000
0010
0100
0100
,  // measure 38
0001
1000
0010
1000
0001
0100
0010
0010
,  // measure 39
1000
0001
0100
1000
0000
0000
0100
0010
,  // measure 40
0000
1000
0000
0001
1100
0000
0010
0010
,  // measure 41
0001
0100
0010
0000
0110
0000
1100
1001
,  // measure 42
0101
0000
1010
0000
1000
0001
0000
0000
,  // measure 43
2002
0000
0000
0000
,  // measure 44
0000
0000
0000
3003
,  // measure 45
0100
0100
1001
0000
0100
0100
1001
0000
,  // measure 46
0010
0010
1001
0000
0010
0010
1001
0000
,  // measure 47
1000
0010
0101
0000
0001
0010
1100
0000
,  // measure 48
1000
0001
0110
0000
1001
1001
0100
0100
,  // measure 49
0001
0010
1001
1000
0010
0100
0101
0000
,  // measure 50
1000
0010
1001
0001
0010
0100
1100
0000
,  // measure 51
1000
0100
1001
0001
0100
0010
1010
0000
,  // measure 52
0001
0100
1001
0010
2002
0000
0000
3003
,  // measure 53
1000
0100
1000
0100
0000
0010
0001
0100
0001
0100
0000
0010
,  // measure 54
1000
0001
1000
0001
0000
0100
0001
0000
0010
0001
0000
1000
,  // measure 55
0010
0100
0010
0100
0000
0001
1000
0100
1000
0100
0000
1000
,  // measure 56
0001
0010
0100
1000
0000
0001
0100
0000
0000
1001
0000
0000
,  // measure 57
0001
0010
1000
0001
0100
1000
0100
0001
,  // measure 58
1000
0010
0001
1000
0100
0001
0100
1000
,  // measure 59
0001
0100
1000
0001
0010
1000
0010
0001
,  // measure 60
1000
0100
0001
1000
0010
0001
0010
1000
,  // measure 61
2020
0000
0000
3030
1001
0000
0000
0000
,  // measure 62
0202
0000
0000
0303
1001
0000
0000
0000
,  // measure 63
0001
0010
0001
0010
0001
0000
0000
0000
1000
0010
1000
0010
1000
0000
0000
0000
,  // measure 64
0001
0100
0010
1000
0001
0000
0000
0000
0011
0000
0000
0000
0100
0000
0100
0000
,  // measure 65
1000
0000
0010
1000
0010
0000
0100
0000
0001
0000
0010
0001
0010
0000
0100
0000
,  // measure 66
0010
0000
0001
0100
0001
0000
0010
0000
0100
0000
1000
0010
1000
0000
0001
0000
,  // measure 67
1000
0000
0010
1000
0010
0000
1000
0000
0001
0000
0010
0001
0010
0000
0100
0000
,  // measure 68
0010
0000
0001
0100
0001
0000
0010
0000
0100
0000
1000
0000
0010
0000
0100
0000
,  // measure 69
0001
0100
0001
0100
0001
0000
0100
0000
0010
0000
0100
0001
0100
0000
0001
0000
,  // measure 70
1000
0100
1000
0100
1000
0000
0100
0000
0010
0000
0100
1000
0100
0000
1000
0000
,  // measure 71
0001
0000
1000
0010
0000
0100
0001
0001
,  // measure 72
1000
1000
0010
0100
2002
0000
0000
3003
,  // measure 73
1100
0000
0000
0000
0010
0000
0100
0000
0000
0000
0001
0100
0001
0000
1000
0000
,  // measure 74
0100
0000
0010
0100
0000
0011
0000
1000
,  // measure 75
0101
0000
0000
0000
0010
0000
0100
0000
0000
0000
1000
0100
1000
0000
0001
0000
,  // measure 76
0100
0000
0000
0010
1001
0000
1000
0100
,  // measure 77
0011
0000
0000
0000
0100
0000
0010
0000
0000
0000
1000
0001
0100
0000
0001
0000
,  // measure 78
0010
0000
0100
0010
0000
1100
0000
0001
,  // measure 79
1000
0010
0100
0000
0001
0010
0100
1000
,  // measure 80
0001
0000
0000
0000
0010
0010
1001
0000
,  // measure 81
0101
0000
0110
0000
1010
0000
0100
0100
,  // measure 82
0011
0000
1010
0000
1001
0100
0010
0000
,  // measure 83
1100
0000
0110
0000
0011
0000
0100
0100
,  // measure 84
1010
0000
1001
0000
0001
0010
1000
0000
,  // measure 85
0011
0000
1001
0000
1100
0000
0100
0100
,  // measure 86
1010
0000
1100
0000
0110
0001
0010
0000
,  // measure 87
1100
1100
0000
0101
0101
0000
0001
0000
,  // measure 88
0010
0001
0100
1000
0001
0010
1000
0001
,  // measure 89
2000
0000
3001
0020
,  // measure 90
0000
0030
1001
0000
,  // measure 91
0002
0000
1003
0020
,  // measure 92
0100
0000
1030
0000
0011
0000
0100
0001
,  // measure 93
0200
0000
0301
2000
,  // measure 94
0000
3000
0110
1000
,  // measure 95
0020
0000
0100
0000
1030
0001
0010
0001
,  // measure 96
2000
0000
0000
0000
3010
0000
1000
0001
;

//---------------dance-double - ----------------
#NOTES:
     dance-double:
     :
     Hard:
     10:
     0.802,1.000,0.563,0.153,0.129:
00000000
00000000
00000000
00000000
,
00000000
00000000
00000000
00000000
,
00000000
00000000
00000000
00000000
,
00000000
00000000
00000000
00000000
,
00000010
00000100
00000000
00000010
00001000
00000000
00000100
00000000
,
00011000
00000000
00000000
00010100
00000000
00000000
00001000
00000000
,
01000000
00010000
00000000
00100000
01000000
00000000
00100000
00000000
,
00010000
10000000
01000000
00100000
00001000
00010000
00000100
00010000
,
00001000
01000000
00000000
00001000
00100000
00000000
00010000
10000000
,
01000000
00000000
00110000
00000000
00000000
00101000
00000000
00000000
,
00010000
00000100
00001000
00000000
00000010
00000100
00000001
00001000
,
00000010
00000000
00010000
00000000
00000010
00001000
00000100
00000000
,
00010000
00001000
00000000
01000000
00000000
00010000
00100000
01000000
,
10000000
00000000
00010000
01000000
00000000
00000000
00000000
00100000
,
10100000
00000000
00000000
01010000
00000000
00000000
00100000
00000000
,
00010000
00100000
00000000
01000000
10000000
00010000
00000000
00000000
,
01000000
00000000
00011000
00000000
01000000
00000000
00001000
00010000
,
00000100
00000000
00011000
00000000
00000100
00000010
00000001
00001000
,
00000010
00000000
00011000
00000000
00000010
00000000
00010000
00001000
,
01000000
00100000
10000000
00010000
00100000
00001000
01000000
00010000
,
00100000
00000000
00011000
00000000
00100000
00000000
00001000
00010000
,
00000100
00000000
00011000
00000000
00000100
00001000
00000010
00000000
,
00000101
00000000
00000000
00001010
00000000
00000000
00000100
00000000
,
00000001
00001000
00000010
00010000
00001000
01000000
00010000
00010000
,
10000000
01000000
00000000
10000000
00000000
00010000
00100000
00001000
,
00010000
00000000
00001100
00000000
00000000
00001001
00000000
00000000
,
00000101
00000000
00000010
00001000
00000001
00000000
00000100
00000000
,
00000001
00000010
00000100
00010000
00001000
00100000
01000000
00000000
,
00100000
00010000
10000000
00100000
01000000
00001000
00010000
00000010
,
00001000
00000100
00000010
00000001
00001000
00000010
00010000
00000100
,
00001000
00000000
00000000
00000010
00000000
00000000
00001001
00000000
00000000
00000001
00000000
00000100
,
00000000
00000010
00000000
00010000
00000000
00001000
00000000
01000000
00000000
00000000
00000000
00000000
,
00010000
00100000
01000000
10000000
00010000
00100000
01000000
10000000
,
00010000
00100000
00001000
00010000
00000010
00001000
00000100
00010000
,
00000100
00000010
00000000
00000010
00000001
00000000
00001000
00000010
,
00010000
00001000
00010000
00000000
00001000
00010000
00001000
00000000
02000000
00000000
00000000
00000000
00000000
00000000
03000000
00000000
,
00010000
01000000
00001000
00010000
00000010
00000100
00000001
00000010
,
00000100
00010000
00001000
01000000
00010000
00100000
01000000
10000000
,
10010000
00000000
00000000
00000000
00000000
00000000
10000000
01000000
,
00000000
00100000
00000000
00001000
00010000
00000000
00000010
00000100
,
00000001
00001000
00000100
00000000
00011000
00000000
00000010
00001000
,
00000100
00000000
00010000
00000000
00001000
00100000
00000000
00000000
,
20020000
00000000
00000000
00000000
,
00000000
00000000
00000000
30030000
,
00100000
00100000
10010000
00000000
00100000
00100000
10010000
00000000
,
01000000
01000000
10010000
00000000
01000000
01000000
10010000
00000000
,
10000000
01000000
00110000
00000000
00100000
00001000
00011000
00000000
,
00010000
00000100
00001100
00000000
00001000
00000001
00000100
00000100
,
00000001
00001000
00000010
00010000
00000100
00000010
00000001
00001000
,
00000100
00010000
00001000
01000000
00001000
00100000
00010000
01000000
,
00100000
10000000
00010000
00100000
00001000
01000000
00010000
00100000
,
00001000
00010000
00000100
00000010
00000002
00000000
00000000
00000003
,
00001100
00000000
00000000
00000000
00001001
00000000
00000000
00000000
00000101
00000000
00000000
00000010
00001000
00000000
00000000
00000000
,
00001100
00000000
00000000
00000000
00010100
00000000
00000000
00000000
00011000
00000000
00000000
00001000
01000000
00000000
00000000
00000000
,
01100000
00000000
00000000
00000000
10100000
00000000
00000000
00000000
10010000
00000000
00000000
01000000
00001000
00000000
00000000
00000000
,
00110000
00000000
00000000
00000000
00011000
00000000
00000000
00000000
00001010
00000000
00000000
00000100
00000001
00000000
00000000
00000000
,
00000010
00000001
00001000
00000010
00010000
00001000
00100000
00000000
,
01000000
10000000
00010000
00100000
00001000
01000000
00010000
00000000
,
00100000
01000000
00100000
01000000
00100000
01000000
00100000
01000000
00100000
01000000
00100000
01000000
00100000
00000000
00000000
00000000
,
00001000
00010000
00001000
00010000
00001000
00010000
00001000
00010000
00001000
00010000
00001000
00010000
00001000
00000000
00000000
00000000
,
00000020
00000000
00000000
00000030
00001001
00000000
00000000
00000000
,
00000200
00000000
00000000
00000300
00001001
00000000
00000000
00000000
,
00000010
00000001
00000010
00000001
00000010
00000000
00000000
00000000
00000100
00001000
00000100
00001000
00000100
00000000
00000000
00000000
,
00000010
00000001
00000100
00000000
00001001
00000000
00000000
00000000
,
00000001
00000100
00001000
00010000
00100000
01000000
00100000
10000000
,
00010000
00100000
00001000
00100000
01000000
00010000
01000000
01000000
,
10000000
00100000
00010000
00001000
00000100
00000010
00000100
00000001
,
00001000
00000100
00010000
00000100
00000010
00001000
00000010
00000010
,
00000001
00000100
00000001
00001000
00000010
00010000
00001000
01000000
,
00010000
10000000
00010000
00100000
00001000
01000000
00010000
10000000
,
11000000
00000000
00100000
00010000
00000000
01001000
00000000
00010000
,
00000100
00001000
00000010
00000100
00002002
00000000
00000000
00003003
,
00000101
00000000
00000000
00000000
00001000
00000000
00000010
00000000
00000000
00000000
00000100
00000001
00000100
00000000
00000010
00000000
,
00010000
00000000
00010000
00100000
00000000
00100000
00000000
00000000
,
01010000
00000000
10000000
00100000
00000000
01000000
00001000
00010000
,
00011000
00000000
00000100
00000000
,
00001100
00000000
00000001
00000010
00000000
00001100
00000000
00000001
,
00000100
00000010
00010000
00001000
,
00110000
01000000
10000000
00000000
00000000
00010000
01000000
00010000
,
10000000
00000000
00000000
00000000
01000000
00100000
00001000
00000000
,
01000000
00000000
00011000
00000000
00000100
00000000
00010000
00001000
,
00100000
00000000
00011000
00000000
00000010
00000100
00000001
00001000
,
00000100
00000000
00011000
00000000
01000000
00000000
00001000
00100000
,
01000000
10000000
00010000
00100000
00001000
00010000
00000100
00001000
,
00000010
00000000
00011000
00000000
00100000
00000000
00001000
00010000
,
00000010
00000100
00001001
00000000
,
00001100
00000000
00000000
00010100
00000000
00000000
00010000
00000000
,
00001000
01000000
00100000
10000000
00010000
00100000
00001000
01000000
,
00200000
00000000
10300000
00020000
,
00000000
01030000
00001000
00000000
,
00020000
00000000
00030100
00002000
,
00000001
00000000
00003100
00000000
00000101
00000000
00000001
00001000
,
00000200
00000000
00000310
00000002
,
00000000
00000003
00001000
00000100
,
00020000
00000000
00001000
00000000
00031000
01000000
00100000
00000000
,
20000000
00000000
00000000
00000000
31000000
00000000
00100000
01000000
;

//---------------dance-double - ----------------
#NOTES:
     dance-double:
     :
     Medium:
     6:
     0.474,0.686,0.172,0.305,0.000:
00000000
00000000
00000000
00000000
,
00000000
00000000
00000000
00000000
,
00000000
00000000
00000000
00000000
,
00000000
00000000
00000000
00000000
,
00010000
00000000
00001000
00000000
,
01000000
00000000
00000000
01000000
00000000
00000000
00100000
00000000
,
10010000
00000000
00000000
01100000
00000000
00000000
00010000
00000000
,
01000000
00000000
01000000
00000000
00001000
00000000
00001000
00010000
,
00000100
00000000
00000010
00000000
,
00000001
00000000
00000100
00000000
00000000
00000010
00000000
00000000
,
00001000
00000000
00001000
00000100
,
00000020
00000000
00000230
00000000
,
00001300
00000010
00000000
00000000
00000010
00000000
00000000
00000000
,
00010000
00000000
00000000
00001000
00000000
00000000
00000000
00000000
,
00010100
00000000
00000000
00011000
00000000
00000000
00000010
00000000
,
00001000
00000000
00000100
00000000
,
00000010
00000001
00000100
00000000
,
00000010
00001000
00000200
00001000
,
00010300
00001000
01000000
00000000
,
00100000
00000000
10000000
00000000
00010000
10000000
00010000
00000000
,
10000000
01000000
00100000
00000000
,
00010000
00000000
01000000
00000000
00002000
00000000
00010000
00003000
,
00011000
00000000
00000000
00011000
00000000
00000000
00010000
00000000
,
00000100
00001000
00000010
00000000
00000100
00000001
00001000
00000000
,
00001000
00000001
00000000
00000000
00000100
00000000
00000000
00000000
,
00000010
00000000
00010000
00000000
00000000
00001000
00000000
00000000
,
00100000
00010000
01000000
00100000
,
10000000
00010000
00100000
00000000
,
01000000
10000000
01000000
10000000
01000000
10000000
01000000
00000000
,
00100000
00010000
00100000
00010000
00100000
00010000
00100000
00000000
,
00001000
00000000
00000000
00000000
,
00000000
00000000
00000000
00000000
,
00001000
00010000
00001000
00010000
,
00000010
00000100
00000010
00000100
,
00000001
00001000
00000000
00001000
00000001
00000000
00000000
00000000
,
00001100
00000000
00010100
00000000
00021000
00000000
00000000
00030000
,
00010000
00001000
00010000
00001000
,
01000000
00100000
01000000
00100000
,
10000000
00000000
00000000
00000000
,
00100000
01000000
00001000
00000000
,
00010000
00000100
00001000
00000000
,
00000010
00000100
00000001
00001000
,
00002002
00000000
00000000
00000000
,
00000000
00000000
00003003
00000000
,
00001000
00000000
00000100
00000000
00001000
00000001
00001000
00000000
,
00000001
00000000
00000100
00000000
00000001
00001000
00000001
00000000
,
00001000
00000000
00000100
00000000
00010000
00001000
00010000
00000000
,
00001000
01000000
00011000
00000000
,
00100000
00000000
00010000
00000000
10000000
01000000
00100000
00000000
,
00010000
00000000
01000000
00000000
00100000
10000000
00010000
00000000
,
00100000
00000000
00001000
00000000
00010000
00000100
00001000
00000000
,
00000010
00000000
00000100
00000000
00000001
00001000
00000100
00000000
,
00000010
00000001
00000010
00000000
,
00000100
00001000
00000100
00000000
,
00010000
00001000
00010000
00000000
,
00001000
01000000
00001000
00000000
,
01000000
00010000
01000000
02000000
,
03010000
00100000
00010000
00020000
,
00130000
00001000
00100000
00200000
,
00301000
00010000
00000100
00000200
,
00020300
00000000
00000000
00030000
00001100
00000000
00000000
00000000
,
00002000
00000000
00000000
00003000
01010000
00000000
00000000
00000000
,
00010000
10000000
01000000
00000000
00100000
00010000
10000000
00000000
,
00100000
00000000
10010000
00000000
,
20000000
00000000
31000000
01000000
,
00200000
00000000
00310000
00010000
,
02000000
00000000
03001000
00001000
,
00020000
00000000
00030100
00001000
,
00002000
00000000
00003010
00000100
,
00000200
00000000
00000301
00001000
,
00001000
00000000
00000100
00000010
00000000
00000010
00000001
00000000
,
00001000
00000010
00010000
00000000
00022000
00000000
00000000
00033000
,
00001000
00000000
00100000
00000000
,
00010000
00000000
01000000
00000000
,
00100000
00000000
10000000
00000000
,
00010000
00000000
00000000
00000000
,
01000000
00000000
00010000
00000000
,
00100000
00000000
00001000
00000000
,
00020000
00000000
00030100
00000000
,
00010000
00000000
00000000
00000000
,
00000100
00000010
00000001
00000000
,
00001000
00000010
00020000
00000100
,
00031000
01000000
00010000
00000000
,
00100000
00000000
00001000
00000000
00010000
00001000
00010000
00000000
,
00000100
00000010
00000001
00000000
,
00001000
00000000
00000001
00000000
00000200
00000000
00000010
00000300
,
00000110
00000000
00000000
00001001
00000000
00000000
00000100
00000000
,
00000001
00000100
00000001
00001000
00000100
00000000
00010000
00000000
,
00002000
00000000
01003000
00020000
,
00000000
00030000
00100000
00000000
,
02000000
00000000
13000000
00020000
,
01000000
00030000
10010000
00000000
,
02000000
00000000
03001000
00020000
,
00000000
00030000
00000100
00000000
,
00000020
00000001
00000031
00002000
,
00000100
00000000
00003000
00000000
00000100
00000000
00010000
00001000
;

//---------------dance-double - ----------------
#NOTES:
     dance-double:
     :
     Easy:
     5:
     0.346,0.455,0.124,0.248,0.000:
00000000
00000000
00000000
00000000
,
00000000
00000000
00000000
00000000
,
00000000
00000000
00000000
00000000
,
00000000
00000000
00000000
00000000
,
01000000
00000000
00010000
00000000
,
01000000
00000000
00000000
00001000
00000000
00000000
00010000
00000000
,
00001000
00000000
00000000
00100000
00000000
00000000
00001000
00000000
,
01000000
00010000
01000000
00000000
,
00100000
00000000
10000000
00000000
,
01000000
00000000
00000000
00000000
,
00100000
00000000
00001000
00000000
,
00010000
00000000
00010000
00000000
,
00000010
00000000
00000100
00000000
,
00000001
00000000
00000001
00000000
,
00000010
00000000
00000000
00000100
00000000
00000000
00001000
00000000
,
00000010
00000000
00000010
00000000
,
00001000
00000100
00001000
00000000
,
00000001
00000000
00000100
00000000
00000202
00000000
00000000
00000303
,
00001000
00000001
00001000
00000000
,
00000010
00010000
00001000
00100000
,
00010000
01000000
00010000
00000000
,
10000000
00000000
01000000
00000000
22000000
00000000
00000000
33000000
,
00100000
00000000
00000000
01000000
00000000
00000000
00001000
00000000
,
00010000
00000000
00000000
00000000
,
00000100
00000000
00000000
00000000
,
00010000
00000000
00000000
00000000
,
00000010
00001000
00000010
00000100
,
00000001
00001000
00000100
00000000
,
00010000
00000100
00000010
00000100
,
00001000
00000010
00010000
00001000
,
01001000
00000000
00000000
00000000
,
00000000
00000000
00000000
00000000
,
00010000
00000000
01000000
00000000
,
00010000
00100000
01000000
00000000
,
10000000
00000000
00100000
00000000
,
10000000
01000000
00100000
00000000
,
00010000
00000000
01000000
00000000
,
00001000
00010000
00001000
00000000
,
00010100
00000000
00000000
00000000
,
00000000
00000000
00000010
00000000
,
00000000
00000000
00000100
00000000
,
00000000
00000000
00010000
00000000
,
00022000
00000000
00000000
00000000
,
00000000
00000000
00033000
00000000
,
00000010
00000000
00000100
00000000
,
00000001
00000000
00001000
00000010
,
00000100
00000000
00000001
00000000
,
00001000
00000000
00001001
00000000
,
00000001
00000010
00000001
00000000
,
00000100
00000010
00001000
00000000
,
00000100
00010000
00001000
00000000
,
01000000
00010000
00100000
00000000
,
01000000
01000000
01000000
00000000
,
10000000
10000000
10000000
00000000
,
00100000
00100000
00100000
00000000
,
01000000
01000000
01000000
00000000
,
00010000
00100000
00001000
00010000
,
00000010
00000100
00000001
00001000
,
00000100
00010000
00001000
01000000
,
00200000
00000000
02300000
00000000
,
03010000
00000000
11000000
00000000
,
10000000
00000000
01010000
00000000
,
00100000
00001000
00010000
00000010
,
00011000
00000000
00010100
00000000
,
00001000
00000010
00000200
00000000
,
00000301
00001000
00000200
00000000
,
00010300
00001000
02000000
00000000
,
03010000
10000000
02000000
00000000
,
03100000
00001000
00020000
00000000
,
00031000
01000000
00002000
00000000
,
00013000
00000010
00010000
00001000
,
01000000
00000000
00100000
00000000
,
10000000
00000000
00000000
00000000
,
01000000
00000000
00000000
00000000
,
00100000
00000000
00000000
00000000
,
00001000
00000000
00000000
00000000
,
00010000
00000000
00000000
00000000
,
00000100
00000000
00000000
00000000
,
00000010
00000000
00000000
00000000
,
00000100
00000000
00001000
00000000
,
00000001
00000000
00000010
00000000
00000022
00000000
00000000
00000033
,
00001000
00000001
00001000
00000000
,
00000100
00010000
00001000
01000000
,
00010000
00100000
00010000
00000000
,
10000000
00000000
00100000
00000000
20200000
00000000
00000000
30300000
,
01000000
00000000
00010000
00000000
,
00100000
00000000
00000000
00100000
00000000
00000000
01000000
00000000
,
10000000
00000000
00000000
00000000
,
00020000
00000000
01030000
02000000
,
00000000
03000000
00001000
00000000
,
00020000
00000000
00030100
00000200
,
00000000
00000300
00001001
00000000
,
00000002
00000000
00000103
00000200
,
00000000
00000300
00000010
00000000
,
00020000
00000000
00031000
00002000
,
00000000
00003000
00000000
00000000
;
