#TITLE:Numb;
#SUBTITLE:(Jan Wayne & Raindropz "Handz Up" Remix);
#ARTIST:Linkin Park;
#TITLETRANSLIT:;
#SUBTITLETRANSLIT:;
#ARTISTTRANSLIT:;
#GENRE:;
#CREDIT:;
#MENUCOLOR:;
#METERTYPE:DDR;
#BANNER:Numb (Jan Wayne & Raindropz! ''Handz Up'' Remix)-bn.png;
#BACKGROUND:Numb (Jan Wayne & Raindropz! ''Handz Up'' Remix)-bg.png;
#LYRICSPATH:Numb (Jan Wayne & Raindropz! ''Handz Up'' Remix).lrc;
#CDTITLE:ddrencorecdtitle.png;
#MUSIC:Numb (Jan Waynes & Raindropz! ''Handz Up'' Remix).mp3;
#OFFSET:-0.965;
#SAMPLESTART:75.000;
#SAMPLELENGTH:12.000;
#SELECTABLE:YES;
#LISTSORT:5;
#BPMS:0.000=110.000,104.000=126.000,112.000=142.000;
#STOPS:104.000=0.010
,105.000=0.010
,106.000=0.010
;
#BGCHANGES:;
#ATTACKS:;

//---------------dance-single - ----------------
#NOTES:
     dance-single:
     :
     Beginner:
     1:
     0.087,0.124,0.046,0.000,0.000:
0000
0000
0000
0000
,
0000
0000
0000
0000
,
0000
0000
0000
0000
,
0000
0000
0000
0000
,
1000
0000
0000
0000
,
0100
0000
0000
0000
,
1000
0000
0000
0000
,
1000
0000
0000
0000
,
0001
0000
0000
0000
,
0010
0000
0000
0000
,
0001
0000
0000
0000
,
1000
0000
0000
0000
,
1001
0000
0000
0000
,
1001
0000
0000
0000
,
0100
0000
0000
0000
,
0010
0000
0000
0000
,
1001
0000
0000
0000
,
1001
0000
0000
0000
,
0100
0000
0000
0000
,
0010
0000
1000
0000
,
0100
0000
0000
0000
,
0010
0000
0001
0000
,
0100
0000
0000
0000
,
0001
0000
1000
0000
,
0010
0000
0000
0000
,
1000
0000
0001
0000
,
0100
0000
0000
0000
,
0000
0000
0000
0000
,
0001
0000
0000
0000
,
1000
0000
0000
0000
,
0001
0000
0000
0000
,
1000
0000
0000
0000
,
0001
0000
0010
0000
,
0100
0000
1000
0000
,
0001
0000
0000
0000
,
1000
0000
0000
0000
,
0001
0000
0000
0000
,
0100
0000
0001
0000
,
1000
0000
0000
0000
,
0100
0000
1000
0000
,
0001
0000
0000
0000
,
0010
0000
0001
0000
,
0100
0000
0000
0000
,
0010
0000
1000
0000
,
0100
0000
1000
0000
,
0001
0000
0000
0000
,
1000
0000
0000
0000
,
0010
0000
0000
0000
,
1000
0000
0000
0000
,
1000
0000
0000
0000
,
0001
0000
0000
0000
,
0010
0000
0000
0000
,
0001
0000
0000
0000
,
0001
0000
0000
0000
,
1001
0000
0000
0000
;

//---------------dance-single - ----------------
#NOTES:
     dance-single:
     :
     Easy:
     3:
     0.183,0.228,0.074,0.129,0.000:
0000
0000
0000
0000
,
0000
0000
0000
0000
,
0000
0000
0000
0000
,
0000
0000
0000
0000
,
0001
0000
0100
0000
,
0001
0001
1000
0000
,
0100
0000
0010
0000
,
0010
0000
0100
0000
,
1000
0000
0010
0000
,
1000
1000
0001
0000
,
0100
0000
0010
0000
,
1000
0000
0001
0000
,
2002
0000
3003
0000
,
0220
0000
0330
0000
,
0001
1000
0010
0000
,
0010
0100
0001
0000
,
2002
0000
3003
0000
,
0220
0000
0330
0000
,
0001
0000
0010
0001
,
1000
0000
0010
1000
,
0100
0000
0010
0001
,
0100
0000
0010
1000
,
0010
0000
0100
0001
,
0010
0000
0010
0100
,
1000
0000
1000
0010
,
0100
0000
0100
0001
,
2002
0000
0000
0000
,
3003
0000
0000
0000
,
0001
0000
0000
0000
,
0100
0000
0000
0000
,
0010
0000
0000
0000
,
1000
0000
0000
0000
,
1000
0000
0100
0000
,
0010
0000
0001
0000
,
1000
0100
1000
0000
,
0001
0010
0001
0000
,
1001
0000
0001
0010
,
0100
0000
0010
0000
,
0100
0000
1000
0010
,
0100
0000
0010
0000
,
0100
0000
0001
1000
,
0010
0000
0100
0000
,
0010
0000
1000
0001
,
0010
0000
0100
0000
,
2002
0000
0000
0000
,
3003
0000
0000
0000
,
1000
0010
1000
0010
,
0100
0001
0100
0001
,
1000
0100
0010
0001
,
0100
0001
0000
0100
,
0001
0010
0001
0010
,
0100
1000
0100
1000
,
0001
0100
0010
1000
,
0001
0000
0000
0000
,
2002
0000
0000
0000
,
3003
0000
0000
0000
;

//---------------dance-single - ----------------
#NOTES:
     dance-single:
     :
     Medium:
     5:
     0.275,0.329,0.064,0.055,0.000:
0000
0000
0000
0000
,
0000
0000
0000
0000
,
0000
0000
0000
0000
,
0000
0000
0000
0000
,
1000
0010
0100
0001
,
0010
0001
1000
0010
0000
0010
0100
0000
,
0001
0000
0001
0010
0000
0010
0001
0000
,
1000
0000
1000
0010
0000
0010
1000
0000
,
0001
0100
0010
1000
,
0100
1000
0001
0100
0000
0100
0010
0000
,
1000
0000
1000
0100
0000
0100
1000
0000
,
0001
0100
0000
0001
0000
1000
0000
0000
,
1001
0000
0000
0010
0000
0000
0100
0000
,
0001
0000
0000
0010
0000
0000
0100
0000
,
0010
0001
0010
0000
0001
0000
0100
0000
,
0010
1000
0010
0000
1000
0000
0001
0000
,
1001
0000
0000
0100
0000
0000
0010
0000
,
1000
0000
0000
0100
0000
0000
0010
0000
,
1001
0000
0000
0001
0100
0000
0001
0000
,
0010
0100
1000
0010
,
1000
0000
0000
1000
0100
0000
1000
0000
,
0010
0100
0001
0010
,
0001
0000
1000
0001
1000
0000
0010
0000
,
0100
0001
0010
0100
,
0010
0000
0001
1000
0001
0000
0100
0000
,
0010
1000
0001
0010
,
2002
0000
0000
0000
,
3003
0000
0000
0000
,
0001
0000
0100
0000
,
0010
0000
1000
0000
,
0010
0000
0100
0000
,
0001
0000
0000
0000
1000
0000
0001
0100
,
0001
0000
1000
0100
1000
0000
0001
0010
,
0001
0000
1000
0010
1000
0000
0001
1000
,
0001
0000
0100
0000
,
0010
1000
0001
0000
,
1001
0010
0001
0100
,
0010
0000
1000
0010
1000
0000
0001
0000
,
0100
0001
0010
0100
,
0010
0000
0001
0100
0001
0000
1000
0000
,
0010
0100
0001
1000
,
0010
0000
1000
0100
1000
0000
0001
0000
,
0010
0001
0100
0010
,
1000
0000
0001
0010
0001
0000
0100
0000
,
2002
0000
0000
0000
,
3003
0000
0000
0000
,
0001
0000
0100
0000
0010
1000
0010
0000
,
0100
0000
0001
0000
0010
0001
0010
0000
,
0001
0000
0100
0000
0010
1000
0001
0000
,
0100
0001
0000
0001
,
1000
0000
0100
0000
0010
0001
0010
0000
,
0100
0000
1000
0000
0010
1000
0010
0000
,
1000
0000
0100
0000
0010
0001
1000
0000
,
0010
0000
0010
0000
,
2002
0000
0000
0000
,
3003
0000
0000
0000
;

//---------------dance-single - ----------------
#NOTES:
     dance-single:
     :
     Hard:
     7:
     0.443,0.456,0.341,0.110,0.078:
0000
0000
0000
0000
,
0000
0000
0000
0000
,
0000
0000
0000
0000
,
0000
0000
0000
0000
,
0000
0010
1000
0010
0100
0001
1000
0100
,
0000
0000
0100
0000
1000
0000
0010
0000
0000
1000
0010
0000
0100
0000
0000
0000
,
0001
0010
0001
0020
0000
0230
0010
0300
,
1000
0010
1000
0020
0000
0230
0010
0300
,
1001
0000
0010
0001
0010
0100
1000
0010
,
0000
0000
0010
0000
1000
0000
0100
0000
0000
1000
0100
0000
0010
0000
0000
0000
,
0001
0100
0001
0200
0000
0320
0000
1030
,
0001
0010
0000
0100
0000
1000
0001
0000
,
0101
0000
0000
1100
0000
1000
0001
0000
,
1010
0000
0000
0011
0000
0000
0100
1000
,
0010
0100
0001
0010
0000
0100
0010
0001
,
0000
0100
0010
1000
0000
0001
1000
0000
,
1010
0000
0000
0011
0000
0001
1000
0000
,
0101
0000
0000
1100
0000
0000
0010
0000
,
1001
0000
0000
0100
0000
0000
1000
0000
0000
0000
0001
0000
0100
0000
0000
0000
,
0101
0000
0000
0010
0000
0000
1000
0000
0000
0001
0100
0000
0010
0000
0000
0000
,
0110
0000
0000
1000
0000
0000
0100
0000
0000
0000
1000
0000
0001
0000
0000
0000
,
0011
0000
0000
0100
0000
0000
0010
0000
0000
0000
1000
0000
0001
0100
0000
0000
,
1010
0000
0000
0001
0000
0000
0010
0000
0000
0000
0100
0000
0010
0000
0000
0000
,
1001
0000
0000
0100
0000
0000
0001
0000
0000
1000
0010
0000
1000
0000
0000
0000
,
0110
0000
0000
0001
0000
0000
1000
0000
0000
0000
0100
0000
0010
0000
0000
0000
,
1100
0000
0000
0001
0000
0000
0100
0000
0000
0000
0010
0000
1000
0001
0000
0000
,
2002
0000
0000
0000
,
3003
0000
0000
0000
0000
0001
0100
0001
,
1000
0000
0010
1000
0100
1000
0010
0100
,
0000
0001
0000
0010
0001
0100
0001
0010
,
0000
0100
0000
1000
0010
0100
0001
1000
,
0000
1000
0001
0000
0000
0010
0001
0100
,
0010
0010
1000
0100
0010
0010
0001
1000
,
0100
0100
1000
0001
0100
0100
0010
1000
,
0001
0010
0001
0100
0000
0010
1000
0100
,
0010
0000
0000
0001
0000
0000
1000
0000
0010
0000
0000
0000
0100
0000
0000
0000
,
1001
0000
0010
1000
0100
0000
0011
0000
,
1010
0000
0100
0001
1000
0000
0110
0000
,
1001
0000
0010
0001
0100
0000
0101
0000
,
1100
0000
0010
0100
1000
0000
1001
0000
,
0110
0000
1000
0010
0001
0000
1010
0000
,
0101
0000
0001
0010
1000
0000
0011
0000
,
0110
0000
0001
0100
1000
0000
0101
0000
,
1010
0000
1000
0100
0001
0000
1100
0000
,
0110
0000
0010
0001
1000
0000
0010
0000
,
2002
0000
0000
0000
3003
0100
1000
0010
,
1000
0100
0010
0001
0100
0010
1000
1000
,
0001
0010
0100
1000
0010
0100
0001
0001
,
1000
0001
0100
0001
0010
0001
0100
0010
,
0000
0010
0100
0000
0010
1000
0100
0010
,
0001
0010
0100
0010
0001
0100
0010
0010
,
1000
0100
0010
0100
1000
0010
0100
0100
,
0001
1000
0010
1000
0100
1000
0010
0100
,
0001
0000
1000
0001
0000
1000
0001
0000
0010
0000
0100
0000
0010
0000
0000
0000
,
2002
0000
0000
0000
,
3003
0000
0000
0000
;

//---------------dance-double - ----------------
#NOTES:
     dance-double:
     :
     Easy:
     3:
     0.175,0.253,0.083,0.129,0.000:
00000000
00000000
00000000
00000000
,
00000000
00000000
00000000
00000000
,
00000000
00000000
00000000
00000000
,
00000000
00000000
00000000
00000000
,
00100000
00000000
10000000
00000000
,
01000000
00000000
01000000
00000000
,
00100000
00001000
00010000
00000000
,
00001000
00010000
00000010
00000000
,
00000100
00000000
00000001
00000000
,
00000010
00000000
00000010
00000000
,
00000100
00010000
00001000
00000000
,
00010000
00001000
01000000
00000000
,
02200000
00000000
03300000
00000000
,
20020000
00000000
30030000
00000000
,
10000000
01000000
00100000
00010000
,
00100000
01000000
10000000
00010000
,
20020000
00000000
30030000
00000000
,
02200000
00000000
03300000
00000000
,
00010000
00000000
00010000
01000000
,
00001000
00000000
00010000
00001000
,
00010000
00000000
00010000
00000010
,
00001000
00000000
00001000
00000001
,
00001000
00000000
00000010
00010000
,
00001000
00000000
00001000
00010000
,
00001000
00000000
00001000
01000000
,
00010000
00000000
00010000
10000000
,
20020000
00000000
00000000
00000000
,
30030000
00000000
00000000
00000000
,
10000000
00000000
01000000
00000000
,
00100000
00000000
00001000
00000000
,
00010000
00000000
00000100
00000000
,
00000010
00000000
00000001
00000000
,
00001000
00000000
00000001
00000000
,
00001000
00000000
00000001
00000000
,
00000100
00000000
00000000
00000000
,
00000010
00000000
00000000
00000000
,
00001001
00000000
00000001
00000100
,
00000010
00000000
00010000
00000000
,
00001000
00000000
00010000
00000010
,
00001000
00000000
00000100
00000000
,
00010000
00000000
00001000
01000000
,
00010000
00000000
00100000
00000000
,
01000000
00000000
00100000
00010000
,
01000000
00000000
00001000
00000000
,
00022000
00000000
00000000
00000000
,
00033000
00000000
00000000
00000000
,
00010000
00000000
00001000
00000000
,
01000000
00000000
00010000
00000000
,
10000000
00000000
01000000
00000000
,
00100000
01000000
10000000
01000000
,
00100000
00000000
00001000
00000000
,
00010000
00000000
00000010
00000000
,
00001000
00000000
00000100
00000000
,
00001001
00000000
00000000
00000000
,
00022000
00000000
00000000
00000000
,
00033000
00000000
00000000
00000000
;

//---------------dance-double - ----------------
#NOTES:
     dance-double:
     :
     Medium:
     5:
     0.266,0.354,0.092,0.055,0.000:
00000000
00000000
00000000
00000000
,
00000000
00000000
00000000
00000000
,
00000000
00000000
00000000
00000000
,
00000000
00000000
00000000
00000000
,
00010000
00000000
00000010
00000000
,
00000100
00000001
00000010
00000000
,
00000100
00001000
00000100
00001000
00000000
00000100
00010000
00000000
,
00000010
00001000
00000010
00001000
00000000
00000010
00010000
00000000
,
00001000
00000000
01000000
00000000
,
00100000
10000000
01000000
00000000
,
00100000
00010000
00100000
00010000
00000000
00100000
00001000
00000000
,
01000000
00010000
01000000
00010000
01000000
00000000
00100000
00000000
,
10010000
00000000
00000000
01000000
00000000
00000000
00001000
00000000
,
00010000
00000000
00000000
00000100
00000000
00000000
00000010
00000000
,
00000001
00000100
00000001
00000000
00001000
00000000
00000010
00000000
,
00001000
00000100
00001000
00000000
00000001
00000000
00000100
00000000
,
00001001
00000000
00000000
00000010
00000000
00000000
00010000
00000000
,
00001000
00000000
00000000
00100000
00000000
00000000
00010000
00000000
,
11000000
00000000
00000000
01000000
10000000
00000000
00010000
00000000
,
00100000
00001000
00010000
00000010
,
00000100
00000000
00000000
00000100
00000001
00000000
00001000
00000000
,
00000010
00010000
00001000
01000000
,
00100000
00000000
10000000
00010000
10000000
00000000
00010000
00000000
,
01000000
00000000
00001000
00010000
00001000
00000000
00010000
00000000
,
00000100
00000000
00001000
00000001
00001000
00000000
00000010
00000000
,
00010000
00000000
00001000
00010000
00001000
00000000
00100000
00000000
,
00022000
00000000
00000000
00000000
,
00033000
00000000
00000000
00000000
,
00001000
00000000
00100000
00000000
,
01000000
00000000
10000000
00000000
,
00010000
00000000
00100000
00000000
,
00001000
00000000
00010000
00000000
00000000
00000000
00010000
00000100
,
00010000
00000000
00001000
01000000
00001000
00000000
00010000
00000010
,
00010000
00000000
00001000
00100000
00001000
00000000
00010000
00001000
,
00010000
00000010
00000100
00000000
,
00000010
00001000
00000001
00000000
,
00000101
00000000
00000000
00000001
00000100
00000000
00000010
00000000
,
00001000
00000100
00010000
00001000
,
01000000
00000000
00000000
01000000
00010000
00000000
00100000
00000000
,
01000000
10000000
00010000
00100000
,
00001000
00000000
01000000
00001000
,
00011000
00000000
00010000
00000010
,
00001001
00000000
00000100
00010000
,
00011000
00000000
00001000
01000000
,
20020000
00000000
00000000
00000000
,
30030000
00000000
00000000
00000000
,
00001000
00000000
01000000
00000000
00100000
10000000
00100000
00000000
,
01000000
00000000
00010000
00000000
00100000
00001000
00100000
00000000
,
00001000
00000000
00010000
00000000
00000010
00001000
00000010
00000000
,
00000100
00000001
00000000
00000001
,
00001000
00000000
00000100
00000000
00000010
00000001
00000010
00000000
,
00000100
00000000
00001000
00000000
00000010
00010000
00000010
00000000
,
00010000
00000000
00001000
00000000
01000000
00010000
01000000
00000000
,
00100000
00000000
10000000
00000000
,
20020000
00000000
00000000
00000000
,
30030000
00000000
00000000
00000000
;

//---------------dance-double - ----------------
#NOTES:
     dance-double:
     :
     Hard:
     7:
     0.412,0.481,0.138,0.166,0.087: // measure 1
00000000
00000000
00000000
00000000
,  // measure 2
00000000
00000000
00000000
00000000
,  // measure 3
00000000
00000000
00000000
00000000
,  // measure 4
00000000
00000000
00000000
00000000
,  // measure 5
00000002
00000000
00000000
00000203
00000000
00000000
00000310
00000000
,  // measure 6
00002000
00000000
00000000
00000000
00000000
00000000
00003100
00000000
00000000
00010000
00001000
00000000
00010000
00000000
00000000
00000000
,  // measure 7
00001000
01000000
00010000
00100000
00000000
01000000
00000000
10000000
,  // measure 8
00100000
01000000
00010000
00100000
00000000
00100000
01000000
00000000
,  // measure 9
20000000
00000000
00000000
30200000
00000000
00000000
01300000
00000000
,  // measure 10
00020000
00000000
00000000
00000000
00000000
00000000
01030000
00000000
00000000
00001000
00010000
00000000
00001000
00000000
00000000
00000000
,  // measure 11
00010000
00000010
00001000
00000100
00000000
00000010
00000000
00000001
,  // measure 12
00000100
00000010
00000000
00010000
00000000
00001000
00010000
00000000
,  // measure 13
00011000
00000000
00000000
00000000
00001000
00000000
01000000
00010000
01000000
00000000
00010000
10000000
00000000
00000000
00100000
00000000
,  // measure 14
00100000
00000000
10000000
01000000
10000000
00000000
01000000
00200000
00000000
00000000
00000000
00000000
00310000
00000000
01000000
00000000
,  // measure 15
00001000
00010000
00000100
00001000
00000000
00000010
00000100
00000001
,  // measure 16
00000000
00001000
00000100
00010000
00000000
00001000
01000000
00000000
,  // measure 17
00011000
00000000
00000000
00000000
00010000
00000000
00000100
00001000
00000100
00000000
00001000
00000001
00000000
00000000
00000010
00000000
,  // measure 18
00000010
00000000
00000001
00000100
00000001
00000000
00000100
00000020
00000000
00000000
00000000
00000000
00001030
00000000
00000000
00000000
,  // measure 19
00000001
00000000
00000000
00000100
00000000
00000000
00000010
00000000
00000000
00000000
00010000
00000000
00001000
00000000
00000000
00000000
,  // measure 20
00100000
00000000
00000000
01000000
00000000
00000000
10000000
00000000
00000000
00000000
00010000
00000000
10000000
00000000
00000000
00000000
,  // measure 21
10000000
00000000
00000000
00100000
00000000
00000000
01000000
00000000
00000000
00000000
00001000
00000000
00010000
00000000
00000000
00000000
,  // measure 22
00000100
00000000
00000000
00000010
00000000
00000000
00000001
00000000
00000000
00000000
00001000
00000000
00000001
00000000
00000000
00000000
,  // measure 23
00000200
00000000
00000000
00000010
00000000
00000000
00000310
00000000
00010000
00000000
00001000
00000000
01000000
00000000
00010000
00000000
,  // measure 24
02000000
00000000
00000000
00100000
00000000
00000000
03100000
00000000
10000000
00000000
00010000
00000000
01000000
00000000
00000000
00000000
,  // measure 25
00200000
00000000
00000000
01000000
00000000
00000000
01300000
00000000
00001000
00000000
00010000
00000000
00000010
00000000
00001000
00000000
,  // measure 26
00000020
00000000
00000000
00000100
00000000
00000000
00000130
00000000
00000001
00000000
00001000
00000000
00000100
00000000
00000000
00000000
,  // measure 27
00022000
00000000
00000000
00000000
,  // measure 28
00033000
00000000
00000000
00000000
00000000
00001000
00100000
00010000
,  // measure 29
00100000
01000000
10000000
00010000
,  // measure 30
00100000
00001000
00010000
00000010
,  // measure 31
00000100
00000001
00001000
00000010
,  // measure 32
00010000
00000000
00001000
00000000
01000000
00000000
00001000
00010000
,  // measure 33
00001000
00001000
00100000
00010000
00100000
00100000
00010000
01000000
,  // measure 34
00001000
00001000
00010000
00001000
00010000
00010000
00000010
00001000
,  // measure 35
00000010
00000010
00000100
00000001
00000000
00000010
00000001
00001000
,  // measure 36
00000100
00000000
00000000
00010000
00000000
00000000
00001000
00000000
00010000
00000000
00000000
00000000
00001000
00000000
00000000
00000000
,  // measure 37
01001000
00000000
01000000
00010000
00100000
00000000
01000000
00000000
,  // measure 38
11000000
00000000
10000000
00010000
00100000
00000000
00101000
00000000
,  // measure 39
00011000
00000000
00010000
00001000
01000000
00000000
00100000
00000000
,  // measure 40
10010000
00000000
01000000
00010000
00100000
00000000
00001000
00000000
,  // measure 41
00011000
00000000
00010000
00000100
00001000
00000000
00000010
00000000
,  // measure 42
00001001
00000000
00000100
00000001
00000010
00000000
00001100
00000000
,  // measure 43
00001001
00000000
00000010
00001000
00000100
00000000
00010000
00000000
,  // measure 44
00011000
00000000
00001000
01000000
00010000
00000000
00100000
00000000
,  // measure 45
20020000
00000000
00000000
00000000
,  // measure 46
30030000
00000000
00000000
00000000
00000000
00100000
00001000
00010000
,  // measure 47
00001000
01000000
00001000
01000000
00010000
00100000
00010000
00100000
,  // measure 48
01000000
10000000
01000000
10000000
00010000
00100000
00010000
00100000
,  // measure 49
00001000
00010000
00001000
00010000
00000010
00001000
00000010
00000100
,  // measure 50
00000000
00000100
00000001
00000000
00001000
00000001
00001000
00000010
,  // measure 51
00010000
00000100
00010000
00000100
00001000
00000010
00001000
00000010
,  // measure 52
00000100
00000001
00000100
00000001
00001000
00000100
00001000
00000100
,  // measure 53
00010000
00001000
00010000
00001000
00100000
00010000
00100000
01000000
,  // measure 54
10000000
00010000
01000000
00001000
,  // measure 55
00022000
00000000
00000000
00000000
,  // measure 56
00033000
00000000
00000000
00000000
;
